  0
SECTION
  2
HEADER
  9
$ACADVER
  1
AC1015
  9
$ACADMAINTVER
 70
     6
  9
$DWGCODEPAGE
  3
ANSI_1252
  9
$INSBASE
 10
0.0
 20
0.0
 30
0.0
  9
$EXTMIN
 10
-419.9999999999993
 20
0.0
 30
0.0
  9
$EXTMAX
 10
0.0
 20
297.0000000000003
 30
0.0
  9
$LIMMIN
 10
0.0
 20
0.0
  9
$LIMMAX
 10
12.0
 20
9.0
  9
$ORTHOMODE
 70
     0
  9
$REGENMODE
 70
     1
  9
$FILLMODE
 70
     1
  9
$QTEXTMODE
 70
     0
  9
$MIRRTEXT
 70
     1
  9
$LTSCALE
 40
1.0
  9
$ATTMODE
 70
     1
  9
$TEXTSIZE
 40
0.2
  9
$TRACEWID
 40
0.05
  9
$TEXTSTYLE
  7
Standard
  9
$CLAYER
  8
0
  9
$CELTYPE
  6
ByLayer
  9
$CECOLOR
 62
   256
  9
$CELTSCALE
 40
1.0
  9
$DISPSILH
 70
     0
  9
$DIMSCALE
 40
1.0
  9
$DIMASZ
 40
0.18
  9
$DIMEXO
 40
0.0625
  9
$DIMDLI
 40
0.38
  9
$DIMRND
 40
0.0
  9
$DIMDLE
 40
0.0
  9
$DIMEXE
 40
0.18
  9
$DIMTP
 40
0.0
  9
$DIMTM
 40
0.0
  9
$DIMTXT
 40
0.18
  9
$DIMCEN
 40
0.09
  9
$DIMTSZ
 40
0.0
  9
$DIMTOL
 70
     0
  9
$DIMLIM
 70
     0
  9
$DIMTIH
 70
     1
  9
$DIMTOH
 70
     1
  9
$DIMSE1
 70
     0
  9
$DIMSE2
 70
     0
  9
$DIMTAD
 70
     0
  9
$DIMZIN
 70
     0
  9
$DIMBLK
  1

  9
$DIMASO
 70
     1
  9
$DIMSHO
 70
     1
  9
$DIMPOST
  1

  9
$DIMAPOST
  1

  9
$DIMALT
 70
     0
  9
$DIMALTD
 70
     2
  9
$DIMALTF
 40
25.4
  9
$DIMLFAC
 40
1.0
  9
$DIMTOFL
 70
     0
  9
$DIMTVP
 40
0.0
  9
$DIMTIX
 70
     0
  9
$DIMSOXD
 70
     0
  9
$DIMSAH
 70
     0
  9
$DIMBLK1
  1

  9
$DIMBLK2
  1

  9
$DIMSTYLE
  2
Standard
  9
$DIMCLRD
 70
     0
  9
$DIMCLRE
 70
     0
  9
$DIMCLRT
 70
     0
  9
$DIMTFAC
 40
1.0
  9
$DIMGAP
 40
0.09
  9
$DIMJUST
 70
     0
  9
$DIMSD1
 70
     0
  9
$DIMSD2
 70
     0
  9
$DIMTOLJ
 70
     1
  9
$DIMTZIN
 70
     0
  9
$DIMALTZ
 70
     0
  9
$DIMALTTZ
 70
     0
  9
$DIMUPT
 70
     0
  9
$DIMDEC
 70
     4
  9
$DIMTDEC
 70
     4
  9
$DIMALTU
 70
     2
  9
$DIMALTTD
 70
     2
  9
$DIMTXSTY
  7
Standard
  9
$DIMAUNIT
 70
     0
  9
$DIMADEC
 70
     0
  9
$DIMALTRND
 40
0.0
  9
$DIMAZIN
 70
     0
  9
$DIMDSEP
 70
    46
  9
$DIMATFIT
 70
     3
  9
$DIMFRAC
 70
     0
  9
$DIMLDRBLK
  1

  9
$DIMLUNIT
 70
     2
  9
$DIMLWD
 70
    -2
  9
$DIMLWE
 70
    -2
  9
$DIMTMOVE
 70
     0
  9
$LUNITS
 70
     2
  9
$LUPREC
 70
     4
  9
$SKETCHINC
 40
0.1
  9
$FILLETRAD
 40
0.5
  9
$AUNITS
 70
     0
  9
$AUPREC
 70
     0
  9
$MENU
  1
.
  9
$ELEVATION
 40
0.0
  9
$PELEVATION
 40
0.0
  9
$THICKNESS
 40
0.0
  9
$LIMCHECK
 70
     0
  9
$CHAMFERA
 40
0.5
  9
$CHAMFERB
 40
0.5
  9
$CHAMFERC
 40
1.0
  9
$CHAMFERD
 40
0.0
  9
$SKPOLY
 70
     0
  9
$TDCREATE
 40
2455569.570635683
  9
$TDUCREATE
 40
2455569.528969016
  9
$TDUPDATE
 40
2455569.570635695
  9
$TDUUPDATE
 40
2455569.528969028
  9
$TDINDWG
 40
0.0000000116
  9
$TDUSRTIMER
 40
0.0000000116
  9
$USRTIMER
 70
     1
  9
$ANGBASE
 50
0.0
  9
$ANGDIR
 70
     0
  9
$PDMODE
 70
     0
  9
$PDSIZE
 40
0.0
  9
$PLINEWID
 40
0.0
  9
$SPLFRAME
 70
     0
  9
$SPLINETYPE
 70
     6
  9
$SPLINESEGS
 70
     8
  9
$HANDSEED
  5
514
  9
$SURFTAB1
 70
     6
  9
$SURFTAB2
 70
     6
  9
$SURFTYPE
 70
     6
  9
$SURFU
 70
     6
  9
$SURFV
 70
     6
  9
$UCSBASE
  2

  9
$UCSNAME
  2

  9
$UCSORG
 10
0.0
 20
0.0
 30
0.0
  9
$UCSXDIR
 10
1.0
 20
0.0
 30
0.0
  9
$UCSYDIR
 10
0.0
 20
1.0
 30
0.0
  9
$UCSORTHOREF
  2

  9
$UCSORTHOVIEW
 70
     0
  9
$UCSORGTOP
 10
0.0
 20
0.0
 30
0.0
  9
$UCSORGBOTTOM
 10
0.0
 20
0.0
 30
0.0
  9
$UCSORGLEFT
 10
0.0
 20
0.0
 30
0.0
  9
$UCSORGRIGHT
 10
0.0
 20
0.0
 30
0.0
  9
$UCSORGFRONT
 10
0.0
 20
0.0
 30
0.0
  9
$UCSORGBACK
 10
0.0
 20
0.0
 30
0.0
  9
$PUCSBASE
  2

  9
$PUCSNAME
  2

  9
$PUCSORG
 10
0.0
 20
0.0
 30
0.0
  9
$PUCSXDIR
 10
1.0
 20
0.0
 30
0.0
  9
$PUCSYDIR
 10
0.0
 20
1.0
 30
0.0
  9
$PUCSORTHOREF
  2

  9
$PUCSORTHOVIEW
 70
     0
  9
$PUCSORGTOP
 10
0.0
 20
0.0
 30
0.0
  9
$PUCSORGBOTTOM
 10
0.0
 20
0.0
 30
0.0
  9
$PUCSORGLEFT
 10
0.0
 20
0.0
 30
0.0
  9
$PUCSORGRIGHT
 10
0.0
 20
0.0
 30
0.0
  9
$PUCSORGFRONT
 10
0.0
 20
0.0
 30
0.0
  9
$PUCSORGBACK
 10
0.0
 20
0.0
 30
0.0
  9
$USERI1
 70
     0
  9
$USERI2
 70
     0
  9
$USERI3
 70
     0
  9
$USERI4
 70
     0
  9
$USERI5
 70
     0
  9
$USERR1
 40
16.5
  9
$USERR2
 40
0.0
  9
$USERR3
 40
0.0
  9
$USERR4
 40
0.0
  9
$USERR5
 40
0.0
  9
$WORLDVIEW
 70
     1
  9
$SHADEDGE
 70
     3
  9
$SHADEDIF
 70
    70
  9
$TILEMODE
 70
     1
  9
$MAXACTVP
 70
    64
  9
$PINSBASE
 10
0.0
 20
0.0
 30
0.0
  9
$PLIMCHECK
 70
     0
  9
$PEXTMIN
 10
1.00000000000000E+20
 20
1.00000000000000E+20
 30
1.00000000000000E+20
  9
$PEXTMAX
 10
-1.00000000000000E+20
 20
-1.00000000000000E+20
 30
-1.00000000000000E+20
  9
$PLIMMIN
 10
0.0
 20
0.0
  9
$PLIMMAX
 10
12.0
 20
9.0
  9
$UNITMODE
 70
     0
  9
$VISRETAIN
 70
     1
  9
$PLINEGEN
 70
     0
  9
$PSLTSCALE
 70
     1
  9
$TREEDEPTH
 70
  3020
  9
$CMLSTYLE
  2
Standard
  9
$CMLJUST
 70
     0
  9
$CMLSCALE
 40
1.0
  9
$PROXYGRAPHICS
 70
     1
  9
$MEASUREMENT
 70
     1
  9
$CELWEIGHT
370
    -1
  9
$ENDCAPS
280
     0
  9
$JOINSTYLE
280
     0
  9
$LWDISPLAY
290
     0
  9
$INSUNITS
 70
     1
  9
$HYPERLINKBASE
  1

  9
$STYLESHEET
  1

  9
$XEDIT
290
     1
  9
$CEPSNTYPE
380
     0
  9
$PSTYLEMODE
290
     1
  9
$FINGERPRINTGUID
  2
{A738108D-FF28-4518-B795-0C02E615E7FF}
  9
$VERSIONGUID
  2
{FAEB1C32-E019-11D5-929B-00C0DF256EC4}
  9
$EXTNAMES
290
     1
  9
$PSVPSCALE
 40
0.0
  9
$OLESTARTUP
290
     0
  0
ENDSEC
  0
SECTION
  2
CLASSES
  0
CLASS
  1
ACDBDICTIONARYWDFLT
  2
AcDbDictionaryWithDefault
  3
ObjectDBX Classes
 90
        0
280
     0
281
     0
  0
CLASS
  1
VISUALSTYLE
  2
AcDbVisualStyle
  3
ObjectDBX Classes
 90
     4095
280
     0
281
     0
  0
CLASS
  1
SCALE
  2
AcDbScale
  3
ObjectDBX Classes
 90
     1153
280
     0
281
     0
  0
CLASS
  1

  2
exOdDbCircle
  3

 90
        0
280
     0
281
     1
  0
CLASS
  1

  2
exOdDbPolyline
  3

 90
        0
280
     0
281
     1
  0
CLASS
  1
DICTIONARYVAR
  2
AcDbDictionaryVar
  3
ObjectDBX Classes
 90
        0
280
     0
281
     0
  0
CLASS
  1
ACDBPLACEHOLDER
  2
AcDbPlaceHolder
  3
ObjectDBX Classes
 90
        0
280
     0
281
     0
  0
CLASS
  1
LAYOUT
  2
AcDbLayout
  3
ObjectDBX Classes
 90
        0
280
     0
281
     0
  0
ENDSEC
  0
SECTION
  2
TABLES
  0
TABLE
  2
VPORT
  5
8
330
0
100
AcDbSymbolTable
 70
     1
  0
VPORT
  5
29
330
8
100
AcDbSymbolTableRecord
100
AcDbViewportTableRecord
  2
*Active
 70
     0
 10
0.0
 20
0.0
 11
1.0
 21
1.0
 12
-209.9999999999997
 22
148.5000000000001
 13
0.0
 23
0.0
 14
0.5
 24
0.5
 15
0.5
 25
0.5
 16
0.0
 26
0.0
 36
1.0
 17
0.0
 27
0.0
 37
0.0
 40
326.7000000000003
 41
1.60267857142857
 42
50.0
 43
0.0
 44
0.0
 50
0.0
 51
0.0
 71
     0
 72
   100
 73
     1
 74
     3
 75
     0
 76
     0
 77
     0
 78
     0
281
     0
 65
     1
110
0.0
120
0.0
130
0.0
111
1.0
121
0.0
131
0.0
112
0.0
122
1.0
132
0.0
 79
     0
146
0.0
  0
ENDTAB
  0
TABLE
  2
LTYPE
  5
5
330
0
100
AcDbSymbolTable
 70
     8
  0
LTYPE
  5
14
330
5
100
AcDbSymbolTableRecord
100
AcDbLinetypeTableRecord
  2
ByBlock
 70
     0
  3

 72
    65
 73
     0
 40
0.0
  0
LTYPE
  5
15
330
5
100
AcDbSymbolTableRecord
100
AcDbLinetypeTableRecord
  2
ByLayer
 70
     0
  3

 72
    65
 73
     0
 40
0.0
  0
LTYPE
  5
16
330
5
100
AcDbSymbolTableRecord
100
AcDbLinetypeTableRecord
  2
Continuous
 70
     0
  3
Solid line
 72
    65
 73
     0
 40
0.0
  0
LTYPE
  5
3B
330
5
100
AcDbSymbolTableRecord
100
AcDbLinetypeTableRecord
  2
DASHED
 70
     0
  3
Dashed
 72
    65
 73
     2
 40
15.0
 49
7.0
 74
     0
 49
-8.0
 74
     0
  0
LTYPE
  5
3C
330
5
100
AcDbSymbolTableRecord
100
AcDbLinetypeTableRecord
  2
DOTTED
 70
     0
  3
Dotted
 72
    65
 73
     2
 40
1.0
 49
0.0
 74
     0
 49
-1.0
 74
     0
  0
LTYPE
  5
3D
330
5
100
AcDbSymbolTableRecord
100
AcDbLinetypeTableRecord
  2
DOT_CENTER
 70
     0
  3
Dot_Center
 72
    65
 73
     4
 40
14.0
 49
12.0
 74
     0
 49
-1.0
 74
     0
 49
0.0
 74
     0
 49
-1.0
 74
     0
  0
LTYPE
  5
3E
330
5
100
AcDbSymbolTableRecord
100
AcDbLinetypeTableRecord
  2
LONG_DASHED
 70
     0
  3
Long_Dashed
 72
    65
 73
     2
 40
15.0
 49
10.0
 74
     0
 49
-5.0
 74
     0
  0
LTYPE
  5
3F
330
5
100
AcDbSymbolTableRecord
100
AcDbLinetypeTableRecord
  2
DASH_CENTER
 70
     0
  3
Dash_Center
 72
    65
 73
     4
 40
14.0
 49
11.0
 74
     0
 49
-1.0
 74
     0
 49
1.0
 74
     0
 49
-1.0
 74
     0
  0
LTYPE
  5
40
330
5
100
AcDbSymbolTableRecord
100
AcDbLinetypeTableRecord
  2
PHANTOM
 70
     0
  3
Phantom
 72
    65
 73
     6
 40
13.0
 49
10.0
 74
     0
 49
-1.0
 74
     0
 49
0.0
 74
     0
 49
-1.0
 74
     0
 49
0.0
 74
     0
 49
-1.0
 74
     0
  0
LTYPE
  5
41
330
5
100
AcDbSymbolTableRecord
100
AcDbLinetypeTableRecord
  2
CENTER_DASH_DASH
 70
     0
  3
Center_Dash_Dash
 72
    65
 73
     6
 40
14.0
 49
9.0
 74
     0
 49
-1.0
 74
     0
 49
1.0
 74
     0
 49
-1.0
 74
     0
 49
1.0
 74
     0
 49
-1.0
 74
     0
  0
ENDTAB
  0
TABLE
  2
LAYER
  5
2
330
0
100
AcDbSymbolTable
 70
     3
  0
LAYER
  5
10
330
2
100
AcDbSymbolTableRecord
100
AcDbLayerTableRecord
  2
0
 70
     0
 62
     7
  6
Continuous
370
    -3
390
F
  0
LAYER
  5
42
330
2
100
AcDbSymbolTableRecord
100
AcDbLayerTableRecord
  2
1
 70
     0
 62
     7
  6
Continuous
370
    -3
390
F
  0
LAYER
  5
43
330
2
100
AcDbSymbolTableRecord
100
AcDbLayerTableRecord
  2
167_685982745571_93_6844975212085
 70
     0
 62
     7
  6
Continuous
370
    -3
390
F
  0
ENDTAB
  0
TABLE
  2
STYLE
  5
3
330
0
100
AcDbSymbolTable
 70
     2
  0
STYLE
  5
11
330
3
100
AcDbSymbolTableRecord
100
AcDbTextStyleTableRecord
  2
Standard
 70
     0
 40
0.0
 41
1.0
 50
0.0
 71
     0
 42
0.2
  3
txt
  4

  0
STYLE
  5
194
330
3
100
AcDbSymbolTableRecord
100
AcDbTextStyleTableRecord
  2
CONVERTER_11
 70
     0
 40
0.0
 41
0.9
 50
0.0
 71
     0
 42
0.2
  3
txt.shx
  4

  0
ENDTAB
  0
TABLE
  2
VIEW
  5
6
330
0
100
AcDbSymbolTable
 70
     0
  0
ENDTAB
  0
TABLE
  2
UCS
  5
7
330
0
100
AcDbSymbolTable
 70
     0
  0
ENDTAB
  0
TABLE
  2
APPID
  5
9
330
0
100
AcDbSymbolTable
 70
     1
  0
APPID
  5
12
330
9
100
AcDbSymbolTableRecord
100
AcDbRegAppTableRecord
  2
ACAD
 70
     0
  0
ENDTAB
  0
TABLE
  2
DIMSTYLE
  5
A
330
0
100
AcDbSymbolTable
 70
    53
100
AcDbDimStyleTable
  0
DIMSTYLE
105
27
330
A
100
AcDbSymbolTableRecord
100
AcDbDimStyleTableRecord
  2
Standard
 70
     0
340
11
  0
DIMSTYLE
105
1A5
102
{ACAD_REACTORS
330
1A6
102
}
330
A
100
AcDbSymbolTableRecord
100
AcDbDimStyleTableRecord
  2
ME10_DIM_10
 70
     0
 41
3.5
 42
0.0
 44
2.0
 73
     0
 74
     0
 77
     1
 78
     8
140
5.0
147
2.0
172
     1
173
     1
176
     2
177
     2
178
     2
271
     2
340
194
  0
DIMSTYLE
105
1B2
102
{ACAD_REACTORS
330
1B3
102
}
330
A
100
AcDbSymbolTableRecord
100
AcDbDimStyleTableRecord
  2
ME10_DIM_11
 70
     0
 41
3.5
 42
0.0
 44
2.0
 73
     0
 74
     0
 77
     1
 78
     8
140
5.0
147
2.0
172
     1
173
     1
176
     2
177
     2
178
     2
271
     2
340
194
  0
DIMSTYLE
105
1BD
102
{ACAD_REACTORS
330
1BE
102
}
330
A
100
AcDbSymbolTableRecord
100
AcDbDimStyleTableRecord
  2
ME10_DIM_12
 70
     0
  3
ø<>
 41
3.5
 42
0.0
 44
2.0
 73
     0
 74
     0
 77
     1
 78
     8
140
5.0
147
2.0
172
     1
173
     1
176
     2
177
     2
178
     2
271
     2
340
194
  0
DIMSTYLE
105
1CA
102
{ACAD_REACTORS
330
1CB
102
}
330
A
100
AcDbSymbolTableRecord
100
AcDbDimStyleTableRecord
  2
ME10_DIM_13
 70
     0
 41
3.5
 42
0.0
 44
2.0
 73
     0
 74
     0
 77
     1
 78
     8
140
5.0
147
2.0
172
     1
173
     1
176
     2
177
     2
178
     2
271
     2
340
194
  0
DIMSTYLE
105
1D7
102
{ACAD_REACTORS
330
1D8
102
}
330
A
100
AcDbSymbolTableRecord
100
AcDbDimStyleTableRecord
  2
ME10_DIM_14
 70
     0
 41
3.5
 42
0.0
 44
2.0
 73
     0
 74
     0
 77
     1
 78
     8
140
5.0
147
2.0
172
     1
173
     1
176
     2
177
     2
178
     2
271
     2
340
194
  0
DIMSTYLE
105
1E4
102
{ACAD_REACTORS
330
1E5
102
}
330
A
100
AcDbSymbolTableRecord
100
AcDbDimStyleTableRecord
  2
ME10_DIM_15
 70
     0
 41
3.5
 42
0.0
 44
2.0
 73
     0
 74
     0
 77
     1
 78
     8
140
5.0
147
2.0
172
     1
173
     1
176
     2
177
     2
178
     2
271
     2
340
194
  0
DIMSTYLE
105
1F3
102
{ACAD_REACTORS
330
1F4
102
}
330
A
100
AcDbSymbolTableRecord
100
AcDbDimStyleTableRecord
  2
ME10_DIM_16
 70
     0
 41
3.5
 42
0.0
 44
2.0
 73
     0
 74
     0
 77
     1
 78
     8
140
5.0
147
2.0
172
     1
173
     1
176
     2
177
     2
178
     2
271
     2
340
194
  0
DIMSTYLE
105
1FF
102
{ACAD_REACTORS
330
200
102
}
330
A
100
AcDbSymbolTableRecord
100
AcDbDimStyleTableRecord
  2
ME10_DIM_17
 70
     0
 41
3.5
 42
0.0
 44
2.0
 73
     0
 74
     0
 77
     1
 78
     8
140
5.0
147
2.0
172
     1
173
     1
176
     2
177
     2
178
     2
271
     2
340
194
  0
DIMSTYLE
105
20A
102
{ACAD_REACTORS
330
20B
102
}
330
A
100
AcDbSymbolTableRecord
100
AcDbDimStyleTableRecord
  2
ME10_DIM_18
 70
     0
 41
3.5
 42
0.0
 44
2.0
 73
     0
 74
     0
 77
     1
 78
     8
140
5.0
147
2.0
172
     1
173
     1
176
     2
177
     2
178
     2
271
     2
340
194
  0
DIMSTYLE
105
217
102
{ACAD_REACTORS
330
218
102
}
330
A
100
AcDbSymbolTableRecord
100
AcDbDimStyleTableRecord
  2
ME10_DIM_19
 70
     0
 41
3.5
 42
0.0
 44
2.0
 73
     0
 74
     0
 77
     1
 78
     8
140
5.0
147
2.0
172
     1
173
     1
176
     2
177
     2
178
     2
271
     2
340
194
  0
DIMSTYLE
105
222
102
{ACAD_REACTORS
330
223
102
}
330
A
100
AcDbSymbolTableRecord
100
AcDbDimStyleTableRecord
  2
ME10_DIM_20
 70
     0
 41
3.5
 42
0.0
 44
2.0
 73
     0
 74
     0
 77
     1
 78
     8
140
5.0
147
2.0
172
     1
173
     1
176
     2
177
     2
178
     2
271
     2
340
194
  0
DIMSTYLE
105
22D
102
{ACAD_REACTORS
330
22E
102
}
330
A
100
AcDbSymbolTableRecord
100
AcDbDimStyleTableRecord
  2
ME10_DIM_21
 70
     0
  3
ø<>
 41
3.5
 42
0.0
 44
2.0
 73
     0
 74
     0
 77
     1
 78
     8
140
5.0
147
2.0
172
     1
173
     1
176
     2
177
     2
178
     2
271
     2
340
194
  0
DIMSTYLE
105
239
102
{ACAD_REACTORS
330
23A
102
}
330
A
100
AcDbSymbolTableRecord
100
AcDbDimStyleTableRecord
  2
ME10_DIM_22
 70
     0
  3
ø<>-j7
 41
3.5
 42
0.0
 44
2.0
 73
     0
 74
     0
 77
     1
 78
     8
140
5.0
147
2.0
172
     1
173
     1
176
     2
177
     2
178
     2
271
     2
340
194
  0
DIMSTYLE
105
246
102
{ACAD_REACTORS
330
247
102
}
330
A
100
AcDbSymbolTableRecord
100
AcDbDimStyleTableRecord
  2
ME10_DIM_23
 70
     0
 41
3.5
 42
0.0
 44
2.0
 73
     0
 74
     0
 77
     1
 78
     8
140
5.0
147
2.0
172
     1
173
     1
176
     2
177
     2
178
     2
271
     2
340
194
  0
DIMSTYLE
105
251
102
{ACAD_REACTORS
330
252
102
}
330
A
100
AcDbSymbolTableRecord
100
AcDbDimStyleTableRecord
  2
ME10_DIM_24
 70
     0
 41
3.5
 42
0.0
 44
2.0
 73
     0
 74
     0
 77
     1
 78
     8
140
5.0
147
2.0
172
     1
173
     1
176
     2
177
     2
178
     2
271
     2
340
194
  0
DIMSTYLE
105
25E
102
{ACAD_REACTORS
330
25F
102
}
330
A
100
AcDbSymbolTableRecord
100
AcDbDimStyleTableRecord
  2
ME10_DIM_25
 70
     0
 41
3.5
 42
0.0
 44
2.0
 73
     0
 74
     0
 77
     1
 78
     8
140
5.0
147
2.0
172
     1
173
     1
176
     2
177
     2
178
     2
271
     2
340
194
  0
DIMSTYLE
105
269
102
{ACAD_REACTORS
330
26A
102
}
330
A
100
AcDbSymbolTableRecord
100
AcDbDimStyleTableRecord
  2
ME10_DIM_26
 70
     0
 41
3.5
 42
0.0
 44
2.0
 73
     0
 74
     0
 77
     1
 78
     8
140
5.0
147
2.0
172
     1
173
     1
176
     2
177
     2
178
     2
271
     2
340
194
  0
DIMSTYLE
105
275
102
{ACAD_REACTORS
330
276
102
}
330
A
100
AcDbSymbolTableRecord
100
AcDbDimStyleTableRecord
  2
ME10_DIM_27
 70
     0
  3
ø<>-j5
 41
3.5
 42
0.0
 44
2.0
 73
     0
 74
     0
 77
     1
 78
     8
140
5.0
147
2.0
172
     1
173
     1
176
     2
177
     2
178
     2
271
     2
340
194
  0
DIMSTYLE
105
281
102
{ACAD_REACTORS
330
282
102
}
330
A
100
AcDbSymbolTableRecord
100
AcDbDimStyleTableRecord
  2
ME10_DIM_28
 70
     0
  3
ø<>-j5
 41
3.5
 42
0.0
 44
2.0
 73
     0
 74
     0
 77
     1
 78
     8
140
5.0
147
2.0
172
     1
173
     1
176
     2
177
     2
178
     2
271
     2
340
194
  0
DIMSTYLE
105
28E
102
{ACAD_REACTORS
330
28F
102
}
330
A
100
AcDbSymbolTableRecord
100
AcDbDimStyleTableRecord
  2
ME10_DIM_29
 70
     0
 41
3.5
 42
0.0
 44
2.0
 73
     0
 74
     0
 77
     1
 78
     8
140
5.0
147
2.0
172
     1
173
     1
176
     2
177
     2
178
     2
271
     2
340
194
  0
DIMSTYLE
105
29B
102
{ACAD_REACTORS
330
29C
102
}
330
A
100
AcDbSymbolTableRecord
100
AcDbDimStyleTableRecord
  2
ME10_DIM_30
 70
     0
 41
3.5
 42
0.0
 44
2.0
 73
     0
 74
     0
 77
     1
 78
     8
140
5.0
147
2.0
172
     1
173
     1
176
     2
177
     2
178
     2
271
     2
340
194
  0
DIMSTYLE
105
2A6
102
{ACAD_REACTORS
330
2A7
102
}
330
A
100
AcDbSymbolTableRecord
100
AcDbDimStyleTableRecord
  2
ME10_DIM_31
 70
     0
 41
3.5
 42
0.0
 44
2.0
 73
     0
 74
     0
 77
     1
 78
     8
140
5.0
147
2.0
172
     1
173
     1
176
     2
177
     2
178
     2
271
     2
340
194
  0
DIMSTYLE
105
2B3
102
{ACAD_REACTORS
330
2B4
102
}
330
A
100
AcDbSymbolTableRecord
100
AcDbDimStyleTableRecord
  2
ME10_DIM_32
 70
     0
 41
3.5
 42
0.0
 44
2.0
 73
     0
 74
     0
 77
     1
 78
     8
140
5.0
147
2.0
172
     1
173
     1
176
     2
177
     2
178
     2
271
     2
340
194
  0
DIMSTYLE
105
2C0
102
{ACAD_REACTORS
330
2C1
102
}
330
A
100
AcDbSymbolTableRecord
100
AcDbDimStyleTableRecord
  2
ME10_DIM_33
 70
     0
  3
x45·
 41
3.5
 42
0.0
 44
2.0
 73
     0
 74
     0
 77
     1
 78
     8
140
5.0
147
2.0
172
     1
173
     1
176
     2
177
     2
178
     2
271
     2
340
194
  0
DIMSTYLE
105
2CD
102
{ACAD_REACTORS
330
2CE
102
}
330
A
100
AcDbSymbolTableRecord
100
AcDbDimStyleTableRecord
  2
ME10_DIM_34
 70
     0
 41
3.5
 42
0.0
 44
2.0
 73
     0
 74
     0
 77
     1
 78
     8
140
5.0
147
2.0
172
     1
173
     1
176
     2
177
     2
178
     2
271
     2
340
194
  0
DIMSTYLE
105
2D9
102
{ACAD_REACTORS
330
2DA
102
}
330
A
100
AcDbSymbolTableRecord
100
AcDbDimStyleTableRecord
  2
ME10_DIM_35
 70
     0
 41
3.5
 42
0.0
 44
2.0
 73
     0
 74
     0
 77
     1
 78
     8
140
5.0
147
2.0
172
     1
173
     1
176
     2
177
     2
178
     2
271
     2
340
194
  0
DIMSTYLE
105
2E4
102
{ACAD_REACTORS
330
2E5
102
}
330
A
100
AcDbSymbolTableRecord
100
AcDbDimStyleTableRecord
  2
ME10_DIM_36
 70
     0
 41
3.5
 42
0.0
 44
2.0
 73
     0
 74
     0
 77
     1
 78
     8
140
5.0
147
2.0
172
     1
173
     1
176
     2
177
     2
178
     2
271
     2
340
194
  0
DIMSTYLE
105
2EF
102
{ACAD_REACTORS
330
2F0
102
}
330
A
100
AcDbSymbolTableRecord
100
AcDbDimStyleTableRecord
  2
ME10_DIM_37
 70
     0
 41
3.5
 42
0.0
 44
2.0
 73
     0
 74
     0
 77
     1
 78
     8
140
5.0
147
2.0
172
     1
173
     1
176
     2
177
     2
178
     2
271
     2
340
194
  0
DIMSTYLE
105
2FC
102
{ACAD_REACTORS
330
2FD
102
}
330
A
100
AcDbSymbolTableRecord
100
AcDbDimStyleTableRecord
  2
ME10_DIM_38
 70
     0
 41
3.5
 42
0.0
 44
2.0
 73
     0
 74
     0
 77
     1
 78
     8
140
5.0
147
2.0
172
     1
173
     1
176
     2
177
     2
178
     2
271
     2
340
194
  0
DIMSTYLE
105
307
102
{ACAD_REACTORS
330
308
102
}
330
A
100
AcDbSymbolTableRecord
100
AcDbDimStyleTableRecord
  2
ME10_DIM_39
 70
     0
 41
3.5
 42
0.0
 44
2.0
 73
     0
 74
     0
 77
     1
 78
     8
140
5.0
147
2.0
172
     1
173
     1
176
     2
177
     2
178
     2
271
     2
340
194
  0
DIMSTYLE
105
312
102
{ACAD_REACTORS
330
313
102
}
330
A
100
AcDbSymbolTableRecord
100
AcDbDimStyleTableRecord
  2
ME10_DIM_40
 70
     0
 41
3.5
 42
0.0
 44
2.0
 73
     0
 74
     0
 77
     1
 78
     8
140
5.0
147
2.0
172
     1
173
     1
176
     2
177
     2
178
     2
271
     2
340
194
  0
DIMSTYLE
105
31D
102
{ACAD_REACTORS
330
31E
102
}
330
A
100
AcDbSymbolTableRecord
100
AcDbDimStyleTableRecord
  2
ME10_DIM_41
 70
     0
 41
3.5
 42
0.0
 44
2.0
 73
     0
 74
     0
 77
     1
 78
     8
140
5.0
147
2.0
172
     1
173
     1
176
     2
177
     2
178
     2
271
     2
340
194
  0
DIMSTYLE
105
328
102
{ACAD_REACTORS
330
329
102
}
330
A
100
AcDbSymbolTableRecord
100
AcDbDimStyleTableRecord
  2
ME10_DIM_42
 70
     0
 41
3.5
 42
0.0
 44
2.0
 73
     0
 74
     0
 77
     1
 78
     8
140
5.0
147
2.0
172
     1
173
     1
176
     2
177
     2
178
     2
271
     2
340
194
  0
DIMSTYLE
105
334
102
{ACAD_REACTORS
330
335
102
}
330
A
100
AcDbSymbolTableRecord
100
AcDbDimStyleTableRecord
  2
ME10_DIM_43
 70
     0
 41
3.5
 42
0.0
 44
2.0
 73
     0
 74
     0
 77
     1
 78
     8
140
5.0
147
2.0
172
     1
173
     1
176
     2
177
     2
178
     2
271
     2
340
194
  0
DIMSTYLE
105
340
102
{ACAD_REACTORS
330
341
102
}
330
A
100
AcDbSymbolTableRecord
100
AcDbDimStyleTableRecord
  2
ME10_DIM_44
 70
     0
 41
3.5
 42
0.0
 44
2.0
 73
     0
 74
     0
 77
     1
 78
     8
140
5.0
147
2.0
172
     1
173
     1
176
     2
177
     2
178
     2
271
     2
340
194
  0
DIMSTYLE
105
34D
102
{ACAD_REACTORS
330
34E
102
}
330
A
100
AcDbSymbolTableRecord
100
AcDbDimStyleTableRecord
  2
ME10_DIM_45
 70
     0
 41
3.5
 42
0.0
 44
2.0
 73
     0
 74
     0
 77
     1
 78
     8
140
5.0
147
2.0
172
     1
173
     1
176
     2
177
     2
178
     2
271
     2
340
194
  0
DIMSTYLE
105
358
102
{ACAD_REACTORS
330
359
102
}
330
A
100
AcDbSymbolTableRecord
100
AcDbDimStyleTableRecord
  2
ME10_DIM_46
 70
     0
 41
3.5
 42
0.0
 44
2.0
 73
     0
 74
     0
 77
     1
 78
     8
140
5.0
147
2.0
172
     1
173
     1
176
     2
177
     2
178
     2
271
     2
340
194
  0
DIMSTYLE
105
363
102
{ACAD_REACTORS
330
364
102
}
330
A
100
AcDbSymbolTableRecord
100
AcDbDimStyleTableRecord
  2
ME10_DIM_47
 70
     0
 41
3.5
 42
0.0
 44
2.0
 73
     0
 74
     0
 77
     1
 78
     8
140
5.0
147
2.0
172
     1
173
     1
176
     2
177
     2
178
     2
271
     2
340
194
  0
DIMSTYLE
105
36E
102
{ACAD_REACTORS
330
36F
102
}
330
A
100
AcDbSymbolTableRecord
100
AcDbDimStyleTableRecord
  2
ME10_DIM_48
 70
     0
 41
3.5
 42
0.0
 44
2.0
 73
     0
 74
     0
 77
     1
 78
     8
140
5.0
147
2.0
172
     1
173
     1
176
     2
177
     2
178
     2
271
     2
340
194
  0
DIMSTYLE
105
379
102
{ACAD_REACTORS
330
37A
102
}
330
A
100
AcDbSymbolTableRecord
100
AcDbDimStyleTableRecord
  2
ME10_DIM_49
 70
     0
 41
3.5
 42
0.0
 44
2.0
 73
     0
 74
     0
 77
     1
 78
     8
140
5.0
147
2.0
172
     1
173
     1
176
     2
177
     2
178
     2
271
     2
340
194
  0
DIMSTYLE
105
384
102
{ACAD_REACTORS
330
385
102
}
330
A
100
AcDbSymbolTableRecord
100
AcDbDimStyleTableRecord
  2
ME10_DIM_50
 70
     0
 41
3.5
 42
0.0
 44
2.0
 73
     0
 74
     0
 77
     1
 78
     8
140
5.0
147
2.0
172
     1
173
     1
176
     2
177
     2
178
     2
271
     2
340
194
  0
DIMSTYLE
105
38F
102
{ACAD_REACTORS
330
390
102
}
330
A
100
AcDbSymbolTableRecord
100
AcDbDimStyleTableRecord
  2
ME10_DIM_51
 70
     0
 41
3.5
 42
0.0
 44
2.0
 73
     0
 74
     0
 77
     1
 78
     8
140
5.0
147
2.0
172
     1
173
     1
176
     2
177
     2
178
     2
271
     2
340
194
  0
DIMSTYLE
105
39B
102
{ACAD_REACTORS
330
39C
102
}
330
A
100
AcDbSymbolTableRecord
100
AcDbDimStyleTableRecord
  2
ME10_DIM_52
 70
     0
 41
3.5
 42
0.0
 44
2.0
 73
     0
 74
     0
 77
     1
 78
     8
140
5.0
147
2.0
172
     1
173
     1
176
     2
177
     2
178
     2
271
     2
340
194
  0
DIMSTYLE
105
3A7
102
{ACAD_REACTORS
330
3A8
102
}
330
A
100
AcDbSymbolTableRecord
100
AcDbDimStyleTableRecord
  2
ME10_DIM_53
 70
     0
 41
3.5
 42
0.0
 44
2.0
 73
     0
 74
     0
 77
     1
 78
     8
140
5.0
147
2.0
172
     1
173
     1
176
     2
177
     2
178
     2
271
     2
340
194
  0
DIMSTYLE
105
3B4
102
{ACAD_REACTORS
330
3B5
102
}
330
A
100
AcDbSymbolTableRecord
100
AcDbDimStyleTableRecord
  2
ME10_DIM_54
 70
     0
 41
3.5
 42
0.0
 44
2.0
 73
     0
 74
     0
 77
     1
 78
     8
140
5.0
147
2.0
172
     1
173
     1
176
     2
177
     2
178
     2
271
     2
340
194
  0
DIMSTYLE
105
3BF
102
{ACAD_REACTORS
330
3C0
102
}
330
A
100
AcDbSymbolTableRecord
100
AcDbDimStyleTableRecord
  2
ME10_DIM_55
 70
     0
 41
3.5
 42
0.0
 44
2.0
 73
     0
 74
     0
 77
     1
 78
     8
140
5.0
147
2.0
172
     1
173
     1
176
     2
177
     2
178
     2
271
     2
340
194
  0
DIMSTYLE
105
3CA
102
{ACAD_REACTORS
330
3CB
102
}
330
A
100
AcDbSymbolTableRecord
100
AcDbDimStyleTableRecord
  2
ME10_DIM_56
 70
     0
 41
3.5
 42
0.0
 44
2.0
 73
     0
 74
     0
 77
     1
 78
     8
140
5.0
147
2.0
172
     1
173
     1
176
     2
177
     2
178
     2
271
     2
340
194
  0
DIMSTYLE
105
3D5
102
{ACAD_REACTORS
330
3D6
102
}
330
A
100
AcDbSymbolTableRecord
100
AcDbDimStyleTableRecord
  2
ME10_DIM_57
 70
     0
 41
3.5
 42
0.0
 44
2.0
 73
     0
 74
     0
 77
     1
 78
     8
140
5.0
147
2.0
172
     1
173
     1
176
     2
177
     2
178
     2
271
     2
340
194
  0
DIMSTYLE
105
3E3
102
{ACAD_REACTORS
330
3E4
102
}
330
A
100
AcDbSymbolTableRecord
100
AcDbDimStyleTableRecord
  2
ME10_DIM_58
 70
     0
 41
3.5
 42
0.0
 44
2.0
 73
     0
 74
     0
 77
     1
 78
     8
140
5.0
147
2.0
172
     1
173
     1
176
     2
177
     2
178
     2
271
     2
340
194
  0
DIMSTYLE
105
3F0
102
{ACAD_REACTORS
330
3F1
102
}
330
A
100
AcDbSymbolTableRecord
100
AcDbDimStyleTableRecord
  2
ME10_DIM_59
 70
     0
 41
3.5
 42
0.0
 44
2.0
 73
     0
 74
     0
 77
     1
 78
     8
140
5.0
147
2.0
172
     1
173
     1
176
     2
177
     2
178
     2
271
     2
340
194
  0
DIMSTYLE
105
3FB
102
{ACAD_REACTORS
330
3FC
102
}
330
A
100
AcDbSymbolTableRecord
100
AcDbDimStyleTableRecord
  2
ME10_DIM_60
 70
     0
 41
3.5
 42
0.0
 44
2.0
 73
     0
 74
     0
 77
     1
 78
     8
140
5.0
147
2.0
172
     1
173
     1
176
     2
177
     2
178
     2
271
     2
340
194
  0
DIMSTYLE
105
407
102
{ACAD_REACTORS
330
408
102
}
330
A
100
AcDbSymbolTableRecord
100
AcDbDimStyleTableRecord
  2
ME10_DIM_61
 70
     0
 41
3.5
 42
0.0
 44
2.0
 73
     0
 74
     0
 77
     1
 78
     8
140
5.0
147
2.0
172
     1
173
     1
176
     2
177
     2
178
     2
271
     2
340
194
  0
ENDTAB
  0
TABLE
  2
BLOCK_RECORD
  5
1
330
0
100
AcDbSymbolTable
 70
    60
  0
BLOCK_RECORD
  5
1F
330
1
100
AcDbSymbolTableRecord
100
AcDbBlockTableRecord
  2
*Model_Space
340
22
  0
BLOCK_RECORD
  5
1B
330
1
100
AcDbSymbolTableRecord
100
AcDbBlockTableRecord
  2
*Paper_Space
340
1E
  0
BLOCK_RECORD
  5
23
330
1
100
AcDbSymbolTableRecord
100
AcDbBlockTableRecord
  2
*Paper_Space0
340
26
  0
BLOCK_RECORD
  5
44
330
1
100
AcDbSymbolTableRecord
100
AcDbBlockTableRecord
  2
Top
340
0
102
{BLKREFS
331
6C
102
}
  0
BLOCK_RECORD
  5
47
330
1
100
AcDbSymbolTableRecord
100
AcDbBlockTableRecord
  2
A4
340
0
102
{BLKREFS
331
6D
102
}
  0
BLOCK_RECORD
  5
19A
330
1
100
AcDbSymbolTableRecord
100
AcDbBlockTableRecord
  2
*D3
340
0
  0
BLOCK_RECORD
  5
1A7
330
1
100
AcDbSymbolTableRecord
100
AcDbBlockTableRecord
  2
*D4
340
0
  0
BLOCK_RECORD
  5
1B4
330
1
100
AcDbSymbolTableRecord
100
AcDbBlockTableRecord
  2
*D5
340
0
  0
BLOCK_RECORD
  5
1BF
330
1
100
AcDbSymbolTableRecord
100
AcDbBlockTableRecord
  2
*D6
340
0
  0
BLOCK_RECORD
  5
1CC
330
1
100
AcDbSymbolTableRecord
100
AcDbBlockTableRecord
  2
*D7
340
0
  0
BLOCK_RECORD
  5
1D9
330
1
100
AcDbSymbolTableRecord
100
AcDbBlockTableRecord
  2
*D8
340
0
  0
BLOCK_RECORD
  5
1E6
330
1
100
AcDbSymbolTableRecord
100
AcDbBlockTableRecord
  2
*D9
340
0
  0
BLOCK_RECORD
  5
1F5
330
1
100
AcDbSymbolTableRecord
100
AcDbBlockTableRecord
  2
*D10
340
0
  0
BLOCK_RECORD
  5
201
330
1
100
AcDbSymbolTableRecord
100
AcDbBlockTableRecord
  2
*D11
340
0
  0
BLOCK_RECORD
  5
20C
330
1
100
AcDbSymbolTableRecord
100
AcDbBlockTableRecord
  2
*D12
340
0
  0
BLOCK_RECORD
  5
219
330
1
100
AcDbSymbolTableRecord
100
AcDbBlockTableRecord
  2
*D13
340
0
  0
BLOCK_RECORD
  5
224
330
1
100
AcDbSymbolTableRecord
100
AcDbBlockTableRecord
  2
*D14
340
0
  0
BLOCK_RECORD
  5
22F
330
1
100
AcDbSymbolTableRecord
100
AcDbBlockTableRecord
  2
*D15
340
0
  0
BLOCK_RECORD
  5
23B
330
1
100
AcDbSymbolTableRecord
100
AcDbBlockTableRecord
  2
*D16
340
0
  0
BLOCK_RECORD
  5
248
330
1
100
AcDbSymbolTableRecord
100
AcDbBlockTableRecord
  2
*D17
340
0
  0
BLOCK_RECORD
  5
253
330
1
100
AcDbSymbolTableRecord
100
AcDbBlockTableRecord
  2
*D18
340
0
  0
BLOCK_RECORD
  5
260
330
1
100
AcDbSymbolTableRecord
100
AcDbBlockTableRecord
  2
*D19
340
0
  0
BLOCK_RECORD
  5
26B
330
1
100
AcDbSymbolTableRecord
100
AcDbBlockTableRecord
  2
*D20
340
0
  0
BLOCK_RECORD
  5
277
330
1
100
AcDbSymbolTableRecord
100
AcDbBlockTableRecord
  2
*D21
340
0
  0
BLOCK_RECORD
  5
283
330
1
100
AcDbSymbolTableRecord
100
AcDbBlockTableRecord
  2
*D22
340
0
  0
BLOCK_RECORD
  5
290
330
1
100
AcDbSymbolTableRecord
100
AcDbBlockTableRecord
  2
*D23
340
0
  0
BLOCK_RECORD
  5
29D
330
1
100
AcDbSymbolTableRecord
100
AcDbBlockTableRecord
  2
*D24
340
0
  0
BLOCK_RECORD
  5
2A8
330
1
100
AcDbSymbolTableRecord
100
AcDbBlockTableRecord
  2
*D25
340
0
  0
BLOCK_RECORD
  5
2B5
330
1
100
AcDbSymbolTableRecord
100
AcDbBlockTableRecord
  2
*D26
340
0
  0
BLOCK_RECORD
  5
2C2
330
1
100
AcDbSymbolTableRecord
100
AcDbBlockTableRecord
  2
*D27
340
0
  0
BLOCK_RECORD
  5
2CF
330
1
100
AcDbSymbolTableRecord
100
AcDbBlockTableRecord
  2
*D28
340
0
  0
BLOCK_RECORD
  5
2DB
330
1
100
AcDbSymbolTableRecord
100
AcDbBlockTableRecord
  2
*D29
340
0
  0
BLOCK_RECORD
  5
2E6
330
1
100
AcDbSymbolTableRecord
100
AcDbBlockTableRecord
  2
*D30
340
0
  0
BLOCK_RECORD
  5
2F1
330
1
100
AcDbSymbolTableRecord
100
AcDbBlockTableRecord
  2
*D31
340
0
  0
BLOCK_RECORD
  5
2FE
330
1
100
AcDbSymbolTableRecord
100
AcDbBlockTableRecord
  2
*D32
340
0
  0
BLOCK_RECORD
  5
309
330
1
100
AcDbSymbolTableRecord
100
AcDbBlockTableRecord
  2
*D33
340
0
  0
BLOCK_RECORD
  5
314
330
1
100
AcDbSymbolTableRecord
100
AcDbBlockTableRecord
  2
*D34
340
0
  0
BLOCK_RECORD
  5
31F
330
1
100
AcDbSymbolTableRecord
100
AcDbBlockTableRecord
  2
*D35
340
0
  0
BLOCK_RECORD
  5
32A
330
1
100
AcDbSymbolTableRecord
100
AcDbBlockTableRecord
  2
*D36
340
0
  0
BLOCK_RECORD
  5
336
330
1
100
AcDbSymbolTableRecord
100
AcDbBlockTableRecord
  2
*D37
340
0
  0
BLOCK_RECORD
  5
342
330
1
100
AcDbSymbolTableRecord
100
AcDbBlockTableRecord
  2
*D38
340
0
  0
BLOCK_RECORD
  5
34F
330
1
100
AcDbSymbolTableRecord
100
AcDbBlockTableRecord
  2
*D39
340
0
  0
BLOCK_RECORD
  5
35A
330
1
100
AcDbSymbolTableRecord
100
AcDbBlockTableRecord
  2
*D40
340
0
  0
BLOCK_RECORD
  5
365
330
1
100
AcDbSymbolTableRecord
100
AcDbBlockTableRecord
  2
*D41
340
0
  0
BLOCK_RECORD
  5
370
330
1
100
AcDbSymbolTableRecord
100
AcDbBlockTableRecord
  2
*D42
340
0
  0
BLOCK_RECORD
  5
37B
330
1
100
AcDbSymbolTableRecord
100
AcDbBlockTableRecord
  2
*D43
340
0
  0
BLOCK_RECORD
  5
386
330
1
100
AcDbSymbolTableRecord
100
AcDbBlockTableRecord
  2
*D44
340
0
  0
BLOCK_RECORD
  5
391
330
1
100
AcDbSymbolTableRecord
100
AcDbBlockTableRecord
  2
*D45
340
0
  0
BLOCK_RECORD
  5
39D
330
1
100
AcDbSymbolTableRecord
100
AcDbBlockTableRecord
  2
*D46
340
0
  0
BLOCK_RECORD
  5
3A9
330
1
100
AcDbSymbolTableRecord
100
AcDbBlockTableRecord
  2
*D47
340
0
  0
BLOCK_RECORD
  5
3B6
330
1
100
AcDbSymbolTableRecord
100
AcDbBlockTableRecord
  2
*D48
340
0
  0
BLOCK_RECORD
  5
3C1
330
1
100
AcDbSymbolTableRecord
100
AcDbBlockTableRecord
  2
*D49
340
0
  0
BLOCK_RECORD
  5
3CC
330
1
100
AcDbSymbolTableRecord
100
AcDbBlockTableRecord
  2
*D50
340
0
  0
BLOCK_RECORD
  5
3D7
330
1
100
AcDbSymbolTableRecord
100
AcDbBlockTableRecord
  2
*D51
340
0
  0
BLOCK_RECORD
  5
3E5
330
1
100
AcDbSymbolTableRecord
100
AcDbBlockTableRecord
  2
*D52
340
0
  0
BLOCK_RECORD
  5
3F2
330
1
100
AcDbSymbolTableRecord
100
AcDbBlockTableRecord
  2
*D53
340
0
  0
BLOCK_RECORD
  5
3FD
330
1
100
AcDbSymbolTableRecord
100
AcDbBlockTableRecord
  2
*D54
340
0
  0
BLOCK_RECORD
  5
409
330
1
100
AcDbSymbolTableRecord
100
AcDbBlockTableRecord
  2
*D55
340
0
102
{BLKREFS
331
411
102
}
  0
BLOCK_RECORD
  5
412
330
1
100
AcDbSymbolTableRecord
100
AcDbBlockTableRecord
  2
*D56
340
0
102
{BLKREFS
331
419
102
}
  0
BLOCK_RECORD
  5
41A
330
1
100
AcDbSymbolTableRecord
100
AcDbBlockTableRecord
  2
*D57
340
0
102
{BLKREFS
331
421
102
}
  0
BLOCK_RECORD
  5
422
330
1
100
AcDbSymbolTableRecord
100
AcDbBlockTableRecord
  2
*D58
340
0
102
{BLKREFS
331
429
102
}
  0
BLOCK_RECORD
  5
42A
330
1
100
AcDbSymbolTableRecord
100
AcDbBlockTableRecord
  2
*D59
340
0
102
{BLKREFS
331
430
102
}
  0
ENDTAB
  0
ENDSEC
  0
SECTION
  2
BLOCKS
  0
BLOCK
  5
20
330
1F
100
AcDbEntity
  8
0
100
AcDbBlockBegin
  2
*Model_Space
 70
     0
 10
0.0
 20
0.0
 30
0.0
  3
*Model_Space
  1

  0
ENDBLK
  5
21
330
1F
100
AcDbEntity
  8
0
100
AcDbBlockEnd
  0
BLOCK
  5
1C
330
1B
100
AcDbEntity
 67
     1
  8
0
100
AcDbBlockBegin
  2
*Paper_Space
 70
     0
 10
0.0
 20
0.0
 30
0.0
  3
*Paper_Space
  1

  0
ENDBLK
  5
1D
330
1B
100
AcDbEntity
 67
     1
  8
0
100
AcDbBlockEnd
  0
BLOCK
  5
24
330
23
100
AcDbEntity
  8
0
100
AcDbBlockBegin
  2
*Paper_Space0
 70
     0
 10
0.0
 20
0.0
 30
0.0
  3
*Paper_Space0
  1

  0
ENDBLK
  5
25
330
23
100
AcDbEntity
  8
0
100
AcDbBlockEnd
  0
BLOCK
  5
45
330
44
100
AcDbEntity
  8
0
100
AcDbBlockBegin
  2
Top
 70
     0
 10
-419.9999999999993
 20
297.0000000000003
 30
0.0
  3
Top
  1

  0
LINE
  5
6E
330
44
100
AcDbEntity
  8
1
  6
DASH_CENTER
 62
     2
100
AcDbLine
 10
-474.6385912480281
 20
185.6936301706485
 30
0.0
 11
-484.4722939504783
 21
185.6936301706486
 31
0.0
  0
LINE
  5
6F
330
44
100
AcDbEntity
  8
1
  6
Continuous
 62
     4
100
AcDbLine
 10
-484.4722939504783
 20
185.6936301706486
 30
0.0
 11
-504.4722939504783
 21
185.6936301706487
 31
0.0
  0
LINE
  5
70
330
44
100
AcDbEntity
  8
1
  6
DASH_CENTER
 62
     2
100
AcDbLine
 10
-504.4722939504783
 20
185.6936301706487
 30
0.0
 11
-527.4722939504783
 21
185.6936301706488
 31
0.0
  0
LINE
  5
71
330
44
100
AcDbEntity
  8
1
  6
Continuous
 62
     4
100
AcDbLine
 10
-527.4722939504783
 20
185.6936301706488
 30
0.0
 11
-529.9722939504783
 21
185.6936301706485
 31
0.0
  0
LINE
  5
72
330
44
100
AcDbEntity
  8
1
  6
Continuous
 62
     4
100
AcDbLine
 10
-537.4722939504783
 20
471.9884720951642
 30
0.0
 11
-484.4722939504783
 21
471.9884720951641
 31
0.0
  0
LINE
  5
73
330
44
100
AcDbEntity
  8
1
  6
DASH_CENTER
 62
     2
100
AcDbLine
 10
-667.7655055572719
 20
471.9884720951644
 30
0.0
 11
-537.4722939504783
 21
471.9884720951642
 31
0.0
  0
LINE
  5
74
330
44
100
AcDbEntity
  8
1
  6
Continuous
 62
     2
100
AcDbLine
 10
-741.2455732647776
 20
296.0403617912534
 30
0.0
 11
-653.7714596132877
 21
296.0403617912534
 31
0.0
  0
LINE
  5
75
330
44
100
AcDbEntity
  8
1
  6
Continuous
 62
     2
100
AcDbLine
 10
-653.7714596132877
 20
296.0403617912534
 30
0.0
 11
-653.7714596132877
 21
307.5588996575744
 31
0.0
  0
LINE
  5
76
330
44
100
AcDbEntity
  8
1
  6
Continuous
 62
     2
100
AcDbLine
 10
-653.7714596132877
 20
307.5588996575744
 30
0.0
 11
-741.2455732647776
 21
307.5588996575744
 31
0.0
  0
LINE
  5
77
330
44
100
AcDbEntity
  8
1
  6
Continuous
 62
     2
100
AcDbLine
 10
-741.2455732647776
 20
307.5588996575744
 30
0.0
 11
-741.2455732647776
 21
296.0403617912534
 31
0.0
  0
LINE
  5
78
330
44
100
AcDbEntity
  8
167_685982745571_93_6844975212085
  6
DASH_CENTER
 62
     2
100
AcDbLine
 10
-669.9423843698088
 20
435.8884720951647
 30
0.0
 11
-584.9722939504783
 21
435.8884720951647
 31
0.0
  0
LINE
  5
79
330
44
100
AcDbEntity
  8
1
  6
DASH_CENTER
 62
     2
100
AcDbLine
 10
-571.9951175976906
 20
458.8656484479522
 30
0.0
 11
-564.4819836059056
 21
466.3787824397372
 31
0.0
  0
LINE
  5
7A
330
44
100
AcDbEntity
  8
1
  6
DASH_CENTER
 62
     2
100
AcDbLine
 10
-617.625939811819
 20
458.5421179565054
 30
0.0
 11
-625.4308459974594
 21
466.3470241421457
 31
0.0
  0
LINE
  5
7B
330
44
100
AcDbEntity
  8
1
  6
Continuous
 62
     4
100
AcDbLine
 10
-522.4722939504783
 20
180.6936301706488
 30
0.0
 11
-509.4722939504783
 21
180.6936301706488
 31
0.0
  0
LINE
  5
7C
330
44
100
AcDbEntity
  8
1
  6
Continuous
 62
     4
100
AcDbLine
 10
-509.4722939504783
 20
190.6936301706488
 30
0.0
 11
-522.4722939504783
 21
190.6936301706488
 31
0.0
  0
LINE
  5
7D
330
44
100
AcDbEntity
  8
1
  6
Continuous
 62
     4
100
AcDbLine
 10
-504.9513494174772
 20
149.3119641727743
 30
0.0
 11
-529.9722939504783
 21
153.7238317767522
 31
0.0
  0
LINE
  5
7E
330
44
100
AcDbEntity
  8
1
  6
Continuous
 62
     4
100
AcDbLine
 10
-495.4722939504783
 20
125.6936301706488
 30
0.0
 11
-500.4722939504783
 21
125.6936301706488
 31
0.0
  0
LINE
  5
7F
330
44
100
AcDbEntity
  8
1
  6
DASH_CENTER
 62
     2
100
AcDbLine
 10
-559.680594501458
 20
265.9853296196689
 30
0.0
 11
-569.7415785510921
 21
255.9243455700342
 31
0.0
  0
LINE
  5
80
330
44
100
AcDbEntity
  8
1
  6
DASH_CENTER
 62
     2
100
AcDbLine
 10
-630.2639933994984
 20
265.9853296196689
 30
0.0
 11
-620.2030093498644
 21
255.9243455700342
 31
0.0
  0
LINE
  5
81
330
44
100
AcDbEntity
  8
1
  6
Continuous
 62
     4
100
AcDbLine
 10
-504.9513494174772
 20
435.6068060972901
 30
0.0
 11
-530.9722939504783
 21
440.1950006819768
 31
0.0
  0
LINE
  5
82
330
44
100
AcDbEntity
  8
1
  6
Continuous
 62
     4
100
AcDbLine
 10
-495.4722939504783
 20
411.9884720951646
 30
0.0
 11
-500.4722939504783
 21
411.9884720951646
 31
0.0
  0
LINE
  5
83
330
44
100
AcDbEntity
  8
1
  6
Continuous
 62
     4
100
AcDbLine
 10
-643.9722939504782
 20
230.6936301706485
 30
0.0
 11
-643.9722939504782
 21
220.6936301706485
 31
0.0
  0
LINE
  5
84
330
44
100
AcDbEntity
  8
1
  6
Continuous
 62
     4
100
AcDbLine
 10
-545.9722939504782
 20
230.6936301706485
 30
0.0
 11
-643.9722939504782
 21
230.6936301706485
 31
0.0
  0
LINE
  5
85
330
44
100
AcDbEntity
  8
1
  6
Continuous
 62
     4
100
AcDbLine
 10
-545.9722939504783
 20
220.6936301706485
 30
0.0
 11
-545.9722939504782
 21
230.6936301706485
 31
0.0
  0
LINE
  5
86
330
44
100
AcDbEntity
  8
1
  6
Continuous
 62
     4
100
AcDbLine
 10
-644.7083619279779
 20
220.6936301706485
 30
0.0
 11
-640.2362259729784
 21
220.6936301706485
 31
0.0
  0
LINE
  5
87
330
44
100
AcDbEntity
  8
1
  6
Continuous
 62
     4
100
AcDbLine
 10
-629.9722939504782
 20
220.6936301706485
 30
0.0
 11
-559.9722939504782
 21
220.6936301706485
 31
0.0
  0
LINE
  5
88
330
44
100
AcDbEntity
  8
1
  6
Continuous
 62
     4
100
AcDbLine
 10
-549.7083619279779
 20
220.6936301706485
 30
0.0
 11
-545.2362259729782
 21
220.6936301706485
 31
0.0
  0
LINE
  5
89
330
44
100
AcDbEntity
  8
1
  6
Continuous
 62
     4
100
AcDbLine
 10
-545.2362259729784
 20
150.6936301706485
 30
0.0
 11
-549.7083619279779
 21
150.6936301706485
 31
0.0
  0
LINE
  5
8A
330
44
100
AcDbEntity
  8
1
  6
Continuous
 62
     4
100
AcDbLine
 10
-559.9722939504782
 20
155.6936301706485
 30
0.0
 11
-559.9722939504782
 21
150.6936301706485
 31
0.0
  0
LINE
  5
8B
330
44
100
AcDbEntity
  8
1
  6
Continuous
 62
     4
100
AcDbLine
 10
-559.9722939504782
 20
150.6936301706485
 30
0.0
 11
-629.9722939504782
 21
150.6936301706485
 31
0.0
  0
LINE
  5
8C
330
44
100
AcDbEntity
  8
1
  6
Continuous
 62
     4
100
AcDbLine
 10
-629.9722939504782
 20
143.6936301706485
 30
0.0
 11
-629.9722939504782
 21
150.6936301706485
 31
0.0
  0
LINE
  5
8D
330
44
100
AcDbEntity
  8
1
  6
Continuous
 62
     4
100
AcDbLine
 10
-640.2362259729784
 20
150.6936301706485
 30
0.0
 11
-644.7083619279779
 21
150.6936301706485
 31
0.0
  0
LINE
  5
8E
330
44
100
AcDbEntity
  8
1
  6
DASH_CENTER
 62
     2
100
AcDbLine
 10
-594.9722939504782
 20
287.7832171939049
 30
0.0
 11
-594.9722939504782
 21
59.7033745522769
 31
0.0
  0
LINE
  5
8F
330
44
100
AcDbEntity
  8
1
  6
DASH_CENTER
 62
     2
100
AcDbLine
 10
-529.9722939504783
 20
185.6936301706485
 30
0.0
 11
-665.3319840166733
 21
185.6936301706485
 31
0.0
  0
LINE
  5
90
330
44
100
AcDbEntity
  8
1
  6
DASH_CENTER
 62
     2
100
AcDbLine
 10
-642.4722939504783
 20
154.0145177619126
 30
0.0
 11
-642.4722939504783
 21
141.1803660923635
 31
0.0
  0
LINE
  5
91
330
44
100
AcDbEntity
  8
1
  6
DASH_CENTER
 62
     2
100
AcDbLine
 10
-636.5468152721133
 20
148.6936301706485
 30
0.0
 11
-647.9142067508573
 21
148.6936301706485
 31
0.0
  0
LINE
  5
92
330
44
100
AcDbEntity
  8
1
  6
DASH_CENTER
 62
     2
100
AcDbLine
 10
-547.4722939504783
 20
154.1978627857625
 30
0.0
 11
-547.4722939504783
 21
141.7304011639155
 31
0.0
  0
LINE
  5
93
330
44
100
AcDbEntity
  8
1
  6
DASH_CENTER
 62
     2
100
AcDbLine
 10
-542.3074730128541
 20
148.6936301706485
 30
0.0
 11
-552.5747943484931
 21
148.6936301706485
 31
0.0
  0
LINE
  5
94
330
44
100
AcDbEntity
  8
1
  6
DASH_CENTER
 62
     2
100
AcDbLine
 10
-542.4908180367048
 20
222.6936301706485
 30
0.0
 11
-552.7581393723441
 21
222.6936301706485
 31
0.0
  0
LINE
  5
95
330
44
100
AcDbEntity
  8
1
  6
DASH_CENTER
 62
     2
100
AcDbLine
 10
-547.4722939504783
 20
217.2685509904035
 30
0.0
 11
-547.4722939504783
 21
229.3693225645497
 31
0.0
  0
LINE
  5
96
330
44
100
AcDbEntity
  8
1
  6
DASH_CENTER
 62
     2
100
AcDbLine
 10
-642.4722939504783
 20
229.1859775406991
 30
0.0
 11
-642.4722939504783
 21
217.8185860619557
 31
0.0
  0
LINE
  5
97
330
44
100
AcDbEntity
  8
1
  6
DASH_CENTER
 62
     2
100
AcDbLine
 10
-637.2801953675163
 20
222.6936301706485
 30
0.0
 11
-648.0975517747082
 21
222.6936301706485
 31
0.0
  0
LINE
  5
98
330
44
100
AcDbEntity
  8
1
  6
Continuous
 62
     4
100
AcDbLine
 10
-544.4722939504782
 20
148.6936301706485
 30
0.0
 11
-544.4722939504782
 21
143.6936301706485
 31
0.0
  0
LINE
  5
99
330
44
100
AcDbEntity
  8
1
  6
Continuous
 62
     4
100
AcDbLine
 10
-559.9722939504782
 20
143.6936301706485
 30
0.0
 11
-550.4722939504782
 21
143.6936301706485
 31
0.0
  0
LINE
  5
9A
330
44
100
AcDbEntity
  8
1
  6
Continuous
 62
     4
100
AcDbLine
 10
-550.4722939504782
 20
143.6936301706485
 30
0.0
 11
-550.4722939504782
 21
148.6936301706485
 31
0.0
  0
LINE
  5
9B
330
44
100
AcDbEntity
  8
1
  6
Continuous
 62
     4
100
AcDbLine
 10
-532.9722939504782
 20
227.6936301706485
 30
0.0
 11
-544.4722939504782
 21
227.6936301706485
 31
0.0
  0
LINE
  5
9C
330
44
100
AcDbEntity
  8
1
  6
Continuous
 62
     4
100
AcDbLine
 10
-544.4722939504782
 20
222.6936301706485
 30
0.0
 11
-544.4722939504782
 21
227.6936301706485
 31
0.0
  0
LINE
  5
9D
330
44
100
AcDbEntity
  8
1
  6
Continuous
 62
     4
100
AcDbLine
 10
-550.4722939504782
 20
227.6936301706485
 30
0.0
 11
-550.4722939504782
 21
222.6936301706485
 31
0.0
  0
LINE
  5
9E
330
44
100
AcDbEntity
  8
1
  6
Continuous
 62
     4
100
AcDbLine
 10
-629.9722939504782
 20
227.6936301706485
 30
0.0
 11
-639.4722939504782
 21
227.6936301706485
 31
0.0
  0
LINE
  5
9F
330
44
100
AcDbEntity
  8
1
  6
Continuous
 62
     4
100
AcDbLine
 10
-639.4722939504782
 20
222.6936301706485
 30
0.0
 11
-639.4722939504782
 21
227.6936301706485
 31
0.0
  0
LINE
  5
A0
330
44
100
AcDbEntity
  8
1
  6
Continuous
 62
     4
100
AcDbLine
 10
-645.4722939504783
 20
227.6936301706485
 30
0.0
 11
-645.4722939504782
 21
222.6936301706485
 31
0.0
  0
LINE
  5
A1
330
44
100
AcDbEntity
  8
1
  6
Continuous
 62
     4
100
AcDbLine
 10
-639.4722939504783
 20
143.6936301706485
 30
0.0
 11
-639.4722939504782
 21
148.6936301706485
 31
0.0
  0
LINE
  5
A2
330
44
100
AcDbEntity
  8
1
  6
Continuous
 62
     4
100
AcDbLine
 10
-656.9722939504782
 20
143.6936301706485
 30
0.0
 11
-645.4722939504782
 21
143.6936301706485
 31
0.0
  0
LINE
  5
A3
330
44
100
AcDbEntity
  8
1
  6
Continuous
 62
     4
100
AcDbLine
 10
-645.4722939504782
 20
148.6936301706485
 30
0.0
 11
-645.4722939504782
 21
143.6936301706485
 31
0.0
  0
LINE
  5
A4
330
44
100
AcDbEntity
  8
1
  6
Continuous
 62
     4
100
AcDbLine
 10
-658.9722939504782
 20
143.6936301706485
 30
0.0
 11
-659.9722939504782
 21
144.6936301706485
 31
0.0
  0
LINE
  5
A5
330
44
100
AcDbEntity
  8
1
  6
Continuous
 62
     4
100
AcDbLine
 10
-658.9722939504782
 20
227.6936301706485
 30
0.0
 11
-659.9722939504782
 21
226.6936301706485
 31
0.0
  0
LINE
  5
A6
330
44
100
AcDbEntity
  8
1
  6
Continuous
 62
     4
100
AcDbLine
 10
-530.9722939504782
 20
227.6936301706485
 30
0.0
 11
-529.9722939504782
 21
226.6936301706485
 31
0.0
  0
LINE
  5
A7
330
44
100
AcDbEntity
  8
1
  6
Continuous
 62
     4
100
AcDbLine
 10
-530.9722939504782
 20
143.6936301706485
 30
0.0
 11
-529.9722939504782
 21
144.6936301706485
 31
0.0
  0
LINE
  5
A8
330
44
100
AcDbEntity
  8
1
  6
Continuous
 62
     4
100
AcDbLine
 10
-544.4722939504782
 20
143.6936301706485
 30
0.0
 11
-532.9722939504782
 21
143.6936301706485
 31
0.0
  0
LINE
  5
A9
330
44
100
AcDbEntity
  8
1
  6
Continuous
 62
     4
100
AcDbLine
 10
-530.9722939504782
 20
227.6936301706485
 30
0.0
 11
-532.9722939504782
 21
227.6936301706485
 31
0.0
  0
LINE
  5
AA
330
44
100
AcDbEntity
  8
1
  6
Continuous
 62
     4
100
AcDbLine
 10
-532.9722939504782
 20
143.6936301706485
 30
0.0
 11
-532.9722939504782
 21
227.6936301706485
 31
0.0
  0
LINE
  5
AB
330
44
100
AcDbEntity
  8
1
  6
Continuous
 62
     4
100
AcDbLine
 10
-645.4722939504783
 20
227.6936301706485
 30
0.0
 11
-656.9722939504783
 21
227.6936301706485
 31
0.0
  0
LINE
  5
AC
330
44
100
AcDbEntity
  8
1
  6
Continuous
 62
     4
100
AcDbLine
 10
-658.9722939504782
 20
143.6936301706485
 30
0.0
 11
-656.9722939504782
 21
143.6936301706485
 31
0.0
  0
LINE
  5
AD
330
44
100
AcDbEntity
  8
1
  6
Continuous
 62
     4
100
AcDbLine
 10
-656.9722939504783
 20
227.6936301706485
 30
0.0
 11
-656.9722939504782
 21
143.6936301706485
 31
0.0
  0
LINE
  5
AE
330
44
100
AcDbEntity
  8
1
  6
Continuous
 62
     4
100
AcDbLine
 10
-559.9722939504782
 20
227.6936301706485
 30
0.0
 11
-559.9722939504782
 21
215.6936301706485
 31
0.0
  0
LINE
  5
AF
330
44
100
AcDbEntity
  8
1
  6
Continuous
 62
     4
100
AcDbLine
 10
-629.9722939504782
 20
155.6936301706485
 30
0.0
 11
-629.9722939504782
 21
215.6936301706485
 31
0.0
  0
LINE
  5
B0
330
44
100
AcDbEntity
  8
1
  6
Continuous
 62
     4
100
AcDbLine
 10
-559.9722939504782
 20
215.6936301706485
 30
0.0
 11
-629.9722939504782
 21
215.6936301706485
 31
0.0
  0
LINE
  5
B1
330
44
100
AcDbEntity
  8
1
  6
Continuous
 62
     4
100
AcDbLine
 10
-559.9722939504782
 20
215.6936301706485
 30
0.0
 11
-559.9722939504782
 21
155.6936301706485
 31
0.0
  0
LINE
  5
B2
330
44
100
AcDbEntity
  8
1
  6
Continuous
 62
     4
100
AcDbLine
 10
-629.9722939504782
 20
150.6936301706485
 30
0.0
 11
-629.9722939504782
 21
155.6936301706485
 31
0.0
  0
LINE
  5
B3
330
44
100
AcDbEntity
  8
1
  6
Continuous
 62
     4
100
AcDbLine
 10
-559.9722939504782
 20
155.6936301706485
 30
0.0
 11
-629.9722939504782
 21
155.6936301706485
 31
0.0
  0
LINE
  5
B4
330
44
100
AcDbEntity
  8
1
  6
Continuous
 62
     4
100
AcDbLine
 10
-559.9722939504782
 20
150.6936301706485
 30
0.0
 11
-559.9722939504782
 21
143.6936301706485
 31
0.0
  0
LINE
  5
B5
330
44
100
AcDbEntity
  8
1
  6
Continuous
 62
     4
100
AcDbLine
 10
-532.9722939504782
 20
143.6936301706485
 30
0.0
 11
-530.9722939504782
 21
143.6936301706485
 31
0.0
  0
LINE
  5
B6
330
44
100
AcDbEntity
  8
1
  6
Continuous
 62
     4
100
AcDbLine
 10
-529.9722939504782
 20
144.6936301706485
 30
0.0
 11
-529.9722939504782
 21
226.6936301706485
 31
0.0
  0
LINE
  5
B7
330
44
100
AcDbEntity
  8
1
  6
Continuous
 62
     4
100
AcDbLine
 10
-550.4722939504782
 20
227.6936301706485
 30
0.0
 11
-559.9722939504782
 21
227.6936301706485
 31
0.0
  0
LINE
  5
B8
330
44
100
AcDbEntity
  8
1
  6
Continuous
 62
     4
100
AcDbLine
 10
-659.9722939504782
 20
226.6936301706485
 30
0.0
 11
-659.9722939504782
 21
144.6936301706485
 31
0.0
  0
LINE
  5
B9
330
44
100
AcDbEntity
  8
1
  6
Continuous
 62
     4
100
AcDbLine
 10
-639.4722939504783
 20
143.6936301706485
 30
0.0
 11
-629.9722939504782
 21
143.6936301706485
 31
0.0
  0
LINE
  5
BA
330
44
100
AcDbEntity
  8
1
  6
Continuous
 62
     4
100
AcDbLine
 10
-629.9722939504782
 20
215.6936301706485
 30
0.0
 11
-629.9722939504782
 21
227.6936301706485
 31
0.0
  0
LINE
  5
BB
330
44
100
AcDbEntity
  8
1
  6
Continuous
 62
     4
100
AcDbLine
 10
-656.9722939504783
 20
227.6936301706485
 30
0.0
 11
-658.9722939504782
 21
227.6936301706485
 31
0.0
  0
LINE
  5
BC
330
44
100
AcDbEntity
  8
167_685982745571_93_6844975212085
  6
DASH_CENTER
 62
     2
100
AcDbLine
 10
-594.9722939504782
 20
383.5148708530419
 30
0.0
 11
-594.9722939504782
 21
520.8884720951647
 31
0.0
  0
LINE
  5
BD
330
44
100
AcDbEntity
  8
1
  6
DASH_CENTER
 62
     2
100
AcDbLine
 10
-484.4722939504783
 20
471.9884720951641
 30
0.0
 11
-476.043687102255
 21
471.9884720951641
 31
0.0
  0
LINE
  5
BE
330
44
100
AcDbEntity
  8
167_685982745571_93_6844975212085
  6
Continuous
 62
     4
100
AcDbLine
 10
-532.9722939504782
 20
385.8884720951647
 30
0.0
 11
-529.9722939504782
 21
388.8884720951647
 31
0.0
  0
LINE
  5
BF
330
44
100
AcDbEntity
  8
167_685982745571_93_6844975212085
  6
Continuous
 62
     4
100
AcDbLine
 10
-659.9722939504782
 20
388.8884720951647
 30
0.0
 11
-656.9722939504782
 21
385.8884720951647
 31
0.0
  0
LINE
  5
C0
330
44
100
AcDbEntity
  8
167_685982745571_93_6844975212085
  6
Continuous
 62
     4
100
AcDbLine
 10
-532.9722939504782
 20
385.8884720951647
 30
0.0
 11
-559.9722939504782
 21
385.8884720951647
 31
0.0
  0
LINE
  5
C1
330
44
100
AcDbEntity
  8
167_685982745571_93_6844975212085
  6
Continuous
 62
     4
100
AcDbLine
 10
-629.9722939504782
 20
515.8884720951647
 30
0.0
 11
-656.9722939504782
 21
515.8884720951647
 31
0.0
  0
LINE
  5
C2
330
44
100
AcDbEntity
  8
167_685982745571_93_6844975212085
  6
Continuous
 62
     4
100
AcDbLine
 10
-559.9722939504782
 20
515.8884720951647
 30
0.0
 11
-560.5496442196679
 21
514.8884720951647
 31
0.0
  0
LINE
  5
C3
330
44
100
AcDbEntity
  8
167_685982745571_93_6844975212085
  6
Continuous
 62
     4
100
AcDbLine
 10
-659.9722939504782
 20
415.8884720951647
 30
0.0
 11
-659.9722939504782
 21
388.8884720951647
 31
0.0
  0
LINE
  5
C4
330
44
100
AcDbEntity
  8
167_685982745571_93_6844975212085
  6
Continuous
 62
     4
100
AcDbLine
 10
-659.9722939504782
 20
415.8884720951647
 30
0.0
 11
-658.9722939504782
 21
416.465822364354
 31
0.0
  0
LINE
  5
C5
330
44
100
AcDbEntity
  8
167_685982745571_93_6844975212085
  6
Continuous
 62
     4
100
AcDbLine
 10
-559.9722939504782
 20
385.8884720951647
 30
0.0
 11
-560.5496442196679
 21
386.8884720951647
 31
0.0
  0
LINE
  5
C6
330
44
100
AcDbEntity
  8
167_685982745571_93_6844975212085
  6
Continuous
 62
     4
100
AcDbLine
 10
-529.9722939504782
 20
512.8884720951647
 30
0.0
 11
-529.9722939504782
 21
485.8884720951647
 31
0.0
  0
LINE
  5
C7
330
44
100
AcDbEntity
  8
167_685982745571_93_6844975212085
  6
Continuous
 62
     4
100
AcDbLine
 10
-659.9722939504782
 20
512.8884720951647
 30
0.0
 11
-659.9722939504782
 21
485.8884720951647
 31
0.0
  0
LINE
  5
C8
330
44
100
AcDbEntity
  8
167_685982745571_93_6844975212085
  6
Continuous
 62
     4
100
AcDbLine
 10
-532.9722939504782
 20
515.8884720951647
 30
0.0
 11
-559.9722939504782
 21
515.8884720951647
 31
0.0
  0
LINE
  5
C9
330
44
100
AcDbEntity
  8
167_685982745571_93_6844975212085
  6
Continuous
 62
     4
100
AcDbLine
 10
-529.9722939504782
 20
388.8884720951647
 30
0.0
 11
-529.9722939504782
 21
415.8884720951647
 31
0.0
  0
LINE
  5
CA
330
44
100
AcDbEntity
  8
167_685982745571_93_6844975212085
  6
Continuous
 62
     4
100
AcDbLine
 10
-629.9722939504782
 20
385.8884720951647
 30
0.0
 11
-656.9722939504782
 21
385.8884720951647
 31
0.0
  0
LINE
  5
CB
330
44
100
AcDbEntity
  8
167_685982745571_93_6844975212085
  6
Continuous
 62
     4
100
AcDbLine
 10
-532.9722939504782
 20
515.8884720951647
 30
0.0
 11
-529.9722939504782
 21
512.8884720951647
 31
0.0
  0
LINE
  5
CC
330
44
100
AcDbEntity
  8
167_685982745571_93_6844975212085
  6
Continuous
 62
     4
100
AcDbLine
 10
-656.9722939504782
 20
515.8884720951647
 30
0.0
 11
-659.9722939504782
 21
512.8884720951647
 31
0.0
  0
LINE
  5
CD
330
44
100
AcDbEntity
  8
167_685982745571_93_6844975212085
  6
Continuous
 62
     4
100
AcDbLine
 10
-629.3949436812882
 20
386.8884720951647
 30
0.0
 11
-629.9722939504782
 21
385.8884720951647
 31
0.0
  0
LINE
  5
CE
330
44
100
AcDbEntity
  8
167_685982745571_93_6844975212085
  6
Continuous
 62
     4
100
AcDbLine
 10
-629.3949436812882
 20
514.8884720951647
 30
0.0
 11
-560.5496442196679
 21
514.8884720951647
 31
0.0
  0
LINE
  5
CF
330
44
100
AcDbEntity
  8
167_685982745571_93_6844975212085
  6
Continuous
 62
     4
100
AcDbLine
 10
-629.3949436812882
 20
514.8884720951647
 30
0.0
 11
-629.9722939504782
 21
515.8884720951647
 31
0.0
  0
LINE
  5
D0
330
44
100
AcDbEntity
  8
167_685982745571_93_6844975212085
  6
Continuous
 62
     4
100
AcDbLine
 10
-530.9722939504782
 20
416.465822364354
 30
0.0
 11
-529.9722939504782
 21
415.8884720951647
 31
0.0
  0
LINE
  5
D1
330
44
100
AcDbEntity
  8
167_685982745571_93_6844975212085
  6
Continuous
 62
     4
100
AcDbLine
 10
-560.5496442196679
 20
386.8884720951647
 30
0.0
 11
-629.3949436812882
 21
386.8884720951647
 31
0.0
  0
LINE
  5
D2
330
44
100
AcDbEntity
  8
167_685982745571_93_6844975212085
  6
DASH_CENTER
 62
     2
100
AcDbLine
 10
-520.8837850660103
 20
435.8884720951647
 30
0.0
 11
-584.9722939504783
 21
435.8884720951647
 31
0.0
  0
LINE
  5
D3
330
44
100
AcDbEntity
  8
167_685982745571_93_6844975212085
  6
Continuous
 62
     4
100
AcDbLine
 10
-658.9722939504782
 20
416.465822364354
 30
0.0
 11
-658.9722939504782
 21
454.3244531669453
 31
0.0
  0
LINE
  5
D4
330
44
100
AcDbEntity
  8
167_685982745571_93_6844975212085
  6
Continuous
 62
     4
100
AcDbLine
 10
-536.4722939504782
 20
485.8884720951647
 30
0.0
 11
-529.9722939504782
 21
485.8884720951647
 31
0.0
  0
LINE
  5
D5
330
44
100
AcDbEntity
  8
167_685982745571_93_6844975212085
  6
Continuous
 62
     4
100
AcDbLine
 10
-537.9722939504782
 20
501.3884720951646
 30
0.0
 11
-537.9722939504782
 21
495.3884720951646
 31
0.0
  0
LINE
  5
D6
330
44
100
AcDbEntity
  8
1
  6
Continuous
 62
     4
100
AcDbLine
 10
-537.9722939504782
 20
501.3884720951646
 30
0.0
 11
-529.9722939504783
 21
501.3884720951646
 31
0.0
  0
LINE
  5
D7
330
44
100
AcDbEntity
  8
1
  6
Continuous
 62
     4
100
AcDbLine
 10
-529.9722939504783
 20
495.3884720951646
 30
0.0
 11
-537.9722939504782
 21
495.3884720951646
 31
0.0
  0
LINE
  5
D8
330
44
100
AcDbEntity
  8
167_685982745571_93_6844975212085
  6
Continuous
 62
     4
100
AcDbLine
 10
-537.9722939504782
 20
495.3884720951646
 30
0.0
 11
-537.9722939504782
 21
487.3884720951647
 31
0.0
  0
LINE
  5
D9
330
44
100
AcDbEntity
  8
167_685982745571_93_6844975212085
  6
Continuous
 62
     4
100
AcDbLine
 10
-537.9722939504782
 20
503.8884720951646
 30
0.0
 11
-537.9722939504782
 21
501.3884720951646
 31
0.0
  0
LINE
  5
DA
330
44
100
AcDbEntity
  8
1
  6
DOT_CENTER
 62
     2
100
AcDbLine
 10
-524.9722939504782
 20
498.3884720951646
 30
0.0
 11
-541.0940568696559
 21
498.3884720951646
 31
0.0
  0
LINE
  5
DB
330
44
100
AcDbEntity
  8
167_685982745571_93_6844975212085
  6
Continuous
 62
     4
100
AcDbLine
 10
-558.4722939504782
 20
507.8884720951646
 30
0.0
 11
-541.9722939504782
 21
507.8884720951646
 31
0.0
  0
LINE
  5
DC
330
44
100
AcDbEntity
  8
167_685982745571_93_6844975212085
  6
Continuous
 62
     4
100
AcDbLine
 10
-559.9722939504782
 20
515.8884720951647
 30
0.0
 11
-559.9722939504782
 21
509.3884720951647
 31
0.0
  0
LINE
  5
DD
330
44
100
AcDbEntity
  8
1
  6
Continuous
 62
     4
100
AcDbLine
 10
-550.4722939504782
 20
515.8883720951645
 30
0.0
 11
-550.4722939504782
 21
507.8884720951646
 31
0.0
  0
LINE
  5
DE
330
44
100
AcDbEntity
  8
1
  6
Continuous
 62
     4
100
AcDbLine
 10
-544.4722939504782
 20
515.8883720951645
 30
0.0
 11
-544.4722939504782
 21
507.8634092806976
 31
0.0
  0
LINE
  5
DF
330
44
100
AcDbEntity
  8
1
  6
DOT_CENTER
 62
     2
100
AcDbLine
 10
-547.4722939504782
 20
520.8884720951647
 30
0.0
 11
-547.4722939504783
 21
504.834981744282
 31
0.0
  0
LINE
  5
E0
330
44
100
AcDbEntity
  8
167_685982745571_93_6844975212085
  6
Continuous
 62
     4
100
AcDbLine
 10
-653.4722939504782
 20
485.8884720951647
 30
0.0
 11
-658.4722939504782
 21
485.8884720951647
 31
0.0
  0
LINE
  5
E1
330
44
100
AcDbEntity
  8
167_685982745571_93_6844975212085
  6
Continuous
 62
     4
100
AcDbLine
 10
-651.9722939504782
 20
503.8884720951646
 30
0.0
 11
-651.9722939504782
 21
487.3884720951647
 31
0.0
  0
LINE
  5
E2
330
44
100
AcDbEntity
  8
167_685982745571_93_6844975212085
  6
Continuous
 62
     4
100
AcDbLine
 10
-631.4722939504782
 20
507.8884720951646
 30
0.0
 11
-647.9722939504782
 21
507.8884720951646
 31
0.0
  0
LINE
  5
E3
330
44
100
AcDbEntity
  8
167_685982745571_93_6844975212085
  6
Continuous
 62
     4
100
AcDbLine
 10
-629.9722939504782
 20
515.8884720951647
 30
0.0
 11
-629.9722939504782
 21
509.3884720951647
 31
0.0
  0
LINE
  5
E4
330
44
100
AcDbEntity
  8
1
  6
Continuous
 62
     4
100
AcDbLine
 10
-645.4722939504782
 20
507.8634092806976
 30
0.0
 11
-645.4722939504782
 21
515.8883720951645
 31
0.0
  0
LINE
  5
E5
330
44
100
AcDbEntity
  8
1
  6
Continuous
 62
     4
100
AcDbLine
 10
-639.4722939504783
 20
507.8884720951646
 30
0.0
 11
-639.4722939504782
 21
515.8883720951645
 31
0.0
  0
LINE
  5
E6
330
44
100
AcDbEntity
  8
1
  6
DOT_CENTER
 62
     2
100
AcDbLine
 10
-642.4722939504783
 20
505.4242304691479
 30
0.0
 11
-642.4722939504782
 21
520.8884720951647
 31
0.0
  0
LINE
  5
E7
330
44
100
AcDbEntity
  8
1
  6
DOT_CENTER
 62
     2
100
AcDbLine
 10
-648.7145876983731
 20
498.3884720951646
 30
0.0
 11
-664.9722939504783
 21
498.3884720951646
 31
0.0
  0
LINE
  5
E8
330
44
100
AcDbEntity
  8
1
  6
Continuous
 62
     4
100
AcDbLine
 10
-651.9722939504783
 20
501.3884720951646
 30
0.0
 11
-659.9721939504783
 21
501.3884720951646
 31
0.0
  0
LINE
  5
E9
330
44
100
AcDbEntity
  8
1
  6
Continuous
 62
     4
100
AcDbLine
 10
-651.9722939504783
 20
495.3884720951646
 30
0.0
 11
-659.9721939504783
 21
495.3884720951646
 31
0.0
  0
LINE
  5
EA
330
44
100
AcDbEntity
  8
167_685982745571_93_6844975212085
  6
Continuous
 62
     4
100
AcDbLine
 10
-639.4722939504782
 20
393.8884720951647
 30
0.0
 11
-645.4722939504782
 21
393.8884720951647
 31
0.0
  0
LINE
  5
EB
330
44
100
AcDbEntity
  8
1
  6
Continuous
 62
     4
100
AcDbLine
 10
-639.4722939504782
 20
393.8884720951647
 30
0.0
 11
-639.4722939504782
 21
385.8884720951647
 31
0.0
  0
LINE
  5
EC
330
44
100
AcDbEntity
  8
167_685982745571_93_6844975212085
  6
Continuous
 62
     4
100
AcDbLine
 10
-645.4722939504782
 20
393.8884720951647
 30
0.0
 11
-647.9722939504782
 21
393.8884720951647
 31
0.0
  0
LINE
  5
ED
330
44
100
AcDbEntity
  8
1
  6
Continuous
 62
     4
100
AcDbLine
 10
-645.4722939504782
 20
393.8884720951647
 30
0.0
 11
-645.4722939504782
 21
385.8884720951647
 31
0.0
  0
LINE
  5
EE
330
44
100
AcDbEntity
  8
167_685982745571_93_6844975212085
  6
Continuous
 62
     4
100
AcDbLine
 10
-653.4722939504782
 20
415.8884720951647
 30
0.0
 11
-659.9722939504782
 21
415.8884720951647
 31
0.0
  0
LINE
  5
EF
330
44
100
AcDbEntity
  8
167_685982745571_93_6844975212085
  6
Continuous
 62
     4
100
AcDbLine
 10
-651.9722939504782
 20
397.8884720951647
 30
0.0
 11
-651.9722939504782
 21
414.3884720951647
 31
0.0
  0
LINE
  5
F0
330
44
100
AcDbEntity
  8
167_685982745571_93_6844975212085
  6
Continuous
 62
     4
100
AcDbLine
 10
-631.4722939504782
 20
393.8884720951647
 30
0.0
 11
-639.4722939504782
 21
393.8884720951647
 31
0.0
  0
LINE
  5
F1
330
44
100
AcDbEntity
  8
167_685982745571_93_6844975212085
  6
Continuous
 62
     4
100
AcDbLine
 10
-629.9722939504782
 20
385.8884720951647
 30
0.0
 11
-629.9722939504782
 21
392.3884720951647
 31
0.0
  0
LINE
  5
F2
330
44
100
AcDbEntity
  8
1
  6
DOT_CENTER
 62
     2
100
AcDbLine
 10
-642.4722939504782
 20
380.8884720951647
 30
0.0
 11
-642.4722939504783
 21
397.189898531025
 31
0.0
  0
LINE
  5
F3
330
44
100
AcDbEntity
  8
1
  6
Continuous
 62
     4
100
AcDbLine
 10
-659.9721939504783
 20
406.3884720951647
 30
0.0
 11
-651.9472311360113
 21
406.3884720951647
 31
0.0
  0
LINE
  5
F4
330
44
100
AcDbEntity
  8
1
  6
DOT_CENTER
 62
     2
100
AcDbLine
 10
-664.9722939504782
 20
403.3884720951647
 30
0.0
 11
-648.3661940708931
 21
403.3884720951647
 31
0.0
  0
LINE
  5
F5
330
44
100
AcDbEntity
  8
1
  6
Continuous
 62
     4
100
AcDbLine
 10
-659.9721939504783
 20
400.3884720951647
 30
0.0
 11
-651.9722939504782
 21
400.3884720951647
 31
0.0
  0
LINE
  5
F6
330
44
100
AcDbEntity
  8
167_685982745571_93_6844975212085
  6
Continuous
 62
     4
100
AcDbLine
 10
-550.4722939504783
 20
393.8884720951647
 30
0.0
 11
-558.4722939504782
 21
393.8884720951647
 31
0.0
  0
LINE
  5
F7
330
44
100
AcDbEntity
  8
1
  6
Continuous
 62
     4
100
AcDbLine
 10
-550.4722939504782
 20
385.8884720951647
 30
0.0
 11
-550.4722939504783
 21
393.8884720951647
 31
0.0
  0
LINE
  5
F8
330
44
100
AcDbEntity
  8
167_685982745571_93_6844975212085
  6
Continuous
 62
     4
100
AcDbLine
 10
-544.4722939504783
 20
393.8884720951647
 30
0.0
 11
-550.4722939504783
 21
393.8884720951647
 31
0.0
  0
LINE
  5
F9
330
44
100
AcDbEntity
  8
1
  6
Continuous
 62
     4
100
AcDbLine
 10
-544.4722939504783
 20
393.8884720951647
 30
0.0
 11
-544.4722939504782
 21
385.8884720951647
 31
0.0
  0
LINE
  5
FA
330
44
100
AcDbEntity
  8
167_685982745571_93_6844975212085
  6
Continuous
 62
     4
100
AcDbLine
 10
-537.9722939504783
 20
406.3884720951647
 30
0.0
 11
-537.9722939504783
 21
400.3884720951647
 31
0.0
  0
LINE
  5
FB
330
44
100
AcDbEntity
  8
1
  6
Continuous
 62
     4
100
AcDbLine
 10
-529.9722939504783
 20
406.3884720951647
 30
0.0
 11
-537.9722939504783
 21
406.3884720951647
 31
0.0
  0
LINE
  5
FC
330
44
100
AcDbEntity
  8
167_685982745571_93_6844975212085
  6
Continuous
 62
     4
100
AcDbLine
 10
-537.9722939504783
 20
400.3884720951647
 30
0.0
 11
-537.9722939504782
 21
397.8884720951647
 31
0.0
  0
LINE
  5
FD
330
44
100
AcDbEntity
  8
1
  6
Continuous
 62
     4
100
AcDbLine
 10
-537.9722939504783
 20
400.3884720951647
 30
0.0
 11
-529.9722939504783
 21
400.3884720951647
 31
0.0
  0
LINE
  5
FE
330
44
100
AcDbEntity
  8
167_685982745571_93_6844975212085
  6
Continuous
 62
     4
100
AcDbLine
 10
-559.9722939504782
 20
385.8884720951647
 30
0.0
 11
-559.9722939504782
 21
392.3884720951647
 31
0.0
  0
LINE
  5
FF
330
44
100
AcDbEntity
  8
167_685982745571_93_6844975212085
  6
Continuous
 62
     4
100
AcDbLine
 10
-541.9722939504782
 20
393.8884720951647
 30
0.0
 11
-544.4722939504783
 21
393.8884720951647
 31
0.0
  0
LINE
  5
100
330
44
100
AcDbEntity
  8
167_685982745571_93_6844975212085
  6
Continuous
 62
     4
100
AcDbLine
 10
-537.9722939504782
 20
414.3884720951647
 30
0.0
 11
-537.9722939504783
 21
406.3884720951647
 31
0.0
  0
LINE
  5
101
330
44
100
AcDbEntity
  8
167_685982745571_93_6844975212085
  6
Continuous
 62
     4
100
AcDbLine
 10
-529.9722939504782
 20
415.8884720951647
 30
0.0
 11
-536.4722939504782
 21
415.8884720951647
 31
0.0
  0
LINE
  5
102
330
44
100
AcDbEntity
  8
1
  6
DOT_CENTER
 62
     2
100
AcDbLine
 10
-547.4722939504783
 20
397.3358947035798
 30
0.0
 11
-547.4722939504782
 21
380.8884720951647
 31
0.0
  0
LINE
  5
103
330
44
100
AcDbEntity
  8
1
  6
DOT_CENTER
 62
     2
100
AcDbLine
 10
-541.3459715422572
 20
403.3884720951647
 30
0.0
 11
-524.9722939504782
 21
403.3884720951647
 31
0.0
  0
LINE
  5
104
330
44
100
AcDbEntity
  8
1
  6
Continuous
 62
     4
100
AcDbLine
 10
-658.9722939504782
 20
454.3244531669453
 30
0.0
 11
-658.4722939504782
 21
454.3244531669453
 31
0.0
  0
LINE
  5
105
330
44
100
AcDbEntity
  8
1
  6
Continuous
 62
     4
100
AcDbLine
 10
-652.4722939504782
 20
454.3244531669453
 30
0.0
 11
-652.4722939504782
 21
485.8884720951647
 31
0.0
  0
LINE
  5
106
330
44
100
AcDbEntity
  8
1
  6
Continuous
 62
     4
100
AcDbLine
 10
-652.4722939504782
 20
485.8884720951647
 30
0.0
 11
-653.4722939504782
 21
485.8884720951647
 31
0.0
  0
LINE
  5
107
330
44
100
AcDbEntity
  8
1
  6
Continuous
 62
     4
100
AcDbLine
 10
-536.4722939504782
 20
485.8884720951647
 30
0.0
 11
-537.4722939504782
 21
485.8884720951647
 31
0.0
  0
LINE
  5
108
330
44
100
AcDbEntity
  8
1
  6
Continuous
 62
     4
100
AcDbLine
 10
-537.4722939504782
 20
485.8884720951647
 30
0.0
 11
-537.4722939504783
 21
454.3244531669453
 31
0.0
  0
LINE
  5
109
330
44
100
AcDbEntity
  8
1
  6
Continuous
 62
     4
100
AcDbLine
 10
-537.4722939504783
 20
454.3244531669453
 30
0.0
 11
-530.9722939504783
 21
454.3244531669453
 31
0.0
  0
LINE
  5
10A
330
44
100
AcDbEntity
  8
167_685982745571_93_6844975212085
  6
Continuous
 62
     4
100
AcDbLine
 10
-530.9722939504783
 20
454.3244531669453
 30
0.0
 11
-530.9722939504782
 21
416.465822364354
 31
0.0
  0
LINE
  5
10B
330
44
100
AcDbEntity
  8
1
  6
Continuous
 62
     4
100
AcDbLine
 10
-597.9722939504782
 20
95.1936301706484
 30
0.0
 11
-597.9722939504782
 21
69.19363017064842
 31
0.0
  0
LINE
  5
10C
330
44
100
AcDbEntity
  8
1
  6
Continuous
 62
     4
100
AcDbLine
 10
-591.9722939504782
 20
69.19363017064842
 30
0.0
 11
-591.9722939504782
 21
95.1936301706484
 31
0.0
  0
LINE
  5
10D
330
44
100
AcDbEntity
  8
1
  6
DASH_CENTER
 62
     2
100
AcDbLine
 10
-597.9722939504782
 20
276.6936301706485
 30
0.0
 11
-597.9722939504782
 21
250.6936301706485
 31
0.0
  0
LINE
  5
10E
330
44
100
AcDbEntity
  8
1
  6
DASH_CENTER
 62
     2
100
AcDbLine
 10
-591.9722939504782
 20
250.6936301706485
 30
0.0
 11
-591.9722939504782
 21
276.6936301706485
 31
0.0
  0
LINE
  5
10F
330
44
100
AcDbEntity
  8
1
  6
DASH_CENTER
 62
     2
100
AcDbLine
 10
-604.9722939504782
 20
282.6936301706485
 30
0.0
 11
-604.9722939504782
 21
232.6936301706485
 31
0.0
  0
LINE
  5
110
330
44
100
AcDbEntity
  8
1
  6
Continuous
 62
     4
100
AcDbLine
 10
-584.9722939504782
 20
63.19363017064842
 30
0.0
 11
-604.1722939504785
 21
63.19363017064842
 31
0.0
  0
LINE
  5
111
330
44
100
AcDbEntity
  8
1
  6
DASH_CENTER
 62
     2
100
AcDbLine
 10
-579.9722939504782
 20
232.6936301706485
 30
0.0
 11
-609.9722939504782
 21
232.6936301706485
 31
0.0
  0
LINE
  5
112
330
44
100
AcDbEntity
  8
1
  6
Continuous
 62
     4
100
AcDbLine
 10
-609.9722939504782
 20
113.1936301706484
 30
0.0
 11
-609.9722939504782
 21
115.1936301706484
 31
0.0
  0
LINE
  5
113
330
44
100
AcDbEntity
  8
1
  6
Continuous
 62
     4
100
AcDbLine
 10
-604.9722939504782
 20
63.19363017064842
 30
0.0
 11
-604.1722939504785
 21
63.19363017064842
 31
0.0
  0
LINE
  5
114
330
44
100
AcDbEntity
  8
1
  6
DASH_CENTER
 62
     2
100
AcDbLine
 10
-604.9722939504782
 20
282.6936301706485
 30
0.0
 11
-604.1722939504785
 21
282.6936301706485
 31
0.0
  0
LINE
  5
115
330
44
100
AcDbEntity
  8
1
  6
Continuous
 62
     4
100
AcDbLine
 10
-604.9722939504782
 20
63.19363017064842
 30
0.0
 11
-604.9722939504782
 21
113.1936301706484
 31
0.0
  0
LINE
  5
116
330
44
100
AcDbEntity
  8
1
  6
Continuous
 62
     4
100
AcDbLine
 10
-579.9722939504782
 20
113.1936301706484
 30
0.0
 11
-609.9722939504782
 21
113.1936301706484
 31
0.0
  0
LINE
  5
117
330
44
100
AcDbEntity
  8
1
  6
DASH_CENTER
 62
     2
100
AcDbLine
 10
-609.9722939504782
 20
230.6936301706485
 30
0.0
 11
-609.9722939504782
 21
232.6936301706485
 31
0.0
  0
LINE
  5
118
330
44
100
AcDbEntity
  8
1
  6
DASH_CENTER
 62
     2
100
AcDbLine
 10
-584.9722939504783
 20
232.6936301706485
 30
0.0
 11
-584.9722939504782
 21
282.6936301706485
 31
0.0
  0
LINE
  5
119
330
44
100
AcDbEntity
  8
1
  6
Continuous
 62
     4
100
AcDbLine
 10
-579.9722939504782
 20
113.1936301706484
 30
0.0
 11
-579.9722939504783
 21
115.1936301706484
 31
0.0
  0
LINE
  5
11A
330
44
100
AcDbEntity
  8
1
  6
Continuous
 62
     4
100
AcDbLine
 10
-584.9722939504779
 20
113.1936301706484
 30
0.0
 11
-584.9722939504782
 21
63.19363017064842
 31
0.0
  0
LINE
  5
11B
330
44
100
AcDbEntity
  8
1
  6
DASH_CENTER
 62
     2
100
AcDbLine
 10
-579.9722939504783
 20
230.6936301706485
 30
0.0
 11
-579.9722939504782
 21
232.6936301706485
 31
0.0
  0
LINE
  5
11C
330
44
100
AcDbEntity
  8
1
  6
DASH_CENTER
 62
     2
100
AcDbLine
 10
-584.9722939504782
 20
282.6936301706485
 30
0.0
 11
-604.1722939504785
 21
282.6936301706485
 31
0.0
  0
LINE
  5
11D
330
44
100
AcDbEntity
  8
1
  6
Continuous
 62
     4
100
AcDbLine
 10
-597.9722939504782
 20
445.4278641093341
 30
0.0
 11
-597.9722939504782
 21
449.3884720951647
 31
0.0
  0
LINE
  5
11E
330
44
100
AcDbEntity
  8
1
  6
Continuous
 62
     4
100
AcDbLine
 10
-597.9722939504782
 20
449.3884720951647
 30
0.0
 11
-591.9722939504782
 21
449.3884720951647
 31
0.0
  0
LINE
  5
11F
330
44
100
AcDbEntity
  8
1
  6
Continuous
 62
     4
100
AcDbLine
 10
-591.9722939504782
 20
449.3884720951647
 30
0.0
 11
-591.9722939504782
 21
445.4278641093341
 31
0.0
  0
LINE
  5
120
330
44
100
AcDbEntity
  8
1
  6
Continuous
 62
     4
100
AcDbLine
 10
-629.9722939504782
 20
145.6936301706484
 30
0.0
 11
-559.9722939504782
 21
145.6936301706484
 31
0.0
  0
LINE
  5
121
330
44
100
AcDbEntity
  8
1
  6
DASH_CENTER
 62
     2
100
AcDbLine
 10
-625.4308459974594
 20
405.4299200481836
 30
0.0
 11
-617.625939811819
 21
413.234826233824
 31
0.0
  0
LINE
  5
122
330
44
100
AcDbEntity
  8
1
  6
DASH_CENTER
 62
     2
100
AcDbLine
 10
-564.4819836059056
 20
405.3981617505921
 30
0.0
 11
-571.9951175976906
 21
412.9112957423771
 31
0.0
  0
LINE
  5
123
330
44
100
AcDbEntity
  8
1
  6
Continuous
 62
     4
100
AcDbLine
 10
-549.9722939504782
 20
117.6936301706484
 30
0.0
 11
-564.9722939504782
 21
117.6936301706484
 31
0.0
  0
LINE
  5
124
330
44
100
AcDbEntity
  8
1
  6
Continuous
 62
     4
100
AcDbLine
 10
-559.9722939504782
 20
150.6936301706485
 30
0.0
 11
-629.9722939504782
 21
150.6936301706485
 31
0.0
  0
LINE
  5
125
330
44
100
AcDbEntity
  8
1
  6
Continuous
 62
     4
100
AcDbLine
 10
-563.9722939504782
 20
123.6936301706484
 30
0.0
 11
-625.9722939504782
 21
123.6936301706484
 31
0.0
  0
LINE
  5
126
330
44
100
AcDbEntity
  8
1
  6
Continuous
 62
     4
100
AcDbLine
 10
-624.9722939504782
 20
117.6936301706484
 30
0.0
 11
-564.9722939504782
 21
117.6936301706484
 31
0.0
  0
LINE
  5
127
330
44
100
AcDbEntity
  8
1
  6
Continuous
 62
     4
100
AcDbLine
 10
-564.9722939504782
 20
115.1936301706484
 30
0.0
 11
-564.9722939504782
 21
117.6936301706484
 31
0.0
  0
LINE
  5
128
330
44
100
AcDbEntity
  8
1
  6
Continuous
 62
     4
100
AcDbLine
 10
-549.9722939504782
 20
117.6936301706484
 30
0.0
 11
-549.9722939504782
 21
123.6936301706484
 31
0.0
  0
LINE
  5
129
330
44
100
AcDbEntity
  8
1
  6
Continuous
 62
     4
100
AcDbLine
 10
-549.7083619279779
 20
150.6936301706485
 30
0.0
 11
-545.9722939504782
 21
150.6936301706485
 31
0.0
  0
LINE
  5
12A
330
44
100
AcDbEntity
  8
1
  6
Continuous
 62
     4
100
AcDbLine
 10
-545.9722939504782
 20
150.6936301706485
 30
0.0
 11
-545.9722939504782
 21
145.6936301706484
 31
0.0
  0
LINE
  5
12B
330
44
100
AcDbEntity
  8
1
  6
Continuous
 62
     4
100
AcDbLine
 10
-563.9722939504782
 20
123.6936301706484
 30
0.0
 11
-549.9722939504782
 21
123.6936301706484
 31
0.0
  0
LINE
  5
12C
330
44
100
AcDbEntity
  8
1
  6
Continuous
 62
     4
100
AcDbLine
 10
-563.9722939504782
 20
123.6936301706484
 30
0.0
 11
-563.9722939504782
 21
141.6936301706484
 31
0.0
  0
LINE
  5
12D
330
44
100
AcDbEntity
  8
1
  6
Continuous
 62
     4
100
AcDbLine
 10
-550.4722939504782
 20
145.6936301706484
 30
0.0
 11
-545.9722939504782
 21
145.6936301706484
 31
0.0
  0
LINE
  5
12E
330
44
100
AcDbEntity
  8
1
  6
Continuous
 62
     4
100
AcDbLine
 10
-561.9722939504782
 20
143.6936301706484
 30
0.0
 11
-558.4722939504782
 21
143.6936301706484
 31
0.0
  0
LINE
  5
12F
330
44
100
AcDbEntity
  8
1
  6
Continuous
 62
     4
100
AcDbLine
 10
-624.9722939504782
 20
117.6936301706484
 30
0.0
 11
-624.9722939504782
 21
115.1936301706484
 31
0.0
  0
LINE
  5
130
330
44
100
AcDbEntity
  8
1
  6
Continuous
 62
     4
100
AcDbLine
 10
-624.9722939504782
 20
117.6936301706484
 30
0.0
 11
-639.9722939504782
 21
117.6936301706484
 31
0.0
  0
LINE
  5
131
330
44
100
AcDbEntity
  8
1
  6
Continuous
 62
     4
100
AcDbLine
 10
-639.9722939504782
 20
123.6936301706484
 30
0.0
 11
-639.9722939504782
 21
117.6936301706484
 31
0.0
  0
LINE
  5
132
330
44
100
AcDbEntity
  8
1
  6
Continuous
 62
     4
100
AcDbLine
 10
-640.2362259729784
 20
150.6936301706485
 30
0.0
 11
-643.9722939504783
 21
150.6936301706485
 31
0.0
  0
LINE
  5
133
330
44
100
AcDbEntity
  8
1
  6
Continuous
 62
     4
100
AcDbLine
 10
-643.9722939504783
 20
145.6936301706484
 30
0.0
 11
-643.9722939504783
 21
150.6936301706485
 31
0.0
  0
LINE
  5
134
330
44
100
AcDbEntity
  8
1
  6
Continuous
 62
     4
100
AcDbLine
 10
-624.9722939504782
 20
115.1936301706484
 30
0.0
 11
-564.9722939504782
 21
115.1936301706484
 31
0.0
  0
LINE
  5
135
330
44
100
AcDbEntity
  8
1
  6
Continuous
 62
     4
100
AcDbLine
 10
-625.9722939504782
 20
123.6936301706484
 30
0.0
 11
-639.9722939504782
 21
123.6936301706484
 31
0.0
  0
LINE
  5
136
330
44
100
AcDbEntity
  8
1
  6
Continuous
 62
     4
100
AcDbLine
 10
-625.9722939504782
 20
123.6936301706484
 30
0.0
 11
-625.9722939504782
 21
141.6936301706484
 31
0.0
  0
LINE
  5
137
330
44
100
AcDbEntity
  8
1
  6
Continuous
 62
     4
100
AcDbLine
 10
-639.4722939504783
 20
145.6936301706484
 30
0.0
 11
-643.9722939504783
 21
145.6936301706484
 31
0.0
  0
LINE
  5
138
330
44
100
AcDbEntity
  8
1
  6
Continuous
 62
     4
100
AcDbLine
 10
-631.4722939504783
 20
143.6936301706484
 30
0.0
 11
-627.9722939504782
 21
143.6936301706484
 31
0.0
  0
LINE
  5
139
330
44
100
AcDbEntity
  8
1
  6
Continuous
 62
     4
100
AcDbLine
 10
-502.4722939504783
 20
413.9884720951646
 30
0.0
 11
-502.4722939504783
 21
502.9884720951645
 31
0.0
  0
LINE
  5
13A
330
44
100
AcDbEntity
  8
1
  6
Continuous
 62
     4
100
AcDbLine
 10
-529.9722939504783
 20
501.4884720951645
 30
0.0
 11
-504.9722939504783
 21
501.4884720951645
 31
0.0
  0
LINE
  5
13B
330
44
100
AcDbEntity
  8
1
  6
Continuous
 62
     4
100
AcDbLine
 10
-502.4722939504783
 20
516.9026856575377
 30
0.0
 11
-502.4722939504783
 21
502.9884720951645
 31
0.0
  0
LINE
  5
13C
330
44
100
AcDbEntity
  8
1
  6
Continuous
 62
     4
100
AcDbLine
 10
-501.9722939504783
 20
516.9884720951646
 30
0.0
 11
-495.4722939504783
 21
516.9884720951646
 31
0.0
  0
LINE
  5
13D
330
44
100
AcDbEntity
  8
1
  6
Continuous
 62
     4
100
AcDbLine
 10
-503.4722939504783
 20
502.9884720951645
 30
0.0
 11
-502.4722939504783
 21
502.9884720951645
 31
0.0
  0
LINE
  5
13E
330
44
100
AcDbEntity
  8
1
  6
Continuous
 62
     4
100
AcDbLine
 10
-502.4722939504783
 20
127.6936301706488
 30
0.0
 11
-502.4722939504783
 21
216.6936301706489
 31
0.0
  0
LINE
  5
13F
330
44
100
AcDbEntity
  8
1
  6
Continuous
 62
     4
100
AcDbLine
 10
-502.4722939504783
 20
216.6936301706489
 30
0.0
 11
-502.4722939504783
 21
230.607843733022
 31
0.0
  0
LINE
  5
140
330
44
100
AcDbEntity
  8
1
  6
Continuous
 62
     4
100
AcDbLine
 10
-501.9722939504783
 20
230.6936301706489
 30
0.0
 11
-495.4722939504783
 21
230.6936301706489
 31
0.0
  0
LINE
  5
141
330
44
100
AcDbEntity
  8
1
  6
Continuous
 62
     4
100
AcDbLine
 10
-503.4722939504783
 20
216.6936301706489
 30
0.0
 11
-502.4722939504783
 21
216.6936301706489
 31
0.0
  0
LINE
  5
142
330
44
100
AcDbEntity
  8
1
  6
Continuous
 62
     4
100
AcDbLine
 10
-529.9722939504783
 20
215.1936301706489
 30
0.0
 11
-504.9722939504783
 21
215.1936301706489
 31
0.0
  0
LINE
  5
143
330
44
100
AcDbEntity
  8
1
  6
Continuous
 62
     4
100
AcDbLine
 10
-495.4722939504783
 20
115.6936301706488
 30
0.0
 11
-495.4722939504783
 21
230.6936301706489
 31
0.0
  0
LINE
  5
144
330
44
100
AcDbEntity
  8
1
  6
Continuous
 62
     4
100
AcDbLine
 10
-495.4722939504783
 20
401.9884720951646
 30
0.0
 11
-495.4722939504783
 21
516.9884720951646
 31
0.0
  0
LINE
  5
145
330
44
100
AcDbEntity
  8
1
  6
Continuous
 62
     4
100
AcDbLine
 10
-484.4722939504783
 20
516.9884720951649
 30
0.0
 11
-495.4722939504783
 21
516.9884720951646
 31
0.0
  0
LINE
  5
146
330
44
100
AcDbEntity
  8
1
  6
Continuous
 62
     4
100
AcDbLine
 10
-484.4722939504783
 20
401.9884720951646
 30
0.0
 11
-484.4722939504783
 21
516.9884720951649
 31
0.0
  0
LINE
  5
147
330
44
100
AcDbEntity
  8
1
  6
Continuous
 62
     4
100
AcDbLine
 10
-495.4722939504783
 20
401.9884720951646
 30
0.0
 11
-484.4722939504783
 21
401.9884720951646
 31
0.0
  0
LINE
  5
148
330
44
100
AcDbEntity
  8
1
  6
Continuous
 62
     4
100
AcDbLine
 10
-495.4722939504783
 20
115.6936301706488
 30
0.0
 11
-484.4722939504783
 21
115.6936301706488
 31
0.0
  0
LINE
  5
149
330
44
100
AcDbEntity
  8
1
  6
Continuous
 62
     4
100
AcDbLine
 10
-484.4722939504783
 20
115.6936301706488
 30
0.0
 11
-484.4722939504783
 21
230.693630170649
 31
0.0
  0
LINE
  5
14A
330
44
100
AcDbEntity
  8
1
  6
Continuous
 62
     4
100
AcDbLine
 10
-484.4722939504783
 20
230.693630170649
 30
0.0
 11
-495.4722939504783
 21
230.6936301706489
 31
0.0
  0
LINE
  5
14B
330
44
100
AcDbEntity
  8
1
  6
Continuous
 62
     4
100
AcDbLine
 10
-658.4722939504782
 20
454.3244531669453
 30
0.0
 11
-658.4722939504782
 21
485.8884720951647
 31
0.0
  0
LINE
  5
14C
330
44
100
AcDbEntity
  8
1
  6
Continuous
 62
     4
100
AcDbLine
 10
-658.4722939504782
 20
454.3244531669453
 30
0.0
 11
-652.4722939504782
 21
454.3244531669453
 31
0.0
  0
LINE
  5
14D
330
44
100
AcDbEntity
  8
167_685982745571_93_6844975212085
  6
Continuous
 62
     4
100
AcDbLine
 10
-658.4722939504782
 20
485.8884720951647
 30
0.0
 11
-659.9722939504782
 21
485.8884720951647
 31
0.0
  0
ARC
  5
14E
330
44
100
AcDbEntity
  8
1
  6
DASH_CENTER
 62
     2
100
AcDbCircle
 10
-594.9722939504782
 20
230.6936301706485
 30
0.0
 40
42.49999999999999
100
AcDbArc
 50
357.3271706865501
 51
90.0
  0
ARC
  5
14F
330
44
100
AcDbEntity
  8
1
  6
Continuous
 62
     4
100
AcDbCircle
 10
-552.4722939504782
 20
230.6936301706483
 30
0.0
 40
3.0
100
AcDbArc
 50
0.0
 51
180.0
  0
ARC
  5
150
330
44
100
AcDbEntity
  8
1
  6
Continuous
 62
     2
100
AcDbCircle
 10
-637.4722939504783
 20
230.6936301706483
 30
0.0
 40
5.000000000000086
100
AcDbArc
 50
86.62771331656272
 51
179.9999999999945
  0
ARC
  5
151
330
44
100
AcDbEntity
  8
1
  6
Continuous
 62
     2
100
AcDbCircle
 10
-552.4722939504782
 20
230.6936301706483
 30
0.0
 40
5.00000000000008
100
AcDbArc
 50
93.372286683436
 51
180.0
  0
ARC
  5
152
330
44
100
AcDbEntity
  8
1
  6
Continuous
 62
     4
100
AcDbCircle
 10
-637.4722939504783
 20
230.6936301706483
 30
0.0
 40
3.0
100
AcDbArc
 50
0.0
 51
180.0
  0
ARC
  5
153
330
44
100
AcDbEntity
  8
1
  6
DASH_CENTER
 62
     2
100
AcDbCircle
 10
-594.9722939504782
 20
230.6936301706485
 30
0.0
 40
42.49999999999997
100
AcDbArc
 50
90.0
 51
183.6464778877293
  0
ARC
  5
154
330
44
100
AcDbEntity
  8
1
  6
Continuous
 62
     2
100
AcDbCircle
 10
-625.024332150906
 20
260.7456683710769
 30
0.0
 40
5.000000000000208
100
AcDbArc
 50
41.62771331656529
 51
315.0000000000009
  0
ARC
  5
155
330
44
100
AcDbEntity
  8
1
  6
Continuous
 62
     2
100
AcDbCircle
 10
-564.9202557500503
 20
260.7456683710769
 30
0.0
 40
5.000000000000442
100
AcDbArc
 50
44.99999999999356
 51
311.6277133165691
  0
ARC
  5
156
330
44
100
AcDbEntity
  8
1
  6
Continuous
 62
     2
100
AcDbCircle
 10
-594.9722939504782
 20
273.1936301706485
 30
0.0
 40
5.0
100
AcDbArc
 50
90.0
 51
356.6277133165667
  0
ARC
  5
157
330
44
100
AcDbEntity
  8
1
  6
Continuous
 62
     4
100
AcDbCircle
 10
-547.4722939504782
 20
148.6936301706485
 30
0.0
 40
2.999999999999944
100
AcDbArc
 50
41.81031489577955
 51
138.1896851042204
  0
ARC
  5
158
330
44
100
AcDbEntity
  8
1
  6
Continuous
 62
     4
100
AcDbCircle
 10
-547.4722939504782
 20
148.6936301706485
 30
0.0
 40
2.999999999999944
100
AcDbArc
 50
138.1896851042204
 51
180.0
  0
ARC
  5
159
330
44
100
AcDbEntity
  8
1
  6
Continuous
 62
     4
100
AcDbCircle
 10
-642.4722939504782
 20
148.6936301706485
 30
0.0
 40
2.999999999999944
100
AcDbArc
 50
41.81031489577955
 51
138.1896851042204
  0
ARC
  5
15A
330
44
100
AcDbEntity
  8
1
  6
Continuous
 62
     4
100
AcDbCircle
 10
-642.4722939504782
 20
148.6936301706485
 30
0.0
 40
2.999999999999944
100
AcDbArc
 50
138.1896851042204
 51
180.0
  0
ARC
  5
15B
330
44
100
AcDbEntity
  8
1
  6
Continuous
 62
     4
100
AcDbCircle
 10
-547.4722939504782
 20
222.6936301706485
 30
0.0
 40
3.0
100
AcDbArc
 50
180.0
 51
0.0
  0
ARC
  5
15C
330
44
100
AcDbEntity
  8
1
  6
Continuous
 62
     4
100
AcDbCircle
 10
-547.4722939504782
 20
148.6936301706485
 30
0.0
 40
3.0
100
AcDbArc
 50
0.0
 51
41.81031489577955
  0
ARC
  5
15D
330
44
100
AcDbEntity
  8
1
  6
Continuous
 62
     4
100
AcDbCircle
 10
-642.4722939504782
 20
148.6936301706485
 30
0.0
 40
3.0
100
AcDbArc
 50
0.0
 51
41.81031489577955
  0
ARC
  5
15E
330
44
100
AcDbEntity
  8
1
  6
Continuous
 62
     4
100
AcDbCircle
 10
-642.4722939504783
 20
222.6936301706485
 30
0.0
 40
2.999999999999886
100
AcDbArc
 50
180.0
 51
0.0
  0
ARC
  5
15F
330
44
100
AcDbEntity
  8
1
  6
Continuous
 62
     4
100
AcDbCircle
 10
-594.9722939504782
 20
435.8884720951647
 30
0.0
 40
9.99999999999998
100
AcDbArc
 50
72.54239687627788
 51
107.4576031237221
  0
ARC
  5
160
330
44
100
AcDbEntity
  8
1
  6
Continuous
 62
     4
100
AcDbCircle
 10
-594.9722939504782
 20
435.8884720951647
 30
0.0
 40
9.99999999999998
100
AcDbArc
 50
107.4576031237221
 51
0.0
  0
ARC
  5
161
330
44
100
AcDbEntity
  8
1
  6
Continuous
 62
     4
100
AcDbCircle
 10
-594.9722939504782
 20
435.8884720951647
 30
0.0
 40
9.999999999999886
100
AcDbArc
 50
0.0
 51
72.54239687627788
  0
CIRCLE
  5
162
330
44
100
AcDbEntity
  8
1
  6
Continuous
 62
     4
100
AcDbCircle
 10
-621.488798244974
 20
409.3719678006691
 30
0.0
 40
3.499999999999716
  0
CIRCLE
  5
163
330
44
100
AcDbEntity
  8
1
  6
Continuous
 62
     4
100
AcDbCircle
 10
-568.4557896559825
 20
409.3719678006691
 30
0.0
 40
3.499999999999886
  0
CIRCLE
  5
164
330
44
100
AcDbEntity
  8
1
  6
Continuous
 62
     4
100
AcDbCircle
 10
-568.4557896559825
 20
462.4049763896602
 30
0.0
 40
3.499999999999716
  0
CIRCLE
  5
165
330
44
100
AcDbEntity
  8
1
  6
Continuous
 62
     4
100
AcDbCircle
 10
-621.4887982449737
 20
462.4049763896604
 30
0.0
 40
3.499999999999659
  0
CIRCLE
  5
166
330
44
100
AcDbEntity
  8
1
  6
Continuous
 62
     4
100
AcDbCircle
 10
-594.9722939504782
 20
435.8884720951647
 30
0.0
 40
49.00000000000011
  0
CIRCLE
  5
167
330
44
100
AcDbEntity
  8
1
  6
Continuous
 62
     4
100
AcDbCircle
 10
-594.9722939504782
 20
435.8884720951647
 30
0.0
 40
45.00000000000011
  0
CIRCLE
  5
168
330
44
100
AcDbEntity
  8
1
  6
Continuous
 62
     4
100
AcDbCircle
 10
-594.9722939504782
 20
435.8884720951647
 30
0.0
 40
30.00000000000011
  0
CIRCLE
  5
169
330
44
100
AcDbEntity
  8
1
  6
DASH_CENTER
 62
     2
100
AcDbCircle
 10
-594.9722939504782
 20
435.8884720951647
 30
0.0
 40
37.49999999999979
  0
CIRCLE
  5
16A
330
44
100
AcDbEntity
  8
1
  6
Continuous
 62
     4
100
AcDbCircle
 10
-564.9202557500503
 20
260.7456683710769
 30
0.0
 40
3.000000000000265
  0
CIRCLE
  5
16B
330
44
100
AcDbEntity
  8
1
  6
Continuous
 62
     4
100
AcDbCircle
 10
-625.024332150906
 20
260.7456683710769
 30
0.0
 40
2.99999999999914
  0
CIRCLE
  5
16C
330
44
100
AcDbEntity
  8
1
  6
Continuous
 62
     4
100
AcDbCircle
 10
-594.9722939504782
 20
273.1936301706485
 30
0.0
 40
2.999999999999886
  0
CIRCLE
  5
16D
330
44
100
AcDbEntity
  8
1
  6
Continuous
 62
     4
100
AcDbCircle
 10
-594.9722939504782
 20
435.8884720951647
 30
0.0
 40
14.99999999999972
  0
ARC
  5
16E
330
44
100
AcDbEntity
  8
1
  6
Continuous
 62
     4
100
AcDbCircle
 10
-594.9722939504782
 20
69.19363017064842
 30
0.0
 40
3.0
100
AcDbArc
 50
180.0
 51
270.0
  0
ARC
  5
16F
330
44
100
AcDbEntity
  8
1
  6
Continuous
 62
     4
100
AcDbCircle
 10
-594.9722939504782
 20
95.1936301706484
 30
0.0
 40
3.0
100
AcDbArc
 50
0.0
 51
90.0
  0
ARC
  5
170
330
44
100
AcDbEntity
  8
1
  6
Continuous
 62
     4
100
AcDbCircle
 10
-522.4722939504783
 20
185.6936301706488
 30
0.0
 40
5.0
100
AcDbArc
 50
90.0
 51
270.0
  0
ARC
  5
171
330
44
100
AcDbEntity
  8
1
  6
Continuous
 62
     4
100
AcDbCircle
 10
-509.4722939504783
 20
185.6936301706488
 30
0.0
 40
5.0
100
AcDbArc
 50
270.0
 51
90.0
  0
ARC
  5
172
330
44
100
AcDbEntity
  8
1
  6
Continuous
 62
     4
100
AcDbCircle
 10
-505.4722939504783
 20
146.3575409137374
 30
0.0
 40
3.0
100
AcDbArc
 50
0.0
 51
79.99999999999594
  0
ARC
  5
173
330
44
100
AcDbEntity
  8
1
  6
Continuous
 62
     4
100
AcDbCircle
 10
-500.4722939504783
 20
127.6936301706488
 30
0.0
 40
2.0
100
AcDbArc
 50
180.0
 51
270.0
  0
ARC
  5
174
330
44
100
AcDbEntity
  8
1
  6
Continuous
 62
     4
100
AcDbCircle
 10
-505.4722939504783
 20
432.6523828382533
 30
0.0
 40
3.0
100
AcDbArc
 50
0.0
 51
79.99999999999555
  0
ARC
  5
175
330
44
100
AcDbEntity
  8
1
  6
Continuous
 62
     4
100
AcDbCircle
 10
-500.4722939504783
 20
413.9884720951646
 30
0.0
 40
2.0
100
AcDbArc
 50
180.0
 51
270.0
  0
ARC
  5
176
330
44
100
AcDbEntity
  8
167_685982745571_93_6844975212085
  6
Continuous
 62
     4
100
AcDbCircle
 10
-536.4722939504782
 20
487.3884720951647
 30
0.0
 40
1.5
100
AcDbArc
 50
180.0
 51
270.0
  0
ARC
  5
177
330
44
100
AcDbEntity
  8
167_685982745571_93_6844975212085
  6
Continuous
 62
     4
100
AcDbCircle
 10
-558.4722939504782
 20
509.3884720951647
 30
0.0
 40
1.5
100
AcDbArc
 50
180.0
 51
270.0
  0
ARC
  5
178
330
44
100
AcDbEntity
  8
167_685982745571_93_6844975212085
  6
Continuous
 62
     4
100
AcDbCircle
 10
-653.4722939504782
 20
487.3884720951647
 30
0.0
 40
1.5
100
AcDbArc
 50
270.0
 51
0.0
  0
ARC
  5
179
330
44
100
AcDbEntity
  8
167_685982745571_93_6844975212085
  6
Continuous
 62
     4
100
AcDbCircle
 10
-631.4722939504782
 20
509.3884720951647
 30
0.0
 40
1.500000000000057
100
AcDbArc
 50
270.0
 51
0.0
  0
ARC
  5
17A
330
44
100
AcDbEntity
  8
167_685982745571_93_6844975212085
  6
Continuous
 62
     4
100
AcDbCircle
 10
-631.4722939504782
 20
392.3884720951647
 30
0.0
 40
1.5
100
AcDbArc
 50
0.0
 51
30.95047132818058
  0
ARC
  5
17B
330
44
100
AcDbEntity
  8
167_685982745571_93_6844975212085
  6
Continuous
 62
     4
100
AcDbCircle
 10
-631.4722939504782
 20
392.3884720951647
 30
0.0
 40
1.500000000000382
100
AcDbArc
 50
30.95047132818058
 51
77.23008251349319
  0
ARC
  5
17C
330
44
100
AcDbEntity
  8
167_685982745571_93_6844975212085
  6
Continuous
 62
     4
100
AcDbCircle
 10
-653.4722939504782
 20
414.3884720951647
 30
0.0
 40
1.5
100
AcDbArc
 50
0.0
 51
90.0
  0
ARC
  5
17D
330
44
100
AcDbEntity
  8
167_685982745571_93_6844975212085
  6
DASHED
 62
     4
100
AcDbCircle
 10
-631.4722939504782
 20
392.3884720951647
 30
0.0
 40
1.499999999999593
100
AcDbArc
 50
77.23008251349319
 51
90.0
  0
ARC
  5
17E
330
44
100
AcDbEntity
  8
167_685982745571_93_6844975212085
  6
Continuous
 62
     4
100
AcDbCircle
 10
-558.4722939504783
 20
392.3884720951647
 30
0.0
 40
1.5
100
AcDbArc
 50
89.99999999999567
 51
102.7699174865704
  0
ARC
  5
17F
330
44
100
AcDbEntity
  8
167_685982745571_93_6844975212085
  6
Continuous
 62
     4
100
AcDbCircle
 10
-558.4722939504783
 20
392.3884720951647
 30
0.0
 40
1.499999999999969
100
AcDbArc
 50
102.7699174865704
 51
149.0495286718127
  0
ARC
  5
180
330
44
100
AcDbEntity
  8
167_685982745571_93_6844975212085
  6
Continuous
 62
     4
100
AcDbCircle
 10
-558.4722939504783
 20
392.3884720951647
 30
0.0
 40
1.500000000000089
100
AcDbArc
 50
149.0495286718127
 51
180.0
  0
ARC
  5
181
330
44
100
AcDbEntity
  8
167_685982745571_93_6844975212085
  6
Continuous
 62
     4
100
AcDbCircle
 10
-536.4722939504783
 20
414.3884720951647
 30
0.0
 40
1.5
100
AcDbArc
 50
89.99999999999567
 51
180.0
  0
ARC
  5
182
330
44
100
AcDbEntity
  8
167_685982745571_93_6844975212085
  6
Continuous
 62
     4
100
AcDbCircle
 10
-541.9722939504782
 20
503.8884720951646
 30
0.0
 40
4.0
100
AcDbArc
 50
0.0
 51
90.0
  0
ARC
  5
183
330
44
100
AcDbEntity
  8
167_685982745571_93_6844975212085
  6
Continuous
 62
     4
100
AcDbCircle
 10
-647.9722939504782
 20
503.8884720951646
 30
0.0
 40
4.0
100
AcDbArc
 50
90.0
 51
180.0
  0
ARC
  5
184
330
44
100
AcDbEntity
  8
167_685982745571_93_6844975212085
  6
Continuous
 62
     4
100
AcDbCircle
 10
-647.9722939504782
 20
397.8884720951647
 30
0.0
 40
4.0
100
AcDbArc
 50
180.0
 51
270.0
  0
ARC
  5
185
330
44
100
AcDbEntity
  8
167_685982745571_93_6844975212085
  6
Continuous
 62
     4
100
AcDbCircle
 10
-541.9722939504783
 20
397.8884720951647
 30
0.0
 40
4.0
100
AcDbArc
 50
270.0000000000016
 51
0.0
  0
ARC
  5
186
330
44
100
AcDbEntity
  8
1
  6
Continuous
 62
     4
100
AcDbCircle
 10
-594.9722939504782
 20
69.19363017064842
 30
0.0
 40
3.0
100
AcDbArc
 50
270.0
 51
0.0
  0
ARC
  5
187
330
44
100
AcDbEntity
  8
1
  6
Continuous
 62
     4
100
AcDbCircle
 10
-594.9722939504782
 20
95.1936301706484
 30
0.0
 40
3.0
100
AcDbArc
 50
90.0
 51
180.0
  0
ARC
  5
188
330
44
100
AcDbEntity
  8
1
  6
DASH_CENTER
 62
     2
100
AcDbCircle
 10
-594.9722939504782
 20
276.6936301706485
 30
0.0
 40
3.0
100
AcDbArc
 50
0.0
 51
180.0
  0
ARC
  5
189
330
44
100
AcDbEntity
  8
1
  6
DASH_CENTER
 62
     2
100
AcDbCircle
 10
-594.9722939504782
 20
250.6936301706485
 30
0.0
 40
3.0
100
AcDbArc
 50
180.0
 51
0.0
  0
ARC
  5
18A
330
44
100
AcDbEntity
  8
1
  6
Continuous
 62
     4
100
AcDbCircle
 10
-561.9722939504782
 20
141.6936301706484
 30
0.0
 40
2.0
100
AcDbArc
 50
90.0
 51
180.0
  0
ARC
  5
18B
330
44
100
AcDbEntity
  8
1
  6
Continuous
 62
     4
100
AcDbCircle
 10
-627.9722939504783
 20
141.6936301706484
 30
0.0
 40
2.000000000000114
100
AcDbArc
 50
0.0
 51
89.99999999999675
  0
ARC
  5
18C
330
44
100
AcDbEntity
  8
1
  6
Continuous
 62
     4
100
AcDbCircle
 10
-504.9722939504783
 20
502.9884720951645
 30
0.0
 40
1.5
100
AcDbArc
 50
270.0
 51
0.0
  0
ARC
  5
18D
330
44
100
AcDbEntity
  8
1
  6
Continuous
 62
     4
100
AcDbCircle
 10
-501.9722939504783
 20
515.4884720951646
 30
0.0
 40
1.5
100
AcDbArc
 50
90.0
 51
109.4712206344905
  0
ARC
  5
18E
330
44
100
AcDbEntity
  8
1
  6
Continuous
 62
     4
100
AcDbCircle
 10
-504.9722939504783
 20
216.6936301706489
 30
0.0
 40
1.5
100
AcDbArc
 50
270.0
 51
0.0
  0
ARC
  5
18F
330
44
100
AcDbEntity
  8
1
  6
Continuous
 62
     4
100
AcDbCircle
 10
-501.9722939504783
 20
229.1936301706489
 30
0.0
 40
1.5
100
AcDbArc
 50
90.0
 51
109.4712206344905
  0
SOLID
  5
190
330
44
100
AcDbEntity
  8
1
 62
     2
100
AcDbTrace
 10
-598.989633938602
 20
283.0655138913961
 30
0.0
 11
-598.7564958084978
 21
284.0926063604734
 31
0.0
 12
-594.9722939504782
 22
282.6936301706485
 32
0.0
 13
-594.9722939504782
 23
282.6936301706485
 33
0.0
  0
LEADER
  5
191
330
44
100
AcDbEntity
  8
1
  6
Continuous
 62
     2
100
AcDbLeader
  3
Standard
 71
     0
 76
     2
 10
-594.9722939504782
 20
282.6936301706485
 30
0.0
 10
-653.7714596132877
 20
296.0403617912534
 30
0.0
  0
SOLID
  5
192
330
44
100
AcDbEntity
  8
1
 62
     2
100
AcDbTrace
 10
-556.8290830612874
 20
264.5811909256101
 30
0.0
 11
-556.361155798608
 21
263.6376251332112
 31
0.0
 12
-560.1786663040681
 22
262.3322778144343
 32
0.0
 13
-560.1786663040681
 23
262.3322778144343
 33
0.0
  0
LEADER
  5
193
330
44
100
AcDbEntity
  8
1
  6
Continuous
 62
     2
100
AcDbLeader
  3
Standard
 71
     0
 76
     2
 10
-560.1786663040681
 20
262.3322778144343
 30
0.0
 10
-537.0829245316112
 20
273.7857740244424
 30
0.0
  0
MTEXT
  5
195
330
44
100
AcDbEntity
  8
1
 62
     2
100
AcDbMText
 10
-738.7163155307886
 20
302.6131323385353
 30
0.0
 40
5.0
 41
0.0
 71
     4
 72
     1
  1
Zentrumgewinde
  7
CONVERTER_11
 73
     1
 44
1.32052821128451
  0
MTEXT
  5
196
330
44
100
AcDbEntity
  8
1
 62
     2
100
AcDbMText
 10
-528.8222939504783
 20
454.7913249058452
 30
0.0
 40
4.0
 41
0.0
 71
     4
 72
     1
  1
Flansch\P  B5
  7
CONVERTER_11
 73
     1
 44
1.32052821128451
  0
MTEXT
  5
197
330
44
100
AcDbEntity
  8
1
 62
     2
100
AcDbMText
 10
-528.8222939504783
 20
486.7384720951644
 30
0.0
 40
4.0
 41
0.0
 71
     4
 72
     1
  1
Flansch\P  B14
  7
CONVERTER_11
 73
     1
 44
1.32052821128451
  0
LWPOLYLINE
  5
198
330
44
100
AcDbEntity
  8
1
 62
     2
100
AcDbPolyline
 90
        4
 70
     1
 43
0.0
 10
-537.0846107054963
 20
283.7909552870103
 10
-537.0846107054963
 20
273.7909552870103
 10
-478.5846107054963
 20
273.7909552870103
 10
-478.5846107054963
 20
283.7909552870103
  0
MTEXT
  5
199
330
44
100
AcDbEntity
  8
1
 62
     2
100
AcDbMText
 10
-534.5846107054963
 20
278.7909552870103
 30
0.0
 40
5.0
 41
0.0
 71
     4
 72
     1
  1
Gewinde M4x10
  7
CONVERTER_11
 73
     1
 44
1.32052821128451
  0
DIMENSION
  5
1A6
330
44
100
AcDbEntity
  8
1
100
AcDbDimension
  2
*D3
 10
-535.9722939504782
 20
117.6936301706484
 30
0.0
 11
-540.7222939504782
 21
126.66190539547
 31
0.0
 70
    32
  1
<>
 71
     5
 42
-1.0
 53
90.0
  3
ME10_DIM_10
100
AcDbAlignedDimension
 13
-564.9722939504782
 23
115.1936301706484
 33
0.0
 14
-549.9722939504782
 24
117.6936301706484
 34
0.0
 50
90.0
100
AcDbRotatedDimension
  0
DIMENSION
  5
1B3
330
44
100
AcDbEntity
  8
1
100
AcDbDimension
  2
*D4
 10
-597.9722939504782
 20
454.49857191169
 30
0.0
 11
-605.430487175355
 21
458.99857191169
 31
0.0
 70
    32
  1
T
 71
     5
 42
-1.0
 53
0.00013888888889
  3
ME10_DIM_11
100
AcDbAlignedDimension
 13
-591.9722939504782
 23
449.3884720951647
 33
0.0
 14
-597.9722939504782
 24
449.3884720951647
 34
0.0
100
AcDbRotatedDimension
  0
DIMENSION
  5
1BE
330
44
100
AcDbEntity
  8
1
100
AcDbDimension
  2
*D5
 10
-643.9722939504782
 20
310.6936301706485
 30
0.0
 11
-595.275324254559
 21
315.1936301706485
 31
0.0
 70
    32
  1
<>
 71
     5
 42
-1.0
 53
0.00013888888889
  3
ME10_DIM_12
100
AcDbAlignedDimension
 13
-545.9722939504782
 23
230.6936301706485
 33
0.0
 14
-643.9722939504782
 24
230.6936301706485
 34
0.0
100
AcDbRotatedDimension
  0
DIMENSION
  5
1CB
330
44
100
AcDbEntity
  8
1
100
AcDbDimension
  2
*D6
 10
-715.9722939504783
 20
185.6936301706485
 30
0.0
 11
-720.4722939504783
 21
209.4820532205889
 31
0.0
 70
    32
  1
<>
 71
     5
 42
-1.0
 53
90.0
  3
ME10_DIM_13
100
AcDbAlignedDimension
 13
-658.9722939504782
 23
227.6936301706485
 33
0.0
 14
-665.3319840166733
 24
185.6936301706485
 34
0.0
 50
90.0
100
AcDbRotatedDimension
  0
DIMENSION
  5
1D8
330
44
100
AcDbEntity
  8
1
100
AcDbDimension
  2
*D7
 10
-715.9722939504782
 20
117.6936301706484
 30
0.0
 11
-720.4722939504782
 21
155.3236981248889
 31
0.0
 70
    32
  1
<>
 71
     5
 42
-1.0
 53
90.0
  3
ME10_DIM_14
100
AcDbAlignedDimension
 13
-665.3319840166733
 23
185.6936301706485
 33
0.0
 14
-639.9722939504782
 24
117.6936301706484
 34
0.0
 50
90.0
100
AcDbRotatedDimension
  0
DIMENSION
  5
1E5
330
44
100
AcDbEntity
  8
1
100
AcDbDimension
  2
*D8
 10
-673.9722939504782
 20
123.6936301706484
 30
0.0
 11
-678.4722939504782
 21
108.9022509000039
 31
0.0
 70
    32
  1
<>
 71
     5
 42
-1.0
 53
90.0
  3
ME10_DIM_15
100
AcDbAlignedDimension
 13
-639.9722939504782
 23
117.6936301706484
 33
0.0
 14
-639.9722939504782
 24
123.6936301706484
 34
0.0
 50
90.0
100
AcDbRotatedDimension
  0
DIMENSION
  5
1F4
330
44
100
AcDbEntity
  8
1
100
AcDbDimension
  2
*D9
 10
-743.9722939504782
 20
232.6936301706485
 30
0.0
 11
-748.7222939504782
 21
178.0793095096369
 31
0.0
 70
    32
  1
<>
 71
     5
 42
-1.0
 53
90.0
  3
ME10_DIM_16
100
AcDbAlignedDimension
 13
-609.9722939504782
 23
113.1936301706484
 33
0.0
 14
-609.9722939504782
 24
232.6936301706485
 34
0.0
 50
90.0
100
AcDbRotatedDimension
  0
DIMENSION
  5
200
330
44
100
AcDbEntity
  8
1
100
AcDbDimension
  2
*D10
 10
-701.9722939504783
 20
227.6936301706485
 30
0.0
 11
-706.4722939504783
 21
185.6936301706485
 31
0.0
 70
    32
  1
<>
 71
     5
 42
-1.0
 53
90.0
  3
ME10_DIM_17
100
AcDbAlignedDimension
 13
-656.9722939504782
 23
143.6936301706485
 33
0.0
 14
-656.9722939504783
 24
227.6936301706485
 34
0.0
 50
90.0
100
AcDbRotatedDimension
  0
DIMENSION
  5
20B
330
44
100
AcDbEntity
  8
1
100
AcDbDimension
  2
*D11
 10
-484.4722939504783
 20
544.9884720951646
 30
0.0
 11
-506.5838218909181
 21
549.4884720951646
 31
0.0
 70
    32
  1
A
 71
     5
 42
-1.0
 53
0.00013888888889
  3
ME10_DIM_18
100
AcDbAlignedDimension
 13
-529.9722939504782
 23
512.8884720951647
 33
0.0
 14
-484.4722939504783
 24
516.9884720951649
 34
0.0
100
AcDbRotatedDimension
  0
DIMENSION
  5
218
330
44
100
AcDbEntity
  8
1
100
AcDbDimension
  2
*D12
 10
-495.4722939504783
 20
530.9884720951646
 30
0.0
 11
-498.7876641726724
 21
535.412963527664
 31
0.0
 70
    32
  1
C
 71
     5
 42
-1.0
 53
0.00013888888889
  3
ME10_DIM_19
100
AcDbAlignedDimension
 13
-502.4722939504783
 23
516.9026856575377
 33
0.0
 14
-495.4722939504783
 24
516.9884720951646
 34
0.0
100
AcDbRotatedDimension
  0
DIMENSION
  5
223
330
44
100
AcDbEntity
  8
1
100
AcDbDimension
  2
*D13
 10
-484.4722939504783
 20
530.9884720951646
 30
0.0
 11
-490.3996340942482
 21
535.4884720951646
 31
0.0
 70
    32
  1
B
 71
     5
 42
-1.0
 53
0.00013888888889
  3
ME10_DIM_20
100
AcDbAlignedDimension
 13
-495.4722939504783
 23
516.9884720951646
 33
0.0
 14
-484.4722939504783
 24
516.9884720951649
 34
0.0
100
AcDbRotatedDimension
  0
DIMENSION
  5
22E
330
44
100
AcDbEntity
  8
1
100
AcDbDimension
  2
*D14
 10
-639.9722939504782
 20
21.19363017064842
 30
0.0
 11
-594.9722939504782
 21
25.69363017064842
 31
0.0
 70
    32
  1
<>
 71
     5
 42
-1.0
 53
0.00013888888889
  3
ME10_DIM_21
100
AcDbAlignedDimension
 13
-549.9722939504782
 23
117.6936301706484
 33
0.0
 14
-639.9722939504782
 24
117.6936301706484
 34
0.0
100
AcDbRotatedDimension
  0
DIMENSION
  5
23A
330
44
100
AcDbEntity
  8
1
100
AcDbDimension
  2
*D15
 10
-624.9722939504782
 20
35.19363017064842
 30
0.0
 11
-594.9722939504782
 21
40.44363017064842
 31
0.0
 70
    32
  1
<>
 71
     5
 42
-1.0
 53
0.00013888888889
  3
ME10_DIM_22
100
AcDbAlignedDimension
 13
-564.9722939504782
 23
115.1936301706484
 33
0.0
 14
-624.9722939504782
 24
115.1936301706484
 34
0.0
100
AcDbRotatedDimension
  0
DIMENSION
  5
247
330
44
100
AcDbEntity
  8
1
100
AcDbDimension
  2
*D16
 10
-673.9722939504783
 20
501.3884720951646
 30
0.0
 11
-678.4722939504783
 21
506.7111629349795
 31
0.0
 70
    32
  1
<>
 71
     5
 42
-1.0
 53
90.0
  3
ME10_DIM_23
100
AcDbAlignedDimension
 13
-659.9721939504783
 23
495.3884720951646
 33
0.0
 14
-659.9721939504783
 24
501.3884720951646
 34
0.0
 50
90.0
100
AcDbRotatedDimension
  0
DIMENSION
  5
252
330
44
100
AcDbEntity
  8
1
100
AcDbDimension
  2
*D17
 10
-715.9722939504782
 20
515.8884720951647
 30
0.0
 11
-720.4722939504782
 21
450.8884720951647
 31
0.0
 70
    32
  1
<>
 71
     5
 42
-1.0
 53
90.0
  3
ME10_DIM_24
100
AcDbAlignedDimension
 13
-656.9722939504782
 23
385.8884720951647
 33
0.0
 14
-656.9722939504782
 24
515.8884720951647
 34
0.0
 50
90.0
100
AcDbRotatedDimension
  0
DIMENSION
  5
25F
330
44
100
AcDbEntity
  8
1
100
AcDbDimension
  2
*D18
 10
-645.4722939504782
 20
371.8884720951647
 30
0.0
 11
-651.1201253270681
 21
376.3884720951647
 31
0.0
 70
    32
  1
<>
 71
     5
 42
-1.0
 53
0.00013888888889
  3
ME10_DIM_25
100
AcDbAlignedDimension
 13
-639.4722939504782
 23
385.8884720951647
 33
0.0
 14
-645.4722939504782
 24
385.8884720951647
 34
0.0
100
AcDbRotatedDimension
  0
DIMENSION
  5
26A
330
44
100
AcDbEntity
  8
1
100
AcDbDimension
  2
*D19
 10
-659.9722939504782
 20
329.8884720951647
 30
0.0
 11
-594.9722939504782
 21
334.3884720951647
 31
0.0
 70
    32
  1
<>
 71
     5
 42
-1.0
 53
0.00013888888889
  3
ME10_DIM_26
100
AcDbAlignedDimension
 13
-529.9722939504782
 23
388.8884720951647
 33
0.0
 14
-659.9722939504782
 24
388.8884720951647
 34
0.0
100
AcDbRotatedDimension
  0
DIMENSION
  5
276
330
44
100
AcDbEntity
  8
1
100
AcDbDimension
  2
*D20
 10
-604.9722939504782
 20
296.6936301706485
 30
0.0
 11
-571.135528173001
 21
301.9436301706485
 31
0.0
 70
    32
  1
ø K
 71
     5
 42
-1.0
 53
0.00013888888889
  3
ME10_DIM_27
100
AcDbAlignedDimension
 13
-584.9722939504782
 23
282.6936301706485
 33
0.0
 14
-604.9722939504782
 24
282.6936301706485
 34
0.0
100
AcDbRotatedDimension
  0
DIMENSION
  5
282
330
44
100
AcDbEntity
  8
1
100
AcDbDimension
  2
*D21
 10
-604.9722939504782
 20
49.19363017064842
 30
0.0
 11
-570.270914883932
 21
54.44363017064842
 31
0.0
 70
    32
  1
ø K
 71
     5
 42
-1.0
 53
0.00013888888889
  3
ME10_DIM_28
100
AcDbAlignedDimension
 13
-584.9722939504782
 23
63.19363017064842
 33
0.0
 14
-604.9722939504782
 24
63.19363017064842
 34
0.0
100
AcDbRotatedDimension
  0
DIMENSION
  5
28F
330
44
100
AcDbEntity
  8
1
100
AcDbDimension
  2
*D22
 10
-743.9722939504782
 20
63.19363017064842
 30
0.0
 11
-748.4722939504782
 21
89.33242510912136
 31
0.0
 70
    32
  1
M
 71
     5
 42
-1.0
 53
90.0
  3
ME10_DIM_29
100
AcDbAlignedDimension
 13
-609.9722939504782
 23
113.1936301706484
 33
0.0
 14
-604.1722939504785
 24
63.19363017064842
 34
0.0
 50
90.0
100
AcDbRotatedDimension
  0
DIMENSION
  5
29C
330
44
100
AcDbEntity
  8
1
100
AcDbDimension
  2
*D23
 10
-743.9722939504782
 20
282.6936301706485
 30
0.0
 11
-748.4722939504782
 21
261.3648471778129
 31
0.0
 70
    32
  1
M
 71
     5
 42
-1.0
 53
90.0
  3
ME10_DIM_30
100
AcDbAlignedDimension
 13
-609.9722939504782
 23
232.6936301706485
 33
0.0
 14
-604.1722939504785
 24
282.6936301706485
 34
0.0
 50
90.0
100
AcDbRotatedDimension
  0
DIMENSION
  5
2A7
330
44
100
AcDbEntity
  8
1
100
AcDbDimension
  2
*D24
 10
-757.9722939504782
 20
63.19363017064839
 30
0.0
 11
-762.4722939504782
 21
176.7139728265519
 31
0.0
 70
    32
  1
P
 71
     5
 42
-1.0
 53
90.0
  3
ME10_DIM_31
100
AcDbAlignedDimension
 13
-604.1722939504785
 23
282.6936301706485
 33
0.0
 14
-604.1722939504785
 24
63.19363017064842
 34
0.0
 50
90.0
100
AcDbRotatedDimension
  0
DIMENSION
  5
2B4
330
44
100
AcDbEntity
  8
1
100
AcDbDimension
  2
*D25
 10
-651.9722939504782
 20
475.190821049683
 30
0.0
 11
-667.9003863673973
 21
479.690821049683
 31
0.0
 70
    32
  1
<>
 71
     5
 42
-1.0
 53
0.00013888888889
  3
ME10_DIM_32
100
AcDbAlignedDimension
 13
-659.9722939504782
 23
485.8884720951647
 33
0.0
 14
-651.9722939504782
 24
487.3884720951647
 34
0.0
100
AcDbRotatedDimension
  0
DIMENSION
  5
2C1
330
44
100
AcDbEntity
  8
1
100
AcDbDimension
  2
*D26
 10
-656.9722939504782
 20
530.9884720951616
 30
0.0
 11
-641.968771280287
 21
535.4884720951616
 31
0.0
 70
    32
  1
<>
 71
     5
 42
-1.0
 53
0.00013888888889
  3
ME10_DIM_33
100
AcDbAlignedDimension
 13
-659.9722939504782
 23
512.8884720951647
 33
0.0
 14
-656.9722939504782
 24
515.8884720951647
 34
0.0
100
AcDbRotatedDimension
  0
DIMENSION
  5
2CE
330
44
100
AcDbEntity
  8
1
100
AcDbDimension
  2
*D27
 10
-615.9722939504782
 20
515.8884720951647
 30
0.0
 11
-620.4722939504782
 21
524.469095619901
 31
0.0
 70
    32
  1
<>
 71
     5
 42
-1.0
 53
90.0
  3
ME10_DIM_34
100
AcDbAlignedDimension
 13
-631.4722939504782
 23
507.8884720951646
 33
0.0
 14
-629.9722939504782
 24
515.8884720951647
 34
0.0
 50
90.0
100
AcDbRotatedDimension
  0
DIMENSION
  5
2DA
330
44
100
AcDbEntity
  8
1
100
AcDbDimension
  2
*D28
 10
-729.9722939504782
 20
230.6936301706485
 30
0.0
 11
-734.4722939504782
 21
177.96218967968
 31
0.0
 70
    32
  1
<>
 71
     5
 42
-1.0
 53
90.0
  3
ME10_DIM_35
100
AcDbAlignedDimension
 13
-639.9722939504782
 23
117.6936301706484
 33
0.0
 14
-643.9722939504782
 24
230.6936301706485
 34
0.0
 50
90.0
100
AcDbRotatedDimension
  0
DIMENSION
  5
2E5
330
44
100
AcDbEntity
  8
1
100
AcDbDimension
  2
*D29
 10
-729.9722939504782
 20
117.6936301706484
 30
0.0
 11
-734.4722939504782
 21
91.2281841922588
 31
0.0
 70
    32
  1
N
 71
     5
 42
-1.0
 53
90.0
  3
ME10_DIM_36
100
AcDbAlignedDimension
 13
-604.1722939504785
 23
63.19363017064842
 33
0.0
 14
-639.9722939504782
 24
117.6936301706484
 34
0.0
 50
90.0
100
AcDbRotatedDimension
  0
DIMENSION
  5
2F0
330
44
100
AcDbEntity
  8
1
100
AcDbDimension
  2
*D30
 10
-535.9722939504782
 20
98.1936301706484
 30
0.0
 11
-540.4722939504782
 21
82.1486465909341
 31
0.0
 70
    32
  1
S
 71
     5
 42
-1.0
 53
90.0
  3
ME10_DIM_37
100
AcDbAlignedDimension
 13
-594.9722939504782
 23
66.19363017064842
 33
0.0
 14
-594.9722939504782
 24
98.1936301706484
 34
0.0
 50
90.0
100
AcDbRotatedDimension
  0
DIMENSION
  5
2FD
330
44
100
AcDbEntity
  8
1
100
AcDbDimension
  2
*D31
 10
-535.9722939504782
 20
66.19363017064842
 30
0.0
 11
-540.4722939504782
 21
57.6467694772444
 31
0.0
 70
    32
  1
R
 71
     5
 42
-1.0
 53
90.0
  3
ME10_DIM_38
100
AcDbAlignedDimension
 13
-584.9722939504782
 23
63.19363017064842
 33
0.0
 14
-594.9722939504782
 24
66.19363017064842
 34
0.0
 50
90.0
100
AcDbRotatedDimension
  0
DIMENSION
  5
308
330
44
100
AcDbEntity
  8
1
100
AcDbDimension
  2
*D32
 10
-673.9722939504782
 20
145.6936301706484
 30
0.0
 11
-678.4722939504782
 21
135.1596512351905
 31
0.0
 70
    32
  1
<>
 71
     5
 42
-1.0
 53
90.0
  3
ME10_DIM_39
100
AcDbAlignedDimension
 13
-639.9722939504782
 23
123.6936301706484
 33
0.0
 14
-629.9722939504782
 24
145.6936301706484
 34
0.0
 50
90.0
100
AcDbRotatedDimension
  0
DIMENSION
  5
313
330
44
100
AcDbEntity
  8
1
100
AcDbDimension
  2
*D33
 10
-470.4722939504782
 20
515.8884720951647
 30
0.0
 11
-475.2222939504782
 21
495.1591074997655
 31
0.0
 70
    32
  1
<>
 71
     5
 42
-1.0
 53
90.0
  3
ME10_DIM_40
100
AcDbAlignedDimension
 13
-476.043687102255
 23
471.9884720951641
 33
0.0
 14
-532.9722939504782
 24
515.8884720951647
 34
0.0
 50
90.0
100
AcDbRotatedDimension
  0
DIMENSION
  5
31E
330
44
100
AcDbEntity
  8
1
100
AcDbDimension
  2
*D34
 10
-470.4722939504782
 20
435.8884720951647
 30
0.0
 11
-474.9722939504782
 21
410.8884720951647
 31
0.0
 70
    32
  1
<>
 71
     5
 42
-1.0
 53
90.0
  3
ME10_DIM_41
100
AcDbAlignedDimension
 13
-532.9722939504782
 23
385.8884720951647
 33
0.0
 14
-520.8837850660103
 24
435.8884720951647
 34
0.0
 50
90.0
100
AcDbRotatedDimension
  0
DIMENSION
  5
329
330
44
100
AcDbEntity
  8
1
100
AcDbDimension
  2
*D35
 10
-470.4722939504782
 20
471.9884720951641
 30
0.0
 11
-475.2222939504782
 21
453.9384720951644
 31
0.0
 70
    32
  1
<>
 71
     5
 42
-1.0
 53
90.0
  3
ME10_DIM_42
100
AcDbAlignedDimension
 13
-520.8837850660103
 23
435.8884720951647
 33
0.0
 14
-476.043687102255
 24
471.9884720951641
 34
0.0
 50
90.0
100
AcDbRotatedDimension
  0
DIMENSION
  5
335
330
44
100
AcDbEntity
  8
1
100
AcDbDimension
  2
*D36
 10
-701.9722939504782
 20
515.8884720951647
 30
0.0
 11
-706.4722939504782
 21
501.7385186938745
 31
0.0
 70
    32
  1
<>
 71
     5
 42
-1.0
 53
90.0
  3
ME10_DIM_43
100
AcDbAlignedDimension
 13
-659.9722939504782
 23
485.8884720951647
 33
0.0
 14
-656.9722939504782
 24
515.8884720951647
 34
0.0
 50
90.0
100
AcDbRotatedDimension
  0
DIMENSION
  5
341
330
44
100
AcDbEntity
  8
1
100
AcDbDimension
  2
*D37
 10
-701.9722939504782
 20
415.8884720951647
 30
0.0
 11
-706.4722939504782
 21
401.7621976358745
 31
0.0
 70
    32
  1
<>
 71
     5
 42
-1.0
 53
90.0
  3
ME10_DIM_44
100
AcDbAlignedDimension
 13
-656.9722939504782
 23
385.8884720951647
 33
0.0
 14
-659.9722939504782
 24
415.8884720951647
 34
0.0
 50
90.0
100
AcDbRotatedDimension
  0
DIMENSION
  5
34E
330
44
100
AcDbEntity
  8
1
100
AcDbDimension
  2
*D38
 10
-701.9722939504782
 20
485.8884720951647
 30
0.0
 11
-706.4722939504782
 21
450.8884720951647
 31
0.0
 70
    32
  1
<>
 71
     5
 42
-1.0
 53
90.0
  3
ME10_DIM_45
100
AcDbAlignedDimension
 13
-659.9722939504782
 23
415.8884720951647
 33
0.0
 14
-659.9722939504782
 24
485.8884720951647
 34
0.0
 50
90.0
100
AcDbRotatedDimension
  0
DIMENSION
  5
359
330
44
100
AcDbEntity
  8
1
100
AcDbDimension
  2
*D39
 10
-687.9722939504782
 20
515.8884720951647
 30
0.0
 11
-692.7222939504782
 21
506.7111629349795
 31
0.0
 70
    32
  1
<>
 71
     5
 42
-1.0
 53
90.0
  3
ME10_DIM_46
100
AcDbAlignedDimension
 13
-664.9722939504783
 23
498.3884720951646
 33
0.0
 14
-656.9722939504782
 24
515.8884720951647
 34
0.0
 50
90.0
100
AcDbRotatedDimension
  0
DIMENSION
  5
364
330
44
100
AcDbEntity
  8
1
100
AcDbDimension
  2
*D40
 10
-687.9722939504782
 20
403.3884720951647
 30
0.0
 11
-692.7222939504782
 21
394.9575265690996
 31
0.0
 70
    32
  1
<>
 71
     5
 42
-1.0
 53
90.0
  3
ME10_DIM_47
100
AcDbAlignedDimension
 13
-656.9722939504782
 23
385.8884720951647
 33
0.0
 14
-664.9722939504782
 24
403.3884720951647
 34
0.0
 50
90.0
100
AcDbRotatedDimension
  0
DIMENSION
  5
36F
330
44
100
AcDbEntity
  8
1
100
AcDbDimension
  2
*D41
 10
-687.9722939504782
 20
498.3884720951646
 30
0.0
 11
-692.4722939504782
 21
450.8884720951647
 31
0.0
 70
    32
  1
<>
 71
     5
 42
-1.0
 53
90.0
  3
ME10_DIM_48
100
AcDbAlignedDimension
 13
-664.9722939504782
 23
403.3884720951647
 33
0.0
 14
-664.9722939504783
 24
498.3884720951646
 34
0.0
 50
90.0
100
AcDbRotatedDimension
  0
DIMENSION
  5
37A
330
44
100
AcDbEntity
  8
1
100
AcDbDimension
  2
*D42
 10
-659.9722939504782
 20
357.8884720951647
 30
0.0
 11
-651.1201253270681
 21
362.6384720951647
 31
0.0
 70
    32
  1
<>
 71
     5
 42
-1.0
 53
0.00013888888889
  3
ME10_DIM_49
100
AcDbAlignedDimension
 13
-642.4722939504782
 23
380.8884720951647
 33
0.0
 14
-659.9722939504782
 24
388.8884720951647
 34
0.0
100
AcDbRotatedDimension
  0
DIMENSION
  5
385
330
44
100
AcDbEntity
  8
1
100
AcDbDimension
  2
*D43
 10
-547.4722939504782
 20
357.8884720951647
 30
0.0
 11
-538.8796511945882
 21
362.6384720951647
 31
0.0
 70
    32
  1
<>
 71
     5
 42
-1.0
 53
0.00013888888889
  3
ME10_DIM_50
100
AcDbAlignedDimension
 13
-529.9722939504782
 23
388.8884720951647
 33
0.0
 14
-547.4722939504782
 24
380.8884720951647
 34
0.0
100
AcDbRotatedDimension
  0
DIMENSION
  5
390
330
44
100
AcDbEntity
  8
1
100
AcDbDimension
  2
*D44
 10
-642.4722939504782
 20
357.8884720951647
 30
0.0
 11
-594.9722939504782
 21
362.3884720951647
 31
0.0
 70
    32
  1
<>
 71
     5
 42
-1.0
 53
0.00013888888889
  3
ME10_DIM_51
100
AcDbAlignedDimension
 13
-547.4722939504782
 23
380.8884720951647
 33
0.0
 14
-642.4722939504782
 24
380.8884720951647
 34
0.0
100
AcDbRotatedDimension
  0
DIMENSION
  5
39C
330
44
100
AcDbEntity
  8
1
100
AcDbDimension
  2
*D45
 10
-659.9722939504782
 20
343.8884720951647
 30
0.0
 11
-645.2864208503281
 21
348.3884720951647
 31
0.0
 70
    32
  1
<>
 71
     5
 42
-1.0
 53
0.00013888888889
  3
ME10_DIM_52
100
AcDbAlignedDimension
 13
-629.9722939504782
 23
385.8884720951647
 33
0.0
 14
-659.9722939504782
 24
388.8884720951647
 34
0.0
100
AcDbRotatedDimension
  0
DIMENSION
  5
3A8
330
44
100
AcDbEntity
  8
1
100
AcDbDimension
  2
*D46
 10
-559.9722939504782
 20
343.8884720951647
 30
0.0
 11
-544.9467038503981
 21
348.3884720951647
 31
0.0
 70
    32
  1
<>
 71
     5
 42
-1.0
 53
0.00013888888889
  3
ME10_DIM_53
100
AcDbAlignedDimension
 13
-529.9722939504782
 23
388.8884720951647
 33
0.0
 14
-559.9722939504782
 24
385.8884720951647
 34
0.0
100
AcDbRotatedDimension
  0
DIMENSION
  5
3B5
330
44
100
AcDbEntity
  8
1
100
AcDbDimension
  2
*D47
 10
-629.9722939504782
 20
343.8884720951647
 30
0.0
 11
-594.9722939504782
 21
348.3884720951647
 31
0.0
 70
    32
  1
<>
 71
     5
 42
-1.0
 53
0.00013888888889
  3
ME10_DIM_54
100
AcDbAlignedDimension
 13
-559.9722939504782
 23
385.8884720951647
 33
0.0
 14
-629.9722939504782
 24
385.8884720951647
 34
0.0
100
AcDbRotatedDimension
  0
DIMENSION
  5
3C0
330
44
100
AcDbEntity
  8
1
100
AcDbDimension
  2
*D48
 10
-659.9722939504782
 20
544.9884720951646
 30
0.0
 11
-625.8556338258181
 21
549.4884720951646
 31
0.0
 70
    32
  1
<>
 71
     5
 42
-1.0
 53
0.00013888888889
  3
ME10_DIM_55
100
AcDbAlignedDimension
 13
-594.9722939504782
 23
520.8884720951647
 33
0.0
 14
-659.9722939504782
 24
512.8884720951647
 34
0.0
100
AcDbRotatedDimension
  0
DIMENSION
  5
3CB
330
44
100
AcDbEntity
  8
1
100
AcDbDimension
  2
*D49
 10
-594.9722939504782
 20
544.9884720951646
 30
0.0
 11
-560.1397114148381
 21
549.4884720951646
 31
0.0
 70
    32
  1
<>
 71
     5
 42
-1.0
 53
0.00013888888889
  3
ME10_DIM_56
100
AcDbAlignedDimension
 13
-529.9722939504782
 23
512.8884720951647
 33
0.0
 14
-594.9722939504782
 24
520.8884720951647
 34
0.0
100
AcDbRotatedDimension
  0
DIMENSION
  5
3D6
330
44
100
AcDbEntity
  8
1
100
AcDbDimension
  2
*D50
 10
-659.9722939504782
 20
558.9884720951646
 30
0.0
 11
-572.2997443019082
 21
563.4884720951646
 31
0.0
 70
    32
  1
L
 71
     5
 42
-1.0
 53
0.00013888888889
  3
ME10_DIM_57
100
AcDbAlignedDimension
 13
-484.4722939504783
 23
516.9884720951649
 33
0.0
 14
-659.9722939504782
 24
512.8884720951647
 34
0.0
100
AcDbRotatedDimension
  0
DIMENSION
  5
3E4
330
44
100
AcDbEntity
  8
1
100
AcDbDimension
  2
*D51
 10
-687.9722939504782
 20
143.6936301706485
 30
0.0
 11
-692.4722939504782
 21
135.9184665385995
 31
0.0
 70
    32
  1
<>
 71
     5
 42
-1.0
 53
90.0
  3
ME10_DIM_58
100
AcDbAlignedDimension
 13
-647.9142067508573
 23
148.6936301706485
 33
0.0
 14
-658.9722939504782
 24
143.6936301706485
 34
0.0
 50
90.0
100
AcDbRotatedDimension
  0
DIMENSION
  5
3F1
330
44
100
AcDbEntity
  8
1
100
AcDbDimension
  2
*D52
 10
-687.9722939504782
 20
222.6936301706485
 30
0.0
 11
-692.4722939504782
 21
236.8409018919115
 31
0.0
 70
    32
  1
<>
 71
     5
 42
-1.0
 53
90.0
  3
ME10_DIM_59
100
AcDbAlignedDimension
 13
-656.9722939504783
 23
227.6936301706485
 33
0.0
 14
-648.0975517747082
 24
222.6936301706485
 34
0.0
 50
90.0
100
AcDbRotatedDimension
  0
DIMENSION
  5
3FC
330
44
100
AcDbEntity
  8
1
100
AcDbDimension
  2
*D53
 10
-687.9722939504782
 20
148.6936301706485
 30
0.0
 11
-692.4722939504782
 21
185.6936301706485
 31
0.0
 70
    32
  1
<>
 71
     5
 42
-1.0
 53
90.0
  3
ME10_DIM_60
100
AcDbAlignedDimension
 13
-648.0975517747082
 23
222.6936301706485
 33
0.0
 14
-647.9142067508573
 24
148.6936301706485
 34
0.0
 50
90.0
100
AcDbRotatedDimension
  0
DIMENSION
  5
408
330
44
100
AcDbEntity
  8
1
100
AcDbDimension
  2
*D54
 10
-729.9722939504782
 20
230.6936301706485
 30
0.0
 11
-734.4722939504782
 21
259.9995104947279
 31
0.0
 70
    32
  1
O
 71
     5
 42
-1.0
 53
90.0
  3
ME10_DIM_61
100
AcDbAlignedDimension
 13
-604.1722939504785
 23
282.6936301706485
 33
0.0
 14
-643.9722939504782
 24
230.6936301706485
 34
0.0
 50
90.0
100
AcDbRotatedDimension
  0
INSERT
  5
411
330
44
100
AcDbEntity
  8
1
100
AcDbBlockReference
  2
*D55
 10
0.0
 20
0.0
 30
0.0
  0
INSERT
  5
419
330
44
100
AcDbEntity
  8
1
100
AcDbBlockReference
  2
*D56
 10
0.0
 20
0.0
 30
0.0
  0
INSERT
  5
421
330
44
100
AcDbEntity
  8
1
100
AcDbBlockReference
  2
*D57
 10
0.0
 20
0.0
 30
0.0
  0
INSERT
  5
429
330
44
100
AcDbEntity
  8
1
100
AcDbBlockReference
  2
*D58
 10
0.0
 20
0.0
 30
0.0
  0
INSERT
  5
430
330
44
100
AcDbEntity
  8
1
100
AcDbBlockReference
  2
*D59
 10
0.0
 20
0.0
 30
0.0
  0
ENDBLK
  5
46
330
44
100
AcDbEntity
  8
0
100
AcDbBlockEnd
  0
BLOCK
  5
48
330
47
100
AcDbEntity
  8
0
100
AcDbBlockBegin
  2
A4
 70
     0
 10
-209.9999999999997
 20
148.5000000000002
 30
0.0
  3
A4
  1

  0
LINE
  5
431
330
47
100
AcDbEntity
  8
1
  6
Continuous
 62
     4
100
AcDbLine
 10
-178.0195254502086
 20
155.641563794323
 30
0.0
 11
-40.51952545020851
 21
155.641563794323
 31
0.0
  0
LINE
  5
432
330
47
100
AcDbEntity
  8
1
  6
Continuous
 62
     4
100
AcDbLine
 10
-178.0195254502086
 20
140.641563794323
 30
0.0
 11
-40.51952545020851
 21
140.641563794323
 31
0.0
  0
LINE
  5
433
330
47
100
AcDbEntity
  8
1
  6
Continuous
 62
     4
100
AcDbLine
 10
-178.0195254502086
 20
155.641563794323
 30
0.0
 11
-178.0195254502086
 21
140.641563794323
 31
0.0
  0
LINE
  5
434
330
47
100
AcDbEntity
  8
1
  6
Continuous
 62
     4
100
AcDbLine
 10
-138.0195254502086
 20
155.641563794323
 30
0.0
 11
-138.0195254502086
 21
140.641563794323
 31
0.0
  0
LINE
  5
435
330
47
100
AcDbEntity
  8
1
  6
Continuous
 62
     2
100
AcDbLine
 10
-178.0195254502086
 20
145.641563794323
 30
0.0
 11
-40.51952545020851
 21
145.641563794323
 31
0.0
  0
LINE
  5
436
330
47
100
AcDbEntity
  8
1
  6
Continuous
 62
     4
100
AcDbLine
 10
-40.51952545020862
 20
150.641563794323
 30
0.0
 11
-178.0195254502086
 21
150.641563794323
 31
0.0
  0
LINE
  5
437
330
47
100
AcDbEntity
  8
1
  6
Continuous
 62
     4
100
AcDbLine
 10
-100.5195254502086
 20
155.641563794323
 30
0.0
 11
-100.5195254502086
 21
140.641563794323
 31
0.0
  0
LINE
  5
438
330
47
100
AcDbEntity
  8
1
  6
Continuous
 62
     4
100
AcDbLine
 10
-148.0195254502086
 20
155.641563794323
 30
0.0
 11
-148.0195254502086
 21
140.641563794323
 31
0.0
  0
LINE
  5
439
330
47
100
AcDbEntity
  8
1
  6
Continuous
 62
     4
100
AcDbLine
 10
-158.0195254502086
 20
155.641563794323
 30
0.0
 11
-158.0195254502086
 21
140.641563794323
 31
0.0
  0
LINE
  5
43A
330
47
100
AcDbEntity
  8
1
  6
Continuous
 62
     4
100
AcDbLine
 10
-40.51952545020851
 20
155.641563794323
 30
0.0
 11
-40.51952545020851
 21
140.641563794323
 31
0.0
  0
LINE
  5
43B
330
47
100
AcDbEntity
  8
1
  6
Continuous
 62
     4
100
AcDbLine
 10
-70.51952545020862
 20
155.641563794323
 30
0.0
 11
-70.51952545020862
 21
140.641563794323
 31
0.0
  0
LINE
  5
43C
330
47
100
AcDbEntity
  8
1
  6
Continuous
 62
     4
100
AcDbLine
 10
-125.5195254502086
 20
155.641563794323
 30
0.0
 11
-125.5195254502086
 21
140.641563794323
 31
0.0
  0
LINE
  5
43D
330
47
100
AcDbEntity
  8
1
  6
Continuous
 62
     4
100
AcDbLine
 10
-115.5195254502086
 20
155.641563794323
 30
0.0
 11
-115.5195254502086
 21
140.641563794323
 31
0.0
  0
LINE
  5
43E
330
47
100
AcDbEntity
  8
1
  6
Continuous
 62
     4
100
AcDbLine
 10
-80.51952545020862
 20
155.641563794323
 30
0.0
 11
-80.51952545020862
 21
140.641563794323
 31
0.0
  0
LINE
  5
43F
330
47
100
AcDbEntity
  8
1
  6
Continuous
 62
     4
100
AcDbLine
 10
-90.5195254502086
 20
155.641563794323
 30
0.0
 11
-90.5195254502086
 21
140.641563794323
 31
0.0
  0
LINE
  5
440
330
47
100
AcDbEntity
  8
1
  6
Continuous
 62
     4
100
AcDbLine
 10
-105.0195254502085
 20
207.3258201276716
 30
0.0
 11
-105.0195254502085
 21
172.3258201276716
 31
0.0
  0
LINE
  5
441
330
47
100
AcDbEntity
  8
1
  6
Continuous
 62
     2
100
AcDbLine
 10
-161.2695254502086
 20
177.3258201276716
 30
0.0
 11
-80.76952545020842
 21
177.3258201276716
 31
0.0
  0
LINE
  5
442
330
47
100
AcDbEntity
  8
1
  6
Continuous
 62
     4
100
AcDbLine
 10
-80.76952545020842
 20
207.3258201276716
 30
0.0
 11
-80.76952545020842
 21
172.3258201276716
 31
0.0
  0
LINE
  5
443
330
47
100
AcDbEntity
  8
1
  6
Continuous
 62
     4
100
AcDbLine
 10
-143.5195254502086
 20
207.3258201276716
 30
0.0
 11
-143.5195254502086
 21
172.3258201276716
 31
0.0
  0
LINE
  5
444
330
47
100
AcDbEntity
  8
1
  6
Continuous
 62
     4
100
AcDbLine
 10
-131.0195254502085
 20
207.3258201276716
 30
0.0
 11
-131.0195254502085
 21
172.3258201276716
 31
0.0
  0
LINE
  5
445
330
47
100
AcDbEntity
  8
1
  6
Continuous
 62
     4
100
AcDbLine
 10
-112.2695254502085
 20
207.3258201276716
 30
0.0
 11
-112.2695254502085
 21
172.3258201276716
 31
0.0
  0
LINE
  5
446
330
47
100
AcDbEntity
  8
1
  6
Continuous
 62
     4
100
AcDbLine
 10
-80.76952545020842
 20
202.3258201276716
 30
0.0
 11
-178.0195254502086
 21
202.3258201276716
 31
0.0
  0
LINE
  5
447
330
47
100
AcDbEntity
  8
1
  6
Continuous
 62
     2
100
AcDbLine
 10
-161.2695254502086
 20
197.3258201276716
 30
0.0
 11
-80.76952545020842
 21
197.3258201276716
 31
0.0
  0
LINE
  5
448
330
47
100
AcDbEntity
  8
1
  6
Continuous
 62
     2
100
AcDbLine
 10
-80.76952545020842
 20
187.3258201276714
 30
0.0
 11
-161.2695254502086
 21
187.3258201276714
 31
0.0
  0
LINE
  5
449
330
47
100
AcDbEntity
  8
1
  6
Continuous
 62
     4
100
AcDbLine
 10
-120.0195254502085
 20
207.3258201276716
 30
0.0
 11
-120.0195254502085
 21
172.3258201276716
 31
0.0
  0
LINE
  5
44A
330
47
100
AcDbEntity
  8
1
  6
Continuous
 62
     4
100
AcDbLine
 10
-161.2695254502086
 20
207.3258201276716
 30
0.0
 11
-161.2695254502086
 21
172.3258201276716
 31
0.0
  0
LINE
  5
44B
330
47
100
AcDbEntity
  8
1
  6
Continuous
 62
     2
100
AcDbLine
 10
-178.0195254502086
 20
192.3258201276716
 30
0.0
 11
-80.76952545020842
 21
192.3258201276716
 31
0.0
  0
LINE
  5
44C
330
47
100
AcDbEntity
  8
1
  6
Continuous
 62
     2
100
AcDbLine
 10
-80.76952545020842
 20
182.3258201276716
 30
0.0
 11
-178.0195254502086
 21
182.3258201276716
 31
0.0
  0
LINE
  5
44D
330
47
100
AcDbEntity
  8
1
  6
Continuous
 62
     4
100
AcDbLine
 10
-178.0195254502086
 20
172.3258201276716
 30
0.0
 11
-80.76952545020842
 21
172.3258201276716
 31
0.0
  0
LINE
  5
44E
330
47
100
AcDbEntity
  8
1
  6
Continuous
 62
     4
100
AcDbLine
 10
-178.0195254502086
 20
172.3258201276716
 30
0.0
 11
-178.0195254502086
 21
207.3258201276716
 31
0.0
  0
LINE
  5
44F
330
47
100
AcDbEntity
  8
1
  6
Continuous
 62
     4
100
AcDbLine
 10
-178.0195254502086
 20
207.3258201276716
 30
0.0
 11
-80.76952545020842
 21
207.3258201276716
 31
0.0
  0
LINE
  5
450
330
47
100
AcDbEntity
  8
1
  6
Continuous
 62
     4
100
AcDbLine
 10
-95.7695254502085
 20
207.3258201276716
 30
0.0
 11
-95.7695254502085
 21
172.3258201276716
 31
0.0
  0
LINE
  5
451
330
47
100
AcDbEntity
  8
1
  6
Continuous
 62
     7
100
AcDbLine
 10
-414.9999999999993
 20
5.0
 30
0.0
 11
-414.9999999999993
 21
291.9999999999999
 31
0.0
  0
LINE
  5
452
330
47
100
AcDbEntity
  8
1
  6
Continuous
 62
     2
100
AcDbLine
 10
-419.9999999999993
 20
0.0
 30
0.0
 11
-419.9999999999993
 21
297.0000000000003
 31
0.0
  0
LINE
  5
453
330
47
100
AcDbEntity
  8
1
  6
Continuous
 62
     2
100
AcDbLine
 10
-419.9999999999993
 20
297.0000000000003
 30
0.0
 11
0.0
 21
297.0000000000003
 31
0.0
  0
LINE
  5
454
330
47
100
AcDbEntity
  8
1
  6
Continuous
 62
     7
100
AcDbLine
 10
-414.9999999999993
 20
291.9999999999999
 30
0.0
 11
-5.0
 21
291.9999999999999
 31
0.0
  0
LINE
  5
455
330
47
100
AcDbEntity
  8
1
  6
Continuous
 62
     2
100
AcDbLine
 10
0.0
 20
0.0
 30
0.0
 11
-419.9999999999993
 21
0.0
 31
0.0
  0
LINE
  5
456
330
47
100
AcDbEntity
  8
1
  6
Continuous
 62
     7
100
AcDbLine
 10
-189.9999999999999
 20
5.0
 30
0.0
 11
-414.9999999999993
 21
5.0
 31
0.0
  0
LINE
  5
457
330
47
100
AcDbEntity
  8
1
  6
Continuous
 62
     2
100
AcDbLine
 10
0.0
 20
297.0000000000003
 30
0.0
 11
0.0
 21
0.0
 31
0.0
  0
LINE
  5
458
330
47
100
AcDbEntity
  8
1
  6
Continuous
 62
     7
100
AcDbLine
 10
-5.0
 20
291.9999999999999
 30
0.0
 11
-5.0
 21
56.9999999999999
 31
0.0
  0
LINE
  5
459
330
47
100
AcDbEntity
  8
1
  6
Continuous
 62
     7
100
AcDbLine
 10
-5.0
 20
5.0
 30
0.0
 11
-85.0
 21
5.0
 31
0.0
  0
LINE
  5
45A
330
47
100
AcDbEntity
  8
1
  6
Continuous
 62
     7
100
AcDbLine
 10
-189.9999999999999
 20
5.0
 30
0.0
 11
-190.0000000000001
 21
20.00000000000001
 31
0.0
  0
LINE
  5
45B
330
47
100
AcDbEntity
  8
1
  6
Continuous
 62
     7
100
AcDbLine
 10
-5.0
 20
20.00000000000001
 30
0.0
 11
-22.5
 21
20.00000000000001
 31
0.0
  0
LINE
  5
45C
330
47
100
AcDbEntity
  8
1
  6
Continuous
 62
     7
100
AcDbLine
 10
-5.0
 20
20.00000000000001
 30
0.0
 11
-5.0
 21
5.0
 31
0.0
  0
LINE
  5
45D
330
47
100
AcDbEntity
  8
1
  6
Continuous
 62
     7
100
AcDbLine
 10
-190.0000000000001
 20
20.00000000000001
 30
0.0
 11
-190.0000000000001
 21
42.00000000000001
 31
0.0
  0
LINE
  5
45E
330
47
100
AcDbEntity
  8
1
  6
Continuous
 62
     7
100
AcDbLine
 10
-190.0000000000001
 20
42.00000000000001
 30
0.0
 11
-182.0000000000001
 21
42.00000000000001
 31
0.0
  0
LINE
  5
45F
330
47
100
AcDbEntity
  8
1
  6
Continuous
 62
     7
100
AcDbLine
 10
-190.0000000000001
 20
42.00000000000001
 30
0.0
 11
-190.0000000000001
 21
47.0
 31
0.0
  0
LINE
  5
460
330
47
100
AcDbEntity
  8
1
  6
Continuous
 62
     7
100
AcDbLine
 10
-5.0
 20
42.00000000000001
 30
0.0
 11
-5.0
 21
36.50000000000001
 31
0.0
  0
LINE
  5
461
330
47
100
AcDbEntity
  8
1
  6
Continuous
 62
     7
100
AcDbLine
 10
-5.0
 20
56.9999999999999
 30
0.0
 11
-32.5
 21
57.0
 31
0.0
  0
LINE
  5
462
330
47
100
AcDbEntity
  8
1
  6
Continuous
 62
     7
100
AcDbLine
 10
-5.0
 20
56.9999999999999
 30
0.0
 11
-5.0
 21
53.25
 31
0.0
  0
LINE
  5
463
330
47
100
AcDbEntity
  8
1
  6
Continuous
 62
     7
100
AcDbLine
 10
-182.0000000000001
 20
57.0
 30
0.0
 11
-190.0000000000001
 21
57.0
 31
0.0
  0
LINE
  5
464
330
47
100
AcDbEntity
  8
1
  6
Continuous
 62
     7
100
AcDbLine
 10
-97.0
 20
57.0
 30
0.0
 11
-109.5
 21
57.0
 31
0.0
  0
LINE
  5
465
330
47
100
AcDbEntity
  8
1
  6
Continuous
 62
     7
100
AcDbLine
 10
-85.0
 20
57.0
 30
0.0
 11
-85.0
 21
36.50000000000001
 31
0.0
  0
LINE
  5
466
330
47
100
AcDbEntity
  8
1
  6
Continuous
 62
     7
100
AcDbLine
 10
-85.0
 20
5.0
 30
0.0
 11
-189.9999999999999
 21
5.0
 31
0.0
  0
LINE
  5
467
330
47
100
AcDbEntity
  8
1
  6
Continuous
 62
     7
100
AcDbLine
 10
-45.0
 20
57.0
 30
0.0
 11
-57.0
 21
57.0
 31
0.0
  0
LINE
  5
468
330
47
100
AcDbEntity
  8
1
  6
Continuous
 62
     7
100
AcDbLine
 10
-32.5
 20
57.0
 30
0.0
 11
-32.5
 21
53.25
 31
0.0
  0
LINE
  5
469
330
47
100
AcDbEntity
  8
1
  6
Continuous
 62
     7
100
AcDbLine
 10
-32.5
 20
57.0
 30
0.0
 11
-45.0
 21
57.0
 31
0.0
  0
LINE
  5
46A
330
47
100
AcDbEntity
  8
1
  6
Continuous
 62
     7
100
AcDbLine
 10
-32.5
 20
42.00000000000001
 30
0.0
 11
-22.5
 21
42.00000000000001
 31
0.0
  0
LINE
  5
46B
330
47
100
AcDbEntity
  8
1
  6
Continuous
 62
     7
100
AcDbLine
 10
-137.5000000000001
 20
57.0
 30
0.0
 11
-137.5000000000001
 21
42.00000000000001
 31
0.0
  0
LINE
  5
46C
330
47
100
AcDbEntity
  8
1
  6
Continuous
 62
     7
100
AcDbLine
 10
-137.5000000000001
 20
57.0
 30
0.0
 11
-149.5000000000001
 21
57.0
 31
0.0
  0
LINE
  5
46D
330
47
100
AcDbEntity
  8
1
  6
Continuous
 62
     7
100
AcDbLine
 10
-137.5000000000001
 20
42.00000000000001
 30
0.0
 11
-129.5000000000001
 21
42.00000000000001
 31
0.0
  0
LINE
  5
46E
330
47
100
AcDbEntity
  8
1
  6
Continuous
 62
     7
100
AcDbLine
 10
-59.0
 20
42.00000000000001
 30
0.0
 11
-59.0
 21
36.50000000000001
 31
0.0
  0
LINE
  5
46F
330
47
100
AcDbEntity
  8
1
  6
Continuous
 62
     7
100
AcDbLine
 10
-59.0
 20
42.00000000000001
 30
0.0
 11
-57.0
 21
42.00000000000001
 31
0.0
  0
LINE
  5
470
330
47
100
AcDbEntity
  8
1
  6
Continuous
 62
     7
100
AcDbLine
 10
-59.0
 20
20.00000000000001
 30
0.0
 11
-190.0000000000001
 21
20.00000000000001
 31
0.0
  0
LINE
  5
471
330
47
100
AcDbEntity
  8
1
  6
Continuous
 62
     7
100
AcDbLine
 10
-59.0
 20
36.50000000000001
 30
0.0
 11
-85.0
 21
36.50000000000001
 31
0.0
  0
LINE
  5
472
330
47
100
AcDbEntity
  8
1
  6
Continuous
 62
     7
100
AcDbLine
 10
-59.0
 20
36.50000000000001
 30
0.0
 11
-59.0
 21
31.00000000000001
 31
0.0
  0
LINE
  5
473
330
47
100
AcDbEntity
  8
1
  6
Continuous
 62
     7
100
AcDbLine
 10
-85.0
 20
36.50000000000001
 30
0.0
 11
-85.0
 21
5.0
 31
0.0
  0
LINE
  5
474
330
47
100
AcDbEntity
  8
1
  6
Continuous
 62
     2
100
AcDbLine
 10
-190.0000000000001
 20
52.0
 30
0.0
 11
-32.5
 21
52.0
 31
0.0
  0
LINE
  5
475
330
47
100
AcDbEntity
  8
1
  6
Continuous
 62
     7
100
AcDbLine
 10
-190.0000000000001
 20
52.0
 30
0.0
 11
-190.0000000000001
 21
57.0
 31
0.0
  0
LINE
  5
476
330
47
100
AcDbEntity
  8
1
  6
Continuous
 62
     7
100
AcDbLine
 10
-32.5
 20
52.0
 30
0.0
 11
-32.5
 21
49.5
 31
0.0
  0
LINE
  5
477
330
47
100
AcDbEntity
  8
1
  6
Continuous
 62
     2
100
AcDbLine
 10
-32.5
 20
47.0
 30
0.0
 11
-190.0000000000001
 21
47.0
 31
0.0
  0
LINE
  5
478
330
47
100
AcDbEntity
  8
1
  6
Continuous
 62
     7
100
AcDbLine
 10
-32.5
 20
47.0
 30
0.0
 11
-32.5
 21
45.75
 31
0.0
  0
LINE
  5
479
330
47
100
AcDbEntity
  8
1
  6
Continuous
 62
     7
100
AcDbLine
 10
-190.0000000000001
 20
47.0
 30
0.0
 11
-190.0000000000001
 21
52.0
 31
0.0
  0
LINE
  5
47A
330
47
100
AcDbEntity
  8
1
  6
Continuous
 62
     2
100
AcDbLine
 10
-182.0000000000001
 20
42.00000000000001
 30
0.0
 11
-182.0000000000001
 21
57.0
 31
0.0
  0
LINE
  5
47B
330
47
100
AcDbEntity
  8
1
  6
Continuous
 62
     7
100
AcDbLine
 10
-182.0000000000001
 20
42.00000000000001
 30
0.0
 11
-162.0000000000001
 21
42.00000000000001
 31
0.0
  0
LINE
  5
47C
330
47
100
AcDbEntity
  8
1
  6
Continuous
 62
     2
100
AcDbLine
 10
-162.0000000000001
 20
57.0
 30
0.0
 11
-162.0000000000001
 21
42.00000000000001
 31
0.0
  0
LINE
  5
47D
330
47
100
AcDbEntity
  8
1
  6
Continuous
 62
     7
100
AcDbLine
 10
-162.0000000000001
 20
57.0
 30
0.0
 11
-182.0000000000001
 21
57.0
 31
0.0
  0
LINE
  5
47E
330
47
100
AcDbEntity
  8
1
  6
Continuous
 62
     7
100
AcDbLine
 10
-162.0000000000001
 20
42.00000000000001
 30
0.0
 11
-149.5000000000001
 21
42.00000000000001
 31
0.0
  0
LINE
  5
47F
330
47
100
AcDbEntity
  8
1
  6
Continuous
 62
     2
100
AcDbLine
 10
-149.5000000000001
 20
42.00000000000001
 30
0.0
 11
-149.5000000000001
 21
57.0
 31
0.0
  0
LINE
  5
480
330
47
100
AcDbEntity
  8
1
  6
Continuous
 62
     7
100
AcDbLine
 10
-149.5000000000001
 20
42.00000000000001
 30
0.0
 11
-137.5000000000001
 21
42.00000000000001
 31
0.0
  0
LINE
  5
481
330
47
100
AcDbEntity
  8
1
  6
Continuous
 62
     7
100
AcDbLine
 10
-149.5000000000001
 20
57.0
 30
0.0
 11
-162.0000000000001
 21
57.0
 31
0.0
  0
LINE
  5
482
330
47
100
AcDbEntity
  8
1
  6
Continuous
 62
     2
100
AcDbLine
 10
-129.5000000000001
 20
57.0
 30
0.0
 11
-129.5000000000001
 21
42.00000000000001
 31
0.0
  0
LINE
  5
483
330
47
100
AcDbEntity
  8
1
  6
Continuous
 62
     7
100
AcDbLine
 10
-129.5000000000001
 20
57.0
 30
0.0
 11
-137.5000000000001
 21
57.0
 31
0.0
  0
LINE
  5
484
330
47
100
AcDbEntity
  8
1
  6
Continuous
 62
     7
100
AcDbLine
 10
-129.5000000000001
 20
42.00000000000001
 30
0.0
 11
-109.5
 21
42.00000000000001
 31
0.0
  0
LINE
  5
485
330
47
100
AcDbEntity
  8
1
  6
Continuous
 62
     2
100
AcDbLine
 10
-109.5
 20
42.00000000000001
 30
0.0
 11
-109.5
 21
57.0
 31
0.0
  0
LINE
  5
486
330
47
100
AcDbEntity
  8
1
  6
Continuous
 62
     7
100
AcDbLine
 10
-109.5
 20
42.00000000000001
 30
0.0
 11
-97.0
 21
42.00000000000001
 31
0.0
  0
LINE
  5
487
330
47
100
AcDbEntity
  8
1
  6
Continuous
 62
     7
100
AcDbLine
 10
-109.5
 20
57.0
 30
0.0
 11
-129.5000000000001
 21
57.0
 31
0.0
  0
LINE
  5
488
330
47
100
AcDbEntity
  8
1
  6
Continuous
 62
     2
100
AcDbLine
 10
-97.0
 20
42.00000000000001
 30
0.0
 11
-97.0
 21
57.0
 31
0.0
  0
LINE
  5
489
330
47
100
AcDbEntity
  8
1
  6
Continuous
 62
     7
100
AcDbLine
 10
-97.0
 20
42.00000000000001
 30
0.0
 11
-77.0
 21
42.00000000000001
 31
0.0
  0
LINE
  5
48A
330
47
100
AcDbEntity
  8
1
  6
Continuous
 62
     2
100
AcDbLine
 10
-77.0
 20
42.00000000000001
 30
0.0
 11
-77.0
 21
57.0
 31
0.0
  0
LINE
  5
48B
330
47
100
AcDbEntity
  8
1
  6
Continuous
 62
     7
100
AcDbLine
 10
-77.0
 20
42.00000000000001
 30
0.0
 11
-59.0
 21
42.00000000000001
 31
0.0
  0
LINE
  5
48C
330
47
100
AcDbEntity
  8
1
  6
Continuous
 62
     7
100
AcDbLine
 10
-77.0
 20
57.0
 30
0.0
 11
-97.0
 21
57.0
 31
0.0
  0
LINE
  5
48D
330
47
100
AcDbEntity
  8
1
  6
Continuous
 62
     2
100
AcDbLine
 10
-57.0
 20
57.0
 30
0.0
 11
-57.0
 21
42.00000000000001
 31
0.0
  0
LINE
  5
48E
330
47
100
AcDbEntity
  8
1
  6
Continuous
 62
     7
100
AcDbLine
 10
-57.0
 20
57.0
 30
0.0
 11
-77.0
 21
57.0
 31
0.0
  0
LINE
  5
48F
330
47
100
AcDbEntity
  8
1
  6
Continuous
 62
     7
100
AcDbLine
 10
-57.0
 20
42.00000000000001
 30
0.0
 11
-45.0
 21
42.00000000000001
 31
0.0
  0
LINE
  5
490
330
47
100
AcDbEntity
  8
1
  6
Continuous
 62
     2
100
AcDbLine
 10
-45.0
 20
42.00000000000001
 30
0.0
 11
-45.0
 21
57.0
 31
0.0
  0
LINE
  5
491
330
47
100
AcDbEntity
  8
1
  6
Continuous
 62
     7
100
AcDbLine
 10
-45.0
 20
42.00000000000001
 30
0.0
 11
-40.0
 21
42.00000000000001
 31
0.0
  0
LINE
  5
492
330
47
100
AcDbEntity
  8
1
  6
Continuous
 62
     2
100
AcDbLine
 10
-40.0
 20
42.00000000000001
 30
0.0
 11
-40.0
 21
20.00000000000001
 31
0.0
  0
LINE
  5
493
330
47
100
AcDbEntity
  8
1
  6
Continuous
 62
     7
100
AcDbLine
 10
-40.0
 20
42.00000000000001
 30
0.0
 11
-32.5
 21
42.00000000000001
 31
0.0
  0
LINE
  5
494
330
47
100
AcDbEntity
  8
1
  6
Continuous
 62
     7
100
AcDbLine
 10
-40.0
 20
20.00000000000001
 30
0.0
 11
-59.0
 21
20.00000000000001
 31
0.0
  0
LINE
  5
495
330
47
100
AcDbEntity
  8
1
  6
Continuous
 62
     2
100
AcDbLine
 10
-22.5
 20
20.00000000000001
 30
0.0
 11
-22.5
 21
42.00000000000001
 31
0.0
  0
LINE
  5
496
330
47
100
AcDbEntity
  8
1
  6
Continuous
 62
     7
100
AcDbLine
 10
-22.5
 20
20.00000000000001
 30
0.0
 11
-40.0
 21
20.00000000000001
 31
0.0
  0
LINE
  5
497
330
47
100
AcDbEntity
  8
1
  6
Continuous
 62
     7
100
AcDbLine
 10
-22.5
 20
42.00000000000001
 30
0.0
 11
-5.0
 21
42.00000000000001
 31
0.0
  0
LINE
  5
498
330
47
100
AcDbEntity
  8
1
  6
Continuous
 62
     2
100
AcDbLine
 10
-5.0
 20
25.50000000000001
 30
0.0
 11
-59.0
 21
25.50000000000001
 31
0.0
  0
LINE
  5
499
330
47
100
AcDbEntity
  8
1
  6
Continuous
 62
     7
100
AcDbLine
 10
-5.0
 20
25.50000000000001
 30
0.0
 11
-5.0
 21
20.00000000000001
 31
0.0
  0
LINE
  5
49A
330
47
100
AcDbEntity
  8
1
  6
Continuous
 62
     7
100
AcDbLine
 10
-59.0
 20
25.50000000000001
 30
0.0
 11
-59.0
 21
20.00000000000001
 31
0.0
  0
LINE
  5
49B
330
47
100
AcDbEntity
  8
1
  6
Continuous
 62
     2
100
AcDbLine
 10
-59.0
 20
31.00000000000001
 30
0.0
 11
-5.0
 21
31.00000000000001
 31
0.0
  0
LINE
  5
49C
330
47
100
AcDbEntity
  8
1
  6
Continuous
 62
     7
100
AcDbLine
 10
-59.0
 20
31.00000000000001
 30
0.0
 11
-59.0
 21
25.50000000000001
 31
0.0
  0
LINE
  5
49D
330
47
100
AcDbEntity
  8
1
  6
Continuous
 62
     7
100
AcDbLine
 10
-5.0
 20
31.00000000000001
 30
0.0
 11
-5.0
 21
25.50000000000001
 31
0.0
  0
LINE
  5
49E
330
47
100
AcDbEntity
  8
1
  6
Continuous
 62
     2
100
AcDbLine
 10
-5.0
 20
36.50000000000001
 30
0.0
 11
-59.0
 21
36.50000000000001
 31
0.0
  0
LINE
  5
49F
330
47
100
AcDbEntity
  8
1
  6
Continuous
 62
     7
100
AcDbLine
 10
-5.0
 20
36.50000000000001
 30
0.0
 11
-5.0
 21
31.00000000000001
 31
0.0
  0
LINE
  5
4A0
330
47
100
AcDbEntity
  8
1
  6
Continuous
 62
     2
100
AcDbLine
 10
-5.0
 20
45.75
 30
0.0
 11
-32.5
 21
45.75
 31
0.0
  0
LINE
  5
4A1
330
47
100
AcDbEntity
  8
1
  6
Continuous
 62
     7
100
AcDbLine
 10
-5.0
 20
45.75
 30
0.0
 11
-5.0
 21
42.00000000000001
 31
0.0
  0
LINE
  5
4A2
330
47
100
AcDbEntity
  8
1
  6
Continuous
 62
     7
100
AcDbLine
 10
-32.5
 20
45.75
 30
0.0
 11
-32.5
 21
42.00000000000001
 31
0.0
  0
LINE
  5
4A3
330
47
100
AcDbEntity
  8
1
  6
Continuous
 62
     2
100
AcDbLine
 10
-32.5
 20
49.5
 30
0.0
 11
-5.0
 21
49.5
 31
0.0
  0
LINE
  5
4A4
330
47
100
AcDbEntity
  8
1
  6
Continuous
 62
     7
100
AcDbLine
 10
-32.5
 20
49.5
 30
0.0
 11
-32.5
 21
47.0
 31
0.0
  0
LINE
  5
4A5
330
47
100
AcDbEntity
  8
1
  6
Continuous
 62
     7
100
AcDbLine
 10
-5.0
 20
49.5
 30
0.0
 11
-5.0
 21
45.75
 31
0.0
  0
LINE
  5
4A6
330
47
100
AcDbEntity
  8
1
  6
Continuous
 62
     2
100
AcDbLine
 10
-5.0
 20
53.25
 30
0.0
 11
-32.5
 21
53.25
 31
0.0
  0
LINE
  5
4A7
330
47
100
AcDbEntity
  8
1
  6
Continuous
 62
     7
100
AcDbLine
 10
-5.0
 20
53.25
 30
0.0
 11
-5.0
 21
49.5
 31
0.0
  0
LINE
  5
4A8
330
47
100
AcDbEntity
  8
1
  6
Continuous
 62
     7
100
AcDbLine
 10
-32.5
 20
53.25
 30
0.0
 11
-32.5
 21
52.0
 31
0.0
  0
LINE
  5
4A9
330
47
100
AcDbEntity
  8
1
  6
Continuous
 62
     7
100
AcDbLine
 10
-187.5000000000001
 20
27.00000000000001
 30
0.0
 11
-143.6674696264136
 21
27.00000000000001
 31
0.0
  0
MTEXT
  5
4AA
330
47
100
AcDbEntity
  8
1
 62
     2
100
AcDbMText
 10
-153.0195254502083
 20
141.8915637943231
 30
0.0
 40
2.5
 41
0.0
 71
     8
 72
     1
  1
14
  7
CONVERTER_11
 73
     1
 44
1.32052821128451
  0
MTEXT
  5
4AB
330
47
100
AcDbEntity
  8
1
 62
     2
100
AcDbMText
 10
-143.0195254502083
 20
141.8915637943231
 30
0.0
 40
2.5
 41
0.0
 71
     8
 72
     1
  1
33
  7
CONVERTER_11
 73
     1
 44
1.32052821128451
  0
MTEXT
  5
4AC
330
47
100
AcDbEntity
  8
1
 62
     2
100
AcDbMText
 10
-133.331776486952
 20
141.8915637943231
 30
0.0
 40
2.5
 41
0.0
 71
     8
 72
     1
  1
37
  7
CONVERTER_11
 73
     1
 44
1.32052821128451
  0
MTEXT
  5
4AD
330
47
100
AcDbEntity
  8
1
 62
     2
100
AcDbMText
 10
-55.5011949162049
 20
141.8915637943231
 30
0.0
 40
2.5
 41
0.0
 71
     8
 72
     1
  1
M5 x 12
  7
CONVERTER_11
 73
     1
 44
1.32052821128451
  0
MTEXT
  5
4AE
330
47
100
AcDbEntity
  8
1
 62
     2
100
AcDbMText
 10
-168.0195254502083
 20
141.8915637943231
 30
0.0
 40
2.5
 41
0.0
 71
     8
 72
     1
  1
2
  7
CONVERTER_11
 73
     1
 44
1.32052821128451
  0
MTEXT
  5
4AF
330
47
100
AcDbEntity
  8
1
 62
     2
100
AcDbMText
 10
-168.0195254502086
 20
146.8915637943231
 30
0.0
 40
2.5
 41
0.0
 71
     8
 72
     1
  1
1
  7
CONVERTER_11
 73
     1
 44
1.32052821128451
  0
MTEXT
  5
4B0
330
47
100
AcDbEntity
  8
1
 62
     2
100
AcDbMText
 10
-168.0195254502083
 20
151.8915637943231
 30
0.0
 40
2.5
 41
0.0
 71
     8
 72
     1
  1
Standard
  7
CONVERTER_11
 73
     1
 44
1.32052821128451
  0
MTEXT
  5
4B1
330
47
100
AcDbEntity
  8
1
 62
     2
100
AcDbMText
 10
-143.0195254502083
 20
146.8915637943231
 30
0.0
 40
2.5
 41
0.0
 71
     8
 72
     1
  1
50
  7
CONVERTER_11
 73
     1
 44
1.32052821128451
  0
MTEXT
  5
4B2
330
47
100
AcDbEntity
  8
1
 62
     2
100
AcDbMText
 10
-143.0195254502083
 20
151.8915637943231
 30
0.0
 40
2.5
 41
0.0
 71
     8
 72
     1
  1
M
  7
CONVERTER_11
 73
     1
 44
1.32052821128451
  0
MTEXT
  5
4B3
330
47
100
AcDbEntity
  8
1
 62
     2
100
AcDbMText
 10
-153.0195254502083
 20
146.8915637943231
 30
0.0
 40
2.5
 41
0.0
 71
     8
 72
     1
  1
20
  7
CONVERTER_11
 73
     1
 44
1.32052821128451
  0
MTEXT
  5
4B4
330
47
100
AcDbEntity
  8
1
 62
     2
100
AcDbMText
 10
-131.7695254502083
 20
146.8915637943231
 30
0.0
 40
2.5
 41
0.0
 71
     8
 72
     1
  1
54,5
  7
CONVERTER_11
 73
     1
 44
1.32052821128451
  0
MTEXT
  5
4B5
330
47
100
AcDbEntity
  8
1
 62
     2
100
AcDbMText
 10
-131.7695254502083
 20
151.8915637943231
 30
0.0
 40
2.5
 41
0.0
 71
     8
 72
     1
  1
N
  7
CONVERTER_11
 73
     1
 44
1.32052821128451
  0
MTEXT
  5
4B6
330
47
100
AcDbEntity
  8
1
 62
     2
100
AcDbMText
 10
-153.0195254502083
 20
151.8915637943231
 30
0.0
 40
2.5
 41
0.0
 71
     8
 72
     1
  1
K
  7
CONVERTER_11
 73
     1
 44
1.32052821128451
  0
MTEXT
  5
4B7
330
47
100
AcDbEntity
  8
1
 62
     2
100
AcDbMText
 10
-55.51952545020902
 20
146.8915637943231
 30
0.0
 40
2.5
 41
0.0
 71
     8
 72
     1
  1
M6 x 16
  7
CONVERTER_11
 73
     1
 44
1.32052821128451
  0
MTEXT
  5
4B8
330
47
100
AcDbEntity
  8
1
 62
     2
100
AcDbMText
 10
-55.51952545020902
 20
151.8915637943231
 30
0.0
 40
2.5
 41
0.0
 71
     8
 72
     1
  1
Zentrumgewinde
  7
CONVERTER_11
 73
     1
 44
1.32052821128451
  0
MTEXT
  5
4B9
330
47
100
AcDbEntity
  8
1
 62
     2
100
AcDbMText
 10
-109.581612162603
 20
141.8915637943231
 30
0.0
 40
2.5
 41
0.0
 71
     8
 72
     1
  1
185
  7
CONVERTER_11
 73
     1
 44
1.32052821128451
  0
MTEXT
  5
4BA
330
47
100
AcDbEntity
  8
1
 62
     2
100
AcDbMText
 10
-108.0195254502086
 20
146.8915637943231
 30
0.0
 40
2.5
 41
0.0
 71
     8
 72
     1
  1
219,5
  7
CONVERTER_11
 73
     1
 44
1.32052821128451
  0
MTEXT
  5
4BB
330
47
100
AcDbEntity
  8
1
 62
     2
100
AcDbMText
 10
-108.0195254502086
 20
151.8915637943231
 30
0.0
 40
2.5
 41
0.0
 71
     8
 72
     1
  1
P
  7
CONVERTER_11
 73
     1
 44
1.32052821128451
  0
MTEXT
  5
4BC
330
47
100
AcDbEntity
  8
1
 62
     2
100
AcDbMText
 10
-120.5195254502084
 20
151.8915637943231
 30
0.0
 40
2.5
 41
0.0
 71
     8
 72
     1
  1
O
  7
CONVERTER_11
 73
     1
 44
1.32052821128451
  0
MTEXT
  5
4BD
330
47
100
AcDbEntity
  8
1
 62
     2
100
AcDbMText
 10
-120.5195254502084
 20
146.8915637943231
 30
0.0
 40
2.5
 41
0.0
 71
     8
 72
     1
  1
52
  7
CONVERTER_11
 73
     1
 44
1.32052821128451
  0
MTEXT
  5
4BE
330
47
100
AcDbEntity
  8
1
 62
     2
100
AcDbMText
 10
-120.5195254502084
 20
141.8915637943231
 30
0.0
 40
2.5
 41
0.0
 71
     8
 72
     1
  1
35
  7
CONVERTER_11
 73
     1
 44
1.32052821128451
  0
MTEXT
  5
4BF
330
47
100
AcDbEntity
  8
1
 62
     2
100
AcDbMText
 10
-75.51952545020902
 20
141.891563794323
 30
0.0
 40
2.5
 41
0.0
 71
     8
 72
     1
  1
5
  7
CONVERTER_11
 73
     1
 44
1.32052821128451
  0
MTEXT
  5
4C0
330
47
100
AcDbEntity
  8
1
 62
     2
100
AcDbMText
 10
-75.51952545020902
 20
146.891563794323
 30
0.0
 40
2.5
 41
0.0
 71
     8
 72
     1
  1
6
  7
CONVERTER_11
 73
     1
 44
1.32052821128451
  0
MTEXT
  5
4C1
330
47
100
AcDbEntity
  8
1
 62
     2
100
AcDbMText
 10
-85.51952545020902
 20
146.891563794323
 30
0.0
 40
2.5
 41
0.0
 71
     8
 72
     1
  1
32
  7
CONVERTER_11
 73
     1
 44
1.32052821128451
  0
MTEXT
  5
4C2
330
47
100
AcDbEntity
  8
1
 62
     2
100
AcDbMText
 10
-85.51952545020902
 20
141.891563794323
 30
0.0
 40
2.5
 41
0.0
 71
     8
 72
     1
  1
20
  7
CONVERTER_11
 73
     1
 44
1.32052821128451
  0
MTEXT
  5
4C3
330
47
100
AcDbEntity
  8
1
 62
     2
100
AcDbMText
 10
-95.519525450209
 20
141.891563794323
 30
0.0
 40
2.5
 41
0.0
 71
     8
 72
     1
  1
2
  7
CONVERTER_11
 73
     1
 44
1.32052821128451
  0
MTEXT
  5
4C4
330
47
100
AcDbEntity
  8
1
 62
     2
100
AcDbMText
 10
-95.519525450209
 20
146.891563794323
 30
0.0
 40
2.5
 41
0.0
 71
     8
 72
     1
  1
3
  7
CONVERTER_11
 73
     1
 44
1.32052821128451
  0
MTEXT
  5
4C5
330
47
100
AcDbEntity
  8
1
 62
     2
100
AcDbMText
 10
-75.51952545020902
 20
151.891563794323
 30
0.0
 40
2.5
 41
0.0
 71
     8
 72
     1
  1
T
  7
CONVERTER_11
 73
     1
 44
1.32052821128451
  0
MTEXT
  5
4C6
330
47
100
AcDbEntity
  8
1
 62
     2
100
AcDbMText
 10
-85.51952545020902
 20
151.891563794323
 30
0.0
 40
2.5
 41
0.0
 71
     8
 72
     1
  1
S
  7
CONVERTER_11
 73
     1
 44
1.32052821128451
  0
MTEXT
  5
4C7
330
47
100
AcDbEntity
  8
1
 62
     2
100
AcDbMText
 10
-95.519525450209
 20
151.891563794323
 30
0.0
 40
2.5
 41
0.0
 71
     8
 72
     1
  1
R
  7
CONVERTER_11
 73
     1
 44
1.32052821128451
  0
MTEXT
  5
4C8
330
47
100
AcDbEntity
  8
1
 62
     2
100
AcDbMText
 10
-108.6445254502085
 20
184.4212678031089
 30
0.0
 40
2.5
 41
0.0
 71
     5
 72
     1
  1
--
  7
CONVERTER_11
 73
     1
 44
1.32052821128451
  0
MTEXT
  5
4C9
330
47
100
AcDbEntity
  8
1
 62
     2
100
AcDbMText
 10
-108.6445254502085
 20
199.4212678031087
 30
0.0
 40
2.5
 41
0.0
 71
     5
 72
     1
  1
--
  7
CONVERTER_11
 73
     1
 44
1.32052821128451
  0
MTEXT
  5
4CA
330
47
100
AcDbEntity
  8
1
 62
     2
100
AcDbMText
 10
-100.3945254502085
 20
203.5758201276716
 30
0.0
 40
2.5
 41
0.0
 71
     8
 72
     1
  1
D
  7
CONVERTER_11
 73
     1
 44
1.32052821128451
  0
MTEXT
  5
4CB
330
47
100
AcDbEntity
  8
1
 62
     2
100
AcDbMText
 10
-97.7695254502085
 20
198.5758201276716
 30
0.0
 40
2.5
 41
0.0
 71
     9
 72
     1
  1
120
  7
CONVERTER_11
 73
     1
 44
1.32052821128451
  0
MTEXT
  5
4CC
330
47
100
AcDbEntity
  8
1
 62
     2
100
AcDbMText
 10
-97.7695254502085
 20
183.575820127672
 30
0.0
 40
2.5
 41
0.0
 71
     9
 72
     1
  1
90
  7
CONVERTER_11
 73
     1
 44
1.32052821128451
  0
TEXT
  5
4CD
330
47
100
AcDbEntity
  8
1
 62
     2
100
AcDbText
 10
-176.0195254502086
 20
203.5758201276716
 30
0.0
 40
2.5
  1
El.Motor
 41
0.9
  7
CONVERTER_11
100
AcDbText
  0
MTEXT
  5
4CE
330
47
100
AcDbEntity
  8
1
 62
     2
100
AcDbMText
 10
-137.2695254502086
 20
203.5758201276716
 30
0.0
 40
2.5
 41
0.0
 71
     8
 72
     1
  1
L
  7
CONVERTER_11
 73
     1
 44
1.32052821128451
  0
MTEXT
  5
4CF
330
47
100
AcDbEntity
  8
1
 62
     2
100
AcDbMText
 10
-116.1445254502085
 20
203.5758201276716
 30
0.0
 40
2.5
 41
0.0
 71
     8
 72
     1
  1
B
  7
CONVERTER_11
 73
     1
 44
1.32052821128451
  0
MTEXT
  5
4D0
330
47
100
AcDbEntity
  8
1
 62
     2
100
AcDbMText
 10
-108.6445254502085
 20
203.5758201276716
 30
0.0
 40
2.5
 41
0.0
 71
     8
 72
     1
  1
C
  7
CONVERTER_11
 73
     1
 44
1.32052821128451
  0
MTEXT
  5
4D1
330
47
100
AcDbEntity
  8
1
 62
     2
100
AcDbMText
 10
-176.0195254502086
 20
197.3258201276716
 30
0.0
 40
2.5
 41
0.0
 71
     4
 72
     1
  1
IEC56
  7
CONVERTER_11
 73
     1
 44
1.32052821128451
  0
MTEXT
  5
4D2
330
47
100
AcDbEntity
  8
1
 62
     2
100
AcDbMText
 10
-114.2695254502085
 20
198.5758201276716
 30
0.0
 40
2.5
 41
0.0
 71
     9
 72
     1
  1
10
  7
CONVERTER_11
 73
     1
 44
1.32052821128451
  0
MTEXT
  5
4D3
330
47
100
AcDbEntity
  8
1
 62
     2
100
AcDbMText
 10
-176.0195254502086
 20
187.3258201276722
 30
0.0
 40
2.5
 41
0.0
 71
     4
 72
     1
  1
IEC63
  7
CONVERTER_11
 73
     1
 44
1.32052821128451
  0
MTEXT
  5
4D4
330
47
100
AcDbEntity
  8
1
 62
     2
100
AcDbMText
 10
-176.0195254502086
 20
177.3258201276716
 30
0.0
 40
2.5
 41
0.0
 71
     4
 72
     1
  1
IEC71
  7
CONVERTER_11
 73
     1
 44
1.32052821128451
  0
MTEXT
  5
4D5
330
47
100
AcDbEntity
  8
1
 62
     2
100
AcDbMText
 10
-114.2695254502085
 20
183.575820127672
 30
0.0
 40
2.5
 41
0.0
 71
     9
 72
     1
  1
12
  7
CONVERTER_11
 73
     1
 44
1.32052821128451
  0
MTEXT
  5
4D6
330
47
100
AcDbEntity
  8
1
 62
     2
100
AcDbMText
 10
-133.7699128204141
 20
183.575820127672
 30
0.0
 40
2.5
 41
0.0
 71
     9
 72
     1
  1
177,5
  7
CONVERTER_11
 73
     1
 44
1.32052821128451
  0
MTEXT
  5
4D7
330
47
100
AcDbEntity
  8
1
 62
     2
100
AcDbMText
 10
-133.7675212254611
 20
198.5758201276716
 30
0.0
 40
2.5
 41
0.0
 71
     9
 72
     1
  1
174,5
  7
CONVERTER_11
 73
     1
 44
1.32052821128451
  0
MTEXT
  5
4D8
330
47
100
AcDbEntity
  8
1
 62
     2
100
AcDbMText
 10
-125.5195254502085
 20
203.5758201276716
 30
0.0
 40
2.5
 41
0.0
 71
     8
 72
     1
  1
A
  7
CONVERTER_11
 73
     1
 44
1.32052821128451
  0
MTEXT
  5
4D9
330
47
100
AcDbEntity
  8
1
 62
     2
100
AcDbMText
 10
-122.0195254502085
 20
198.5758201276716
 30
0.0
 40
2.5
 41
0.0
 71
     9
 72
     1
  1
44,5
  7
CONVERTER_11
 73
     1
 44
1.32052821128451
  0
MTEXT
  5
4DA
330
47
100
AcDbEntity
  8
1
 62
     2
100
AcDbMText
 10
-122.0213532316681
 20
183.575820127672
 30
0.0
 40
2.5
 41
0.0
 71
     9
 72
     1
  1
47,5
  7
CONVERTER_11
 73
     1
 44
1.32052821128451
  0
TEXT
  5
4DB
330
47
100
AcDbEntity
  8
1
 62
     2
100
AcDbText
 10
-159.2695254502086
 20
203.5758201276716
 30
0.0
 40
2.5
  1
Flansch
 41
0.9
  7
CONVERTER_11
100
AcDbText
  0
TEXT
  5
4DC
330
47
100
AcDbEntity
  8
1
 62
     2
100
AcDbText
 10
-154.9077001172943
 20
198.5758201276716
 30
0.0
 40
2.5
  1
B5
 41
0.9
  7
CONVERTER_11
100
AcDbText
  0
TEXT
  5
4DD
330
47
100
AcDbEntity
  8
1
 62
     2
100
AcDbText
 10
-154.9077001172943
 20
188.5758201276722
 30
0.0
 40
2.5
  1
B5
 41
0.9
  7
CONVERTER_11
100
AcDbText
  0
TEXT
  5
4DE
330
47
100
AcDbEntity
  8
1
 62
     2
100
AcDbText
 10
-154.9077001172943
 20
178.5758201276716
 30
0.0
 40
2.5
  1
B5
 41
0.9
  7
CONVERTER_11
100
AcDbText
  0
TEXT
  5
4DF
330
47
100
AcDbEntity
  8
1
 62
     2
100
AcDbText
 10
-154.9077001172943
 20
193.5758201276716
 30
0.0
 40
2.5
  1
B14
 41
0.9
  7
CONVERTER_11
100
AcDbText
  0
MTEXT
  5
4E0
330
47
100
AcDbEntity
  8
1
 62
     2
100
AcDbMText
 10
-133.0195254502086
 20
173.5758201276716
 30
0.0
 40
2.5
 41
0.0
 71
     9
 72
     1
  1
184,5
  7
CONVERTER_11
 73
     1
 44
1.32052821128451
  0
MTEXT
  5
4E1
330
47
100
AcDbEntity
  8
1
 62
     2
100
AcDbMText
 10
-122.0208547458149
 20
173.5758201276716
 30
0.0
 40
2.5
 41
0.0
 71
     9
 72
     1
  1
54,5
  7
CONVERTER_11
 73
     1
 44
1.32052821128451
  0
MTEXT
  5
4E2
330
47
100
AcDbEntity
  8
1
 62
     2
100
AcDbMText
 10
-114.2695254502085
 20
173.5758201276716
 30
0.0
 40
2.5
 41
0.0
 71
     9
 72
     1
  1
20
  7
CONVERTER_11
 73
     1
 44
1.32052821128451
  0
MTEXT
  5
4E3
330
47
100
AcDbEntity
  8
1
 62
     2
100
AcDbMText
 10
-97.7695254502085
 20
173.5758201276716
 30
0.0
 40
2.5
 41
0.0
 71
     9
 72
     1
  1
105
  7
CONVERTER_11
 73
     1
 44
1.32052821128451
  0
TEXT
  5
4E4
330
47
100
AcDbEntity
  8
1
 62
     2
100
AcDbText
 10
-154.9077001172943
 20
183.5758201276716
 30
0.0
 40
2.5
  1
B14
 41
0.9
  7
CONVERTER_11
100
AcDbText
  0
TEXT
  5
4E5
330
47
100
AcDbEntity
  8
1
 62
     2
100
AcDbText
 10
-154.9077001172943
 20
173.5758201276716
 30
0.0
 40
2.5
  1
B14
 41
0.9
  7
CONVERTER_11
100
AcDbText
  0
MTEXT
  5
4E6
330
47
100
AcDbEntity
  8
1
 62
     2
100
AcDbMText
 10
-133.7675212254611
 20
193.5758201276716
 30
0.0
 40
2.5
 41
0.0
 71
     9
 72
     1
  1
174,5
  7
CONVERTER_11
 73
     1
 44
1.32052821128451
  0
MTEXT
  5
4E7
330
47
100
AcDbEntity
  8
1
 62
     2
100
AcDbMText
 10
-122.0195254502085
 20
193.5758201276716
 30
0.0
 40
2.5
 41
0.0
 71
     9
 72
     1
  1
44,5
  7
CONVERTER_11
 73
     1
 44
1.32052821128451
  0
MTEXT
  5
4E8
330
47
100
AcDbEntity
  8
1
 62
     2
100
AcDbMText
 10
-114.2695254502085
 20
193.5758201276716
 30
0.0
 40
2.5
 41
0.0
 71
     9
 72
     1
  1
10
  7
CONVERTER_11
 73
     1
 44
1.32052821128451
  0
MTEXT
  5
4E9
330
47
100
AcDbEntity
  8
1
 62
     2
100
AcDbMText
 10
-97.7695254502085
 20
193.5758201276716
 30
0.0
 40
2.5
 41
0.0
 71
     9
 72
     1
  1
90
  7
CONVERTER_11
 73
     1
 44
1.32052821128451
  0
MTEXT
  5
4EA
330
47
100
AcDbEntity
  8
1
 62
     2
100
AcDbMText
 10
-107.0195254502085
 20
193.5758201276716
 30
0.0
 40
2.5
 41
0.0
 71
     9
 72
     1
  1
 7
  7
CONVERTER_11
 73
     1
 44
1.32052821128451
  0
MTEXT
  5
4EB
330
47
100
AcDbEntity
  8
1
 62
     2
100
AcDbMText
 10
-97.7695254502085
 20
188.5758201276722
 30
0.0
 40
2.5
 41
0.0
 71
     9
 72
     1
  1
140
  7
CONVERTER_11
 73
     1
 44
1.32052821128451
  0
MTEXT
  5
4EC
330
47
100
AcDbEntity
  8
1
 62
     2
100
AcDbMText
 10
-108.6445254502085
 20
189.4212678031087
 30
0.0
 40
2.5
 41
0.0
 71
     5
 72
     1
  1
--
  7
CONVERTER_11
 73
     1
 44
1.32052821128451
  0
MTEXT
  5
4ED
330
47
100
AcDbEntity
  8
1
 62
     2
100
AcDbMText
 10
-114.2695254502085
 20
188.5758201276722
 30
0.0
 40
2.5
 41
0.0
 71
     9
 72
     1
  1
12
  7
CONVERTER_11
 73
     1
 44
1.32052821128451
  0
MTEXT
  5
4EE
330
47
100
AcDbEntity
  8
1
 62
     2
100
AcDbMText
 10
-122.0213532316681
 20
188.5758201276722
 30
0.0
 40
2.5
 41
0.0
 71
     9
 72
     1
  1
47,5
  7
CONVERTER_11
 73
     1
 44
1.32052821128451
  0
MTEXT
  5
4EF
330
47
100
AcDbEntity
  8
1
 62
     2
100
AcDbMText
 10
-133.7699128204141
 20
188.5758201276722
 30
0.0
 40
2.5
 41
0.0
 71
     9
 72
     1
  1
177,5
  7
CONVERTER_11
 73
     1
 44
1.32052821128451
  0
MTEXT
  5
4F0
330
47
100
AcDbEntity
  8
1
 62
     2
100
AcDbMText
 10
-108.6445254502085
 20
179.4212678031087
 30
0.0
 40
2.5
 41
0.0
 71
     5
 72
     1
  1
--
  7
CONVERTER_11
 73
     1
 44
1.32052821128451
  0
MTEXT
  5
4F1
330
47
100
AcDbEntity
  8
1
 62
     2
100
AcDbMText
 10
-100.3945254502085
 20
179.4212678031087
 30
0.0
 40
2.5
 41
0.0
 71
     5
 72
     1
  1
--
  7
CONVERTER_11
 73
     1
 44
1.32052821128451
  0
MTEXT
  5
4F2
330
47
100
AcDbEntity
  8
1
 62
     2
100
AcDbMText
 10
-116.1445254502085
 20
179.4212678031087
 30
0.0
 40
2.5
 41
0.0
 71
     5
 72
     1
  1
--
  7
CONVERTER_11
 73
     1
 44
1.32052821128451
  0
MTEXT
  5
4F3
330
47
100
AcDbEntity
  8
1
 62
     2
100
AcDbMText
 10
-125.5195254502085
 20
179.4212678031087
 30
0.0
 40
2.5
 41
0.0
 71
     5
 72
     1
  1
--
  7
CONVERTER_11
 73
     1
 44
1.32052821128451
  0
MTEXT
  5
4F4
330
47
100
AcDbEntity
  8
1
 62
     2
100
AcDbMText
 10
-137.2695254502086
 20
179.4212678031087
 30
0.0
 40
2.5
 41
0.0
 71
     5
 72
     1
  1
--
  7
CONVERTER_11
 73
     1
 44
1.32052821128451
  0
MTEXT
  5
4F5
330
47
100
AcDbEntity
  8
1
 62
     2
100
AcDbMText
 10
-107.0195254502085
 20
173.5758201276716
 30
0.0
 40
2.5
 41
0.0
 71
     9
 72
     1
  1
 7
  7
CONVERTER_11
 73
     1
 44
1.32052821128451
  0
MTEXT
  5
4F6
330
47
100
AcDbEntity
  8
1
 62
     2
100
AcDbMText
 10
-88.2695254502085
 20
203.5758201276716
 30
0.0
 40
2.5
 41
0.0
 71
     8
 72
     1
  1
Rotex
  7
CONVERTER_11
 73
     1
 44
1.32052821128451
  0
MTEXT
  5
4F7
330
47
100
AcDbEntity
  8
1
 62
     2
100
AcDbMText
 10
-88.2695254502085
 20
198.5758201276716
 30
0.0
 40
2.5
 41
0.0
 71
     8
 72
     1
  1
14
  7
CONVERTER_11
 73
     1
 44
1.32052821128451
  0
MTEXT
  5
4F8
330
47
100
AcDbEntity
  8
1
 62
     2
100
AcDbMText
 10
-88.2695254502085
 20
188.5758201276716
 30
0.0
 40
2.5
 41
0.0
 71
     8
 72
     1
  1
14
  7
CONVERTER_11
 73
     1
 44
1.32052821128451
  0
MTEXT
  5
4F9
330
47
100
AcDbEntity
  8
1
 62
     2
100
AcDbMText
 10
-88.2695254502085
 20
179.4212678031089
 30
0.0
 40
2.5
 41
0.0
 71
     5
 72
     1
  1
--
  7
CONVERTER_11
 73
     1
 44
1.32052821128451
  0
MTEXT
  5
4FA
330
47
100
AcDbEntity
  8
1
 62
     2
100
AcDbMText
 10
-88.2695254502085
 20
173.5758201276716
 30
0.0
 40
2.5
 41
0.0
 71
     8
 72
     1
  1
14
  7
CONVERTER_11
 73
     1
 44
1.32052821128451
  0
MTEXT
  5
4FB
330
47
100
AcDbEntity
  8
1
 62
     2
100
AcDbMText
 10
-88.2695254502085
 20
183.5758201276718
 30
0.0
 40
2.5
 41
0.0
 71
     8
 72
     1
  1
14
  7
CONVERTER_11
 73
     1
 44
1.32052821128451
  0
MTEXT
  5
4FC
330
47
100
AcDbEntity
  8
1
 62
     2
100
AcDbMText
 10
-88.2695254502085
 20
193.5758201276718
 30
0.0
 40
2.5
 41
0.0
 71
     8
 72
     1
  1
14
  7
CONVERTER_11
 73
     1
 44
1.32052821128451
  0
MTEXT
  5
4FD
330
47
100
AcDbEntity
  8
1
 62
     2
100
AcDbMText
 10
-17.47240347426532
 20
39.13768528313111
 30
0.0
 40
2.0
 41
0.0
 71
     4
 72
     1
  1
N.Frei
  7
CONVERTER_11
 73
     1
 44
1.32052821128451
  0
MTEXT
  5
4FE
330
47
100
AcDbEntity
  8
1
 62
     2
100
AcDbMText
 10
-37.9290872202572
 20
39.13768528313111
 30
0.0
 40
2.0
 41
0.0
 71
     4
 72
     1
  1
20.02.1996
  7
CONVERTER_11
 73
     1
 44
1.32052821128451
  0
MTEXT
  5
4FF
330
47
100
AcDbEntity
  8
1
 62
     7
100
AcDbMText
 10
-137.5000000000001
 20
12.5
 30
0.0
 40
4.0
 41
0.0
 71
     5
 72
     1
  1
TH. Z\U+00dcRRER AG  8055 Z\U+00dcRICH
  7
CONVERTER_11
 73
     1
 44
1.32052821128451
  0
MTEXT
  5
500
330
47
100
AcDbEntity
  8
1
 62
     2
100
AcDbMText
 10
-32.5
 20
55.125
 30
0.0
 40
1.8
 41
0.0
 71
     4
 72
     1
  1
 Ersetzt durch:
  7
CONVERTER_11
 73
     1
 44
1.32052821128451
  0
MTEXT
  5
501
330
47
100
AcDbEntity
  8
1
 62
     2
100
AcDbMText
 10
-32.5
 20
47.625
 30
0.0
 40
1.8
 41
0.0
 71
     4
 72
     1
  1
 Ersatz f\U+00fcr:
  7
CONVERTER_11
 73
     1
 44
1.32052821128451
  0
MTEXT
  5
502
330
47
100
AcDbEntity
  8
1
 62
     2
100
AcDbMText
 10
-190.0000000000001
 20
54.5
 30
0.0
 40
2.0
 41
0.0
 71
     4
 72
     1
  1
 Ind.
  7
CONVERTER_11
 73
     1
 44
1.32052821128451
  0
MTEXT
  5
503
330
47
100
AcDbEntity
  8
1
 62
     2
100
AcDbMText
 10
-182.0000000000001
 20
54.5
 30
0.0
 40
2.0
 41
0.0
 71
     4
 72
     1
  1
 \U+00c4nd.-Nr.
  7
CONVERTER_11
 73
     1
 44
1.32052821128451
  0
MTEXT
  5
504
330
47
100
AcDbEntity
  8
1
 62
     2
100
AcDbMText
 10
-162.0000000000001
 20
54.5
 30
0.0
 40
2.0
 41
0.0
 71
     4
 72
     1
  1
 Dat.
  7
CONVERTER_11
 73
     1
 44
1.32052821128451
  0
MTEXT
  5
505
330
47
100
AcDbEntity
  8
1
 62
     2
100
AcDbMText
 10
-149.5000000000001
 20
54.5
 30
0.0
 40
2.0
 41
0.0
 71
     4
 72
     1
  1
 Vis.
  7
CONVERTER_11
 73
     1
 44
1.32052821128451
  0
MTEXT
  5
506
330
47
100
AcDbEntity
  8
1
 62
     2
100
AcDbMText
 10
-85.0
 20
39.25000000000001
 30
0.0
 40
2.0
 41
0.0
 71
     4
 72
     1
  1
 Kd.-Nr.
  7
CONVERTER_11
 73
     1
 44
1.32052821128451
  0
MTEXT
  5
507
330
47
100
AcDbEntity
  8
1
 62
     2
100
AcDbMText
 10
-72.0
 20
33.75000000000001
 30
0.0
 40
2.0
 41
0.0
 71
     5
 72
     1
  1
Massstab
  7
CONVERTER_11
 73
     1
 44
1.32052821128451
  0
MTEXT
  5
508
330
47
100
AcDbEntity
  8
1
 62
     2
100
AcDbMText
 10
-59.0
 20
39.25000000000001
 30
0.0
 40
2.0
 41
0.0
 71
     4
 72
     1
  1
 Gezeichnet
  7
CONVERTER_11
 73
     1
 44
1.32052821128451
  0
MTEXT
  5
509
330
47
100
AcDbEntity
  8
1
 62
     2
100
AcDbMText
 10
-59.0
 20
33.75000000000001
 30
0.0
 40
2.0
 41
0.0
 71
     4
 72
     1
  1
 Gepr\U+00fcft
  7
CONVERTER_11
 73
     1
 44
1.32052821128451
  0
MTEXT
  5
50A
330
47
100
AcDbEntity
  8
1
 62
     2
100
AcDbMText
 10
-190.0000000000001
 20
38.50000000000001
 30
0.0
 40
2.5
 41
0.0
 71
     4
 72
     1
  1
  Motoranbaum\U+00f6glichkeiten
  7
CONVERTER_11
 73
     1
 44
1.32052821128451
  0
MTEXT
  5
50B
330
47
100
AcDbEntity
  8
1
 62
     2
100
AcDbMText
 10
-190.0000000000001
 20
23.50000000000001
 30
0.0
 40
2.5
 41
0.0
 71
     4
 72
     1
  1
  
  7
CONVERTER_11
 73
     1
 44
1.32052821128451
  0
MTEXT
  5
50C
330
47
100
AcDbEntity
  8
1
 62
     2
100
AcDbMText
 10
-72.0
 20
28.25000000000001
 30
0.0
 40
2.5
 41
0.0
 71
     5
 72
     1
  1
 % 
  7
CONVERTER_11
 73
     1
 44
1.32052821128451
  0
MTEXT
  5
50D
330
47
100
AcDbEntity
  8
1
 62
     2
100
AcDbMText
 10
-59.0
 20
39.25000000000001
 30
0.0
 40
2.0
 41
0.0
 71
     6
 72
     1
  1
 
  7
CONVERTER_11
 73
     1
 44
1.32052821128451
  0
MTEXT
  5
50E
330
47
100
AcDbEntity
  8
1
 62
     7
100
AcDbMText
 10
-190.0000000000001
 20
31.00000000000001
 30
0.0
 40
4.0
 41
0.0
 71
     4
 72
     1
  1
 Typ SGG36/11
  7
CONVERTER_11
 73
     1
 44
1.32052821128451
  0
MTEXT
  5
50F
330
47
100
AcDbEntity
  8
1
 62
     7
100
AcDbMText
 10
-45.0
 20
12.5
 30
0.0
 40
4.0
 41
0.0
 71
     5
 72
     1
  1
MB1-0294-3
  7
CONVERTER_11
 73
     1
 44
1.32052821128451
  0
ENDBLK
  5
49
330
47
100
AcDbEntity
  8
0
100
AcDbBlockEnd
  0
BLOCK
  5
1A3
330
19A
100
AcDbEntity
  8
0
100
AcDbBlockBegin
  2
*D3
 70
     1
 10
0.0
 20
0.0
 30
0.0
  3
*D3
  1

  0
LINE
  5
19B
330
19A
100
AcDbEntity
  8
1
  6
Continuous
 62
     2
100
AcDbLine
 10
-535.9722939504782
 20
117.6936301706484
 30
0.0
 11
-535.9722939504782
 21
131.28690539547
 31
0.0
  0
LINE
  5
19C
330
19A
100
AcDbEntity
  8
1
  6
Continuous
 62
     2
100
AcDbLine
 10
-535.9722939504782
 20
115.1936301706484
 30
0.0
 11
-535.9722939504782
 21
117.6936301706484
 31
0.0
  0
LINE
  5
19D
330
19A
100
AcDbEntity
  8
1
  6
Continuous
 62
     2
100
AcDbLine
 10
-535.9722939504782
 20
108.1936301706484
 30
0.0
 11
-535.9722939504782
 21
115.1936301706484
 31
0.0
  0
LINE
  5
19E
330
19A
100
AcDbEntity
  8
1
  6
Continuous
 62
     2
100
AcDbLine
 10
-549.9722939504782
 20
117.6936301706484
 30
0.0
 11
-533.9722939504782
 21
117.6936301706484
 31
0.0
  0
LINE
  5
19F
330
19A
100
AcDbEntity
  8
1
  6
Continuous
 62
     2
100
AcDbLine
 10
-564.9722939504782
 20
115.1936301706484
 30
0.0
 11
-533.9722939504782
 21
115.1936301706484
 31
0.0
  0
SOLID
  5
1A0
330
19A
100
AcDbEntity
  8
1
 62
     2
100
AcDbTrace
 10
-536.4330776920341
 20
121.1936301706484
 30
0.0
 11
-535.5115102089222
 21
121.1936301706484
 31
0.0
 12
-535.9722939504782
 22
117.6936301706484
 32
0.0
 13
-535.9722939504782
 23
117.6936301706484
 33
0.0
  0
SOLID
  5
1A1
330
19A
100
AcDbEntity
  8
1
 62
     2
100
AcDbTrace
 10
-535.5115102089222
 20
111.6936301706484
 30
0.0
 11
-536.4330776920341
 21
111.6936301706484
 31
0.0
 12
-535.9722939504782
 22
115.1936301706484
 32
0.0
 13
-535.9722939504782
 23
115.1936301706484
 33
0.0
  0
MTEXT
  5
1A2
330
19A
100
AcDbEntity
  8
1
 62
     2
100
AcDbMText
 10
-538.4722939504782
 20
122.03690539547
 30
0.0
 40
5.0
 41
0.0
 71
     7
 72
     1
  1
2,5
  7
CONVERTER_11
 11
0.0
 21
1.0
 31
0.0
 73
     1
 44
0.60024009603842
  0
ENDBLK
  5
1A4
330
19A
100
AcDbEntity
  8
0
100
AcDbBlockEnd
  0
BLOCK
  5
1B0
330
1A7
100
AcDbEntity
  8
0
100
AcDbBlockBegin
  2
*D4
 70
     1
 10
0.0
 20
0.0
 30
0.0
  3
*D4
  1

  0
LINE
  5
1A8
330
1A7
100
AcDbEntity
  8
1
  6
Continuous
 62
     2
100
AcDbLine
 10
-597.9722939504782
 20
454.49857191169
 30
0.0
 11
-607.180487175355
 21
454.49857191169
 31
0.0
  0
LINE
  5
1A9
330
1A7
100
AcDbEntity
  8
1
  6
Continuous
 62
     2
100
AcDbLine
 10
-597.9722939504782
 20
454.49857191169
 30
0.0
 11
-591.9722939504782
 21
454.49857191169
 31
0.0
  0
LINE
  5
1AA
330
1A7
100
AcDbEntity
  8
1
  6
Continuous
 62
     2
100
AcDbLine
 10
-584.9722939504782
 20
454.49857191169
 30
0.0
 11
-591.9722939504782
 21
454.49857191169
 31
0.0
  0
LINE
  5
1AB
330
1A7
100
AcDbEntity
  8
1
  6
Continuous
 62
     2
100
AcDbLine
 10
-591.9722939504782
 20
449.3884720951647
 30
0.0
 11
-591.9722939504782
 21
456.49857191169
 31
0.0
  0
LINE
  5
1AC
330
1A7
100
AcDbEntity
  8
1
  6
Continuous
 62
     2
100
AcDbLine
 10
-597.9722939504782
 20
449.3884720951647
 30
0.0
 11
-597.9722939504782
 21
456.49857191169
 31
0.0
  0
SOLID
  5
1AD
330
1A7
100
AcDbEntity
  8
1
 62
     2
100
AcDbTrace
 10
-601.4722939504782
 20
454.0377881701341
 30
0.0
 11
-601.4722939504782
 21
454.9593556532459
 31
0.0
 12
-597.9722939504782
 22
454.49857191169
 32
0.0
 13
-597.9722939504782
 23
454.49857191169
 33
0.0
  0
SOLID
  5
1AE
330
1A7
100
AcDbEntity
  8
1
 62
     2
100
AcDbTrace
 10
-588.4722939504782
 20
454.9593556532459
 30
0.0
 11
-588.4722939504782
 21
454.0377881701341
 31
0.0
 12
-591.9722939504782
 22
454.49857191169
 32
0.0
 13
-591.9722939504782
 23
454.49857191169
 33
0.0
  0
MTEXT
  5
1AF
330
1A7
100
AcDbEntity
  8
1
 62
     2
100
AcDbMText
 10
-607.180487175355
 20
456.49857191169
 30
0.0
 40
5.0
 41
0.0
 71
     7
 72
     1
  1
T
  7
CONVERTER_11
 11
0.9999999999970619
 21
2.424068405545306E-6
 31
0.0
 73
     1
 44
0.60024009603842
  0
ENDBLK
  5
1B1
330
1A7
100
AcDbEntity
  8
0
100
AcDbBlockEnd
  0
BLOCK
  5
1BB
330
1B4
100
AcDbEntity
  8
0
100
AcDbBlockBegin
  2
*D5
 70
     1
 10
0.0
 20
0.0
 30
0.0
  3
*D5
  1

  0
LINE
  5
1B5
330
1B4
100
AcDbEntity
  8
1
  6
Continuous
 62
     2
100
AcDbLine
 10
-643.9722939504782
 20
310.6936301706485
 30
0.0
 11
-545.9722939504782
 21
310.6936301706485
 31
0.0
  0
LINE
  5
1B6
330
1B4
100
AcDbEntity
  8
1
  6
Continuous
 62
     2
100
AcDbLine
 10
-545.9722939504782
 20
230.6936301706485
 30
0.0
 11
-545.9722939504782
 21
312.6936301706485
 31
0.0
  0
LINE
  5
1B7
330
1B4
100
AcDbEntity
  8
1
  6
Continuous
 62
     2
100
AcDbLine
 10
-643.9722939504782
 20
230.6936301706485
 30
0.0
 11
-643.9722939504782
 21
312.6936301706485
 31
0.0
  0
SOLID
  5
1B8
330
1B4
100
AcDbEntity
  8
1
 62
     2
100
AcDbTrace
 10
-640.4722939504782
 20
311.1544139122043
 30
0.0
 11
-640.4722939504782
 21
310.2328464290926
 31
0.0
 12
-643.9722939504782
 22
310.6936301706485
 32
0.0
 13
-643.9722939504782
 23
310.6936301706485
 33
0.0
  0
SOLID
  5
1B9
330
1B4
100
AcDbEntity
  8
1
 62
     2
100
AcDbTrace
 10
-549.4722939504782
 20
310.2328464290926
 30
0.0
 11
-549.4722939504782
 21
311.1544139122043
 31
0.0
 12
-545.9722939504782
 22
310.6936301706485
 32
0.0
 13
-545.9722939504782
 23
310.6936301706485
 33
0.0
  0
MTEXT
  5
1BA
330
1B4
100
AcDbEntity
  8
1
 62
     2
100
AcDbMText
 10
-604.4753242545349
 20
312.6936102932876
 30
0.0
 40
5.0
 41
0.0
 71
     7
 72
     1
  1
\C2;\U+00f8\C2;98
  7
CONVERTER_11
 11
0.9999999999970619
 21
2.424068405545306E-6
 31
0.0
 73
     1
 44
0.60024009603842
  0
ENDBLK
  5
1BC
330
1B4
100
AcDbEntity
  8
0
100
AcDbBlockEnd
  0
BLOCK
  5
1C8
330
1BF
100
AcDbEntity
  8
0
100
AcDbBlockBegin
  2
*D6
 70
     1
 10
0.0
 20
0.0
 30
0.0
  3
*D6
  1

  0
LINE
  5
1C0
330
1BF
100
AcDbEntity
  8
1
  6
Continuous
 62
     2
100
AcDbLine
 10
-715.9722939504783
 20
185.6936301706485
 30
0.0
 11
-715.9722939504783
 21
227.6936301706485
 31
0.0
  0
LINE
  5
1C1
330
1BF
100
AcDbEntity
  8
1
  6
Continuous
 62
     2
100
AcDbLine
 10
-710.707131035327
 20
185.6936301706485
 30
0.0
 11
-717.9722939504783
 21
185.6936301706485
 31
0.0
  0
LINE
  5
1C2
330
1BF
100
AcDbEntity
  8
1
  6
Continuous
 62
     2
100
AcDbLine
 10
-695.8800640507
 20
185.6936301706485
 30
0.0
 11
-699.9722939504782
 21
185.6936301706485
 31
0.0
  0
LINE
  5
1C3
330
1BF
100
AcDbEntity
  8
1
  6
Continuous
 62
     2
100
AcDbLine
 10
-665.3319840166733
 20
185.6936301706485
 30
0.0
 11
-685.9722939504782
 21
185.6936301706485
 31
0.0
  0
LINE
  5
1C4
330
1BF
100
AcDbEntity
  8
1
  6
Continuous
 62
     2
100
AcDbLine
 10
-658.9722939504782
 20
227.6936301706485
 30
0.0
 11
-717.9722939504783
 21
227.6936301706485
 31
0.0
  0
SOLID
  5
1C5
330
1BF
100
AcDbEntity
  8
1
 62
     2
100
AcDbTrace
 10
-716.4330776920342
 20
189.1936301706485
 30
0.0
 11
-715.5115102089223
 21
189.1936301706485
 31
0.0
 12
-715.9722939504783
 22
185.6936301706485
 32
0.0
 13
-715.9722939504783
 23
185.6936301706485
 33
0.0
  0
SOLID
  5
1C6
330
1BF
100
AcDbEntity
  8
1
 62
     2
100
AcDbTrace
 10
-715.5115102089223
 20
224.1936301706485
 30
0.0
 11
-716.4330776920342
 21
224.1936301706485
 31
0.0
 12
-715.9722939504783
 22
227.6936301706485
 32
0.0
 13
-715.9722939504783
 23
227.6936301706485
 33
0.0
  0
MTEXT
  5
1C7
330
1BF
100
AcDbEntity
  8
1
 62
     2
100
AcDbMText
 10
-717.9722939504783
 20
205.7320532205889
 30
0.0
 40
5.0
 41
0.0
 71
     7
 72
     1
  1
42
  7
CONVERTER_11
 11
0.0
 21
1.0
 31
0.0
 73
     1
 44
0.60024009603842
  0
ENDBLK
  5
1C9
330
1BF
100
AcDbEntity
  8
0
100
AcDbBlockEnd
  0
BLOCK
  5
1D5
330
1CC
100
AcDbEntity
  8
0
100
AcDbBlockBegin
  2
*D7
 70
     1
 10
0.0
 20
0.0
 30
0.0
  3
*D7
  1

  0
LINE
  5
1CD
330
1CC
100
AcDbEntity
  8
1
  6
Continuous
 62
     2
100
AcDbLine
 10
-715.9722939504782
 20
117.6936301706484
 30
0.0
 11
-715.9722939504782
 21
185.6936301706485
 31
0.0
  0
LINE
  5
1CE
330
1CC
100
AcDbEntity
  8
1
  6
Continuous
 62
     2
100
AcDbLine
 10
-639.9722939504782
 20
117.6936301706484
 30
0.0
 11
-717.9722939504782
 21
117.6936301706484
 31
0.0
  0
LINE
  5
1CF
330
1CC
100
AcDbEntity
  8
1
  6
Continuous
 62
     2
100
AcDbLine
 10
-710.962770121269
 20
185.6936301706485
 30
0.0
 11
-717.9722939504782
 21
185.6936301706485
 31
0.0
  0
LINE
  5
1D0
330
1CC
100
AcDbEntity
  8
1
  6
Continuous
 62
     2
100
AcDbLine
 10
-696.391342222584
 20
185.6936301706485
 30
0.0
 11
-699.9722939504782
 21
185.6936301706485
 31
0.0
  0
LINE
  5
1D1
330
1CC
100
AcDbEntity
  8
1
  6
Continuous
 62
     2
100
AcDbLine
 10
-665.3319840166733
 20
185.6936301706485
 30
0.0
 11
-685.9722939504782
 21
185.6936301706485
 31
0.0
  0
SOLID
  5
1D2
330
1CC
100
AcDbEntity
  8
1
 62
     2
100
AcDbTrace
 10
-716.4330776920341
 20
121.1936301706484
 30
0.0
 11
-715.5115102089222
 21
121.1936301706484
 31
0.0
 12
-715.9722939504782
 22
117.6936301706484
 32
0.0
 13
-715.9722939504782
 23
117.6936301706484
 33
0.0
  0
SOLID
  5
1D3
330
1CC
100
AcDbEntity
  8
1
 62
     2
100
AcDbTrace
 10
-715.5115102089222
 20
182.1936301706485
 30
0.0
 11
-716.4330776920341
 21
182.1936301706485
 31
0.0
 12
-715.9722939504782
 22
185.6936301706485
 32
0.0
 13
-715.9722939504782
 23
185.6936301706485
 33
0.0
  0
MTEXT
  5
1D4
330
1CC
100
AcDbEntity
  8
1
 62
     2
100
AcDbMText
 10
-717.9722939504782
 20
151.5736981248889
 30
0.0
 40
5.0
 41
0.0
 71
     7
 72
     1
  1
68
  7
CONVERTER_11
 11
0.0
 21
1.0
 31
0.0
 73
     1
 44
0.60024009603842
  0
ENDBLK
  5
1D6
330
1CC
100
AcDbEntity
  8
0
100
AcDbBlockEnd
  0
BLOCK
  5
1E2
330
1D9
100
AcDbEntity
  8
0
100
AcDbBlockBegin
  2
*D8
 70
     1
 10
0.0
 20
0.0
 30
0.0
  3
*D8
  1

  0
LINE
  5
1DA
330
1D9
100
AcDbEntity
  8
1
  6
Continuous
 62
     2
100
AcDbLine
 10
-673.9722939504782
 20
130.6936301706484
 30
0.0
 11
-673.9722939504782
 21
123.6936301706484
 31
0.0
  0
LINE
  5
1DB
330
1D9
100
AcDbEntity
  8
1
  6
Continuous
 62
     2
100
AcDbLine
 10
-673.9722939504782
 20
117.6936301706484
 30
0.0
 11
-673.9722939504782
 21
123.6936301706484
 31
0.0
  0
LINE
  5
1DC
330
1D9
100
AcDbEntity
  8
1
  6
Continuous
 62
     2
100
AcDbLine
 10
-673.9722939504782
 20
117.6936301706484
 30
0.0
 11
-673.9722939504782
 21
107.4022509000039
 31
0.0
  0
LINE
  5
1DD
330
1D9
100
AcDbEntity
  8
1
  6
Continuous
 62
     2
100
AcDbLine
 10
-639.9722939504782
 20
117.6936301706484
 30
0.0
 11
-675.9722939504782
 21
117.6936301706484
 31
0.0
  0
LINE
  5
1DE
330
1D9
100
AcDbEntity
  8
1
  6
Continuous
 62
     2
100
AcDbLine
 10
-639.9722939504782
 20
123.6936301706484
 30
0.0
 11
-675.9722939504782
 21
123.6936301706484
 31
0.0
  0
SOLID
  5
1DF
330
1D9
100
AcDbEntity
  8
1
 62
     2
100
AcDbTrace
 10
-674.4330776920341
 20
127.1936301706484
 30
0.0
 11
-673.5115102089222
 21
127.1936301706484
 31
0.0
 12
-673.9722939504782
 22
123.6936301706484
 32
0.0
 13
-673.9722939504782
 23
123.6936301706484
 33
0.0
  0
SOLID
  5
1E0
330
1D9
100
AcDbEntity
  8
1
 62
     2
100
AcDbTrace
 10
-673.5115102089222
 20
114.1936301706484
 30
0.0
 11
-674.4330776920341
 21
114.1936301706484
 31
0.0
 12
-673.9722939504782
 22
117.6936301706484
 32
0.0
 13
-673.9722939504782
 23
117.6936301706484
 33
0.0
  0
MTEXT
  5
1E1
330
1D9
100
AcDbEntity
  8
1
 62
     2
100
AcDbMText
 10
-675.9722939504782
 20
107.4022509000039
 30
0.0
 40
5.0
 41
0.0
 71
     7
 72
     1
  1
6
  7
CONVERTER_11
 11
0.0
 21
1.0
 31
0.0
 73
     1
 44
0.60024009603842
  0
ENDBLK
  5
1E3
330
1D9
100
AcDbEntity
  8
0
100
AcDbBlockEnd
  0
BLOCK
  5
1F1
330
1E6
100
AcDbEntity
  8
0
100
AcDbBlockBegin
  2
*D9
 70
     1
 10
0.0
 20
0.0
 30
0.0
  3
*D9
  1

  0
LINE
  5
1E7
330
1E6
100
AcDbEntity
  8
1
  6
Continuous
 62
     2
100
AcDbLine
 10
-743.9722939504782
 20
113.1936301706484
 30
0.0
 11
-743.9722939504782
 21
232.6936301706485
 31
0.0
  0
LINE
  5
1E8
330
1E6
100
AcDbEntity
  8
1
  6
Continuous
 62
     2
100
AcDbLine
 10
-731.9722939504782
 20
113.1936301706484
 30
0.0
 11
-745.9722939504782
 21
113.1936301706484
 31
0.0
  0
LINE
  5
1E9
330
1E6
100
AcDbEntity
  8
1
  6
Continuous
 62
     2
100
AcDbLine
 10
-675.9722939504782
 20
113.1936301706484
 30
0.0
 11
-727.9722939504782
 21
113.1936301706484
 31
0.0
  0
LINE
  5
1EA
330
1E6
100
AcDbEntity
  8
1
  6
Continuous
 62
     2
100
AcDbLine
 10
-609.9722939504782
 20
113.1936301706484
 30
0.0
 11
-671.9722939504782
 21
113.1936301706484
 31
0.0
  0
LINE
  5
1EB
330
1E6
100
AcDbEntity
  8
1
  6
Continuous
 62
     2
100
AcDbLine
 10
-731.9722939504782
 20
232.6936301706485
 30
0.0
 11
-745.9722939504782
 21
232.6936301706485
 31
0.0
  0
LINE
  5
1EC
330
1E6
100
AcDbEntity
  8
1
  6
Continuous
 62
     2
100
AcDbLine
 10
-689.9722939504782
 20
232.6936301706485
 30
0.0
 11
-727.9722939504782
 21
232.6936301706485
 31
0.0
  0
LINE
  5
1ED
330
1E6
100
AcDbEntity
  8
1
  6
Continuous
 62
     2
100
AcDbLine
 10
-609.9722939504782
 20
232.6936301706485
 30
0.0
 11
-685.9722939504782
 21
232.6936301706485
 31
0.0
  0
SOLID
  5
1EE
330
1E6
100
AcDbEntity
  8
1
 62
     2
100
AcDbTrace
 10
-743.5115102089222
 20
229.1936301706485
 30
0.0
 11
-744.4330776920341
 21
229.1936301706485
 31
0.0
 12
-743.9722939504782
 22
232.6936301706485
 32
0.0
 13
-743.9722939504782
 23
232.6936301706485
 33
0.0
  0
SOLID
  5
1EF
330
1E6
100
AcDbEntity
  8
1
 62
     2
100
AcDbTrace
 10
-744.4330776920341
 20
116.6936301706484
 30
0.0
 11
-743.5115102089222
 21
116.6936301706484
 31
0.0
 12
-743.9722939504782
 22
113.1936301706484
 32
0.0
 13
-743.9722939504782
 23
113.1936301706484
 33
0.0
  0
MTEXT
  5
1F0
330
1E6
100
AcDbEntity
  8
1
 62
     2
100
AcDbMText
 10
-746.4722939504782
 20
170.4543095096369
 30
0.0
 40
5.0
 41
0.0
 71
     7
 72
     1
  1
119,5
  7
CONVERTER_11
 11
0.0
 21
1.0
 31
0.0
 73
     1
 44
0.60024009603842
  0
ENDBLK
  5
1F2
330
1E6
100
AcDbEntity
  8
0
100
AcDbBlockEnd
  0
BLOCK
  5
1FD
330
1F5
100
AcDbEntity
  8
0
100
AcDbBlockBegin
  2
*D10
 70
     1
 10
0.0
 20
0.0
 30
0.0
  3
*D10
  1

  0
LINE
  5
1F6
330
1F5
100
AcDbEntity
  8
1
  6
Continuous
 62
     2
100
AcDbLine
 10
-701.9722939504783
 20
143.6936301706485
 30
0.0
 11
-701.9722939504783
 21
227.6936301706485
 31
0.0
  0
LINE
  5
1F7
330
1F5
100
AcDbEntity
  8
1
  6
Continuous
 62
     2
100
AcDbLine
 10
-675.9722939504782
 20
143.6936301706485
 30
0.0
 11
-703.9722939504783
 21
143.6936301706485
 31
0.0
  0
LINE
  5
1F8
330
1F5
100
AcDbEntity
  8
1
  6
Continuous
 62
     2
100
AcDbLine
 10
-656.9722939504782
 20
143.6936301706485
 30
0.0
 11
-671.9722939504782
 21
143.6936301706485
 31
0.0
  0
LINE
  5
1F9
330
1F5
100
AcDbEntity
  8
1
  6
Continuous
 62
     2
100
AcDbLine
 10
-656.9722939504783
 20
227.6936301706485
 30
0.0
 11
-703.9722939504783
 21
227.6936301706485
 31
0.0
  0
SOLID
  5
1FA
330
1F5
100
AcDbEntity
  8
1
 62
     2
100
AcDbTrace
 10
-701.5115102089223
 20
224.1936301706485
 30
0.0
 11
-702.4330776920342
 21
224.1936301706485
 31
0.0
 12
-701.9722939504783
 22
227.6936301706485
 32
0.0
 13
-701.9722939504783
 23
227.6936301706485
 33
0.0
  0
SOLID
  5
1FB
330
1F5
100
AcDbEntity
  8
1
 62
     2
100
AcDbTrace
 10
-702.4330776920342
 20
147.1936301706485
 30
0.0
 11
-701.5115102089223
 21
147.1936301706485
 31
0.0
 12
-701.9722939504783
 22
143.6936301706485
 32
0.0
 13
-701.9722939504783
 23
143.6936301706485
 33
0.0
  0
MTEXT
  5
1FC
330
1F5
100
AcDbEntity
  8
1
 62
     2
100
AcDbMText
 10
-703.9722939504783
 20
181.9436301706485
 30
0.0
 40
5.0
 41
0.0
 71
     7
 72
     1
  1
84
  7
CONVERTER_11
 11
0.0
 21
1.0
 31
0.0
 73
     1
 44
0.60024009603842
  0
ENDBLK
  5
1FE
330
1F5
100
AcDbEntity
  8
0
100
AcDbBlockEnd
  0
BLOCK
  5
208
330
201
100
AcDbEntity
  8
0
100
AcDbBlockBegin
  2
*D11
 70
     1
 10
0.0
 20
0.0
 30
0.0
  3
*D11
  1

  0
LINE
  5
202
330
201
100
AcDbEntity
  8
1
  6
Continuous
 62
     2
100
AcDbLine
 10
-529.9722939504782
 20
544.9884720951646
 30
0.0
 11
-484.4722939504783
 21
544.9884720951646
 31
0.0
  0
LINE
  5
203
330
201
100
AcDbEntity
  8
1
  6
Continuous
 62
     2
100
AcDbLine
 10
-529.9722939504782
 20
512.8884720951647
 30
0.0
 11
-529.9722939504782
 21
546.9884720951646
 31
0.0
  0
LINE
  5
204
330
201
100
AcDbEntity
  8
1
  6
Continuous
 62
     2
100
AcDbLine
 10
-484.4722939504783
 20
516.9884720951649
 30
0.0
 11
-484.4722939504783
 21
546.9884720951646
 31
0.0
  0
SOLID
  5
205
330
201
100
AcDbEntity
  8
1
 62
     2
100
AcDbTrace
 10
-487.9722939504783
 20
544.5276883536087
 30
0.0
 11
-487.9722939504783
 21
545.4492558367206
 31
0.0
 12
-484.4722939504783
 22
544.9884720951646
 32
0.0
 13
-484.4722939504783
 23
544.9884720951646
 33
0.0
  0
SOLID
  5
206
330
201
100
AcDbEntity
  8
1
 62
     2
100
AcDbTrace
 10
-526.4722939504782
 20
545.4492558367206
 30
0.0
 11
-526.4722939504782
 21
544.5276883536087
 31
0.0
 12
-529.9722939504782
 22
544.9884720951646
 32
0.0
 13
-529.9722939504782
 23
544.9884720951646
 33
0.0
  0
MTEXT
  5
207
330
201
100
AcDbEntity
  8
1
 62
     2
100
AcDbMText
 10
-508.5838218909181
 20
546.9884720951646
 30
0.0
 40
5.0
 41
0.0
 71
     7
 72
     1
  1
A
  7
CONVERTER_11
 11
0.9999999999970619
 21
2.424068405545306E-6
 31
0.0
 73
     1
 44
0.60024009603842
  0
ENDBLK
  5
209
330
201
100
AcDbEntity
  8
0
100
AcDbBlockEnd
  0
BLOCK
  5
215
330
20C
100
AcDbEntity
  8
0
100
AcDbBlockBegin
  2
*D12
 70
     1
 10
0.0
 20
0.0
 30
0.0
  3
*D12
  1

  0
LINE
  5
20D
330
20C
100
AcDbEntity
  8
1
  6
Continuous
 62
     2
100
AcDbLine
 10
-502.4722939504783
 20
530.9884720951646
 30
0.0
 11
-495.4722939504783
 21
530.9884720951646
 31
0.0
  0
LINE
  5
20E
330
20C
100
AcDbEntity
  8
1
  6
Continuous
 62
     2
100
AcDbLine
 10
-502.4722939504783
 20
530.9884720951646
 30
0.0
 11
-509.4722939504783
 21
530.9884720951646
 31
0.0
  0
LINE
  5
20F
330
20C
100
AcDbEntity
  8
1
  6
Continuous
 62
     2
100
AcDbLine
 10
-495.4722939504783
 20
530.9884720951646
 30
0.0
 11
-488.4722939504783
 21
530.9884720951646
 31
0.0
  0
LINE
  5
210
330
20C
100
AcDbEntity
  8
1
  6
Continuous
 62
     2
100
AcDbLine
 10
-502.4722939504783
 20
516.9026856575377
 30
0.0
 11
-502.4722939504783
 21
532.9884720951646
 31
0.0
  0
LINE
  5
211
330
20C
100
AcDbEntity
  8
1
  6
Continuous
 62
     2
100
AcDbLine
 10
-495.4722939504783
 20
516.9884720951646
 30
0.0
 11
-495.4722939504783
 21
532.9884720951646
 31
0.0
  0
SOLID
  5
212
330
20C
100
AcDbEntity
  8
1
 62
     2
100
AcDbTrace
 10
-491.9722939504783
 20
531.4492558367206
 30
0.0
 11
-491.9722939504783
 21
530.5276883536087
 31
0.0
 12
-495.4722939504783
 22
530.9884720951646
 32
0.0
 13
-495.4722939504783
 23
530.9884720951646
 33
0.0
  0
SOLID
  5
213
330
20C
100
AcDbEntity
  8
1
 62
     2
100
AcDbTrace
 10
-505.9722939504783
 20
530.5276883536087
 30
0.0
 11
-505.9722939504783
 21
531.4492558367206
 31
0.0
 12
-502.4722939504783
 22
530.9884720951646
 32
0.0
 13
-502.4722939504783
 23
530.9884720951646
 33
0.0
  0
MTEXT
  5
214
330
20C
100
AcDbEntity
  8
1
 62
     2
100
AcDbMText
 10
-500.2876641726724
 20
532.912963527664
 30
0.0
 40
5.0
 41
0.0
 71
     7
 72
     1
  1
C
  7
CONVERTER_11
 11
0.9999999999970619
 21
2.424068405545306E-6
 31
0.0
 73
     1
 44
0.60024009603842
  0
ENDBLK
  5
216
330
20C
100
AcDbEntity
  8
0
100
AcDbBlockEnd
  0
BLOCK
  5
220
330
219
100
AcDbEntity
  8
0
100
AcDbBlockBegin
  2
*D13
 70
     1
 10
0.0
 20
0.0
 30
0.0
  3
*D13
  1

  0
LINE
  5
21A
330
219
100
AcDbEntity
  8
1
  6
Continuous
 62
     2
100
AcDbLine
 10
-495.4722939504783
 20
530.9884720951646
 30
0.0
 11
-484.4722939504783
 21
530.9884720951646
 31
0.0
  0
LINE
  5
21B
330
219
100
AcDbEntity
  8
1
  6
Continuous
 62
     2
100
AcDbLine
 10
-495.4722939504783
 20
516.9884720951646
 30
0.0
 11
-495.4722939504783
 21
532.9884720951646
 31
0.0
  0
LINE
  5
21C
330
219
100
AcDbEntity
  8
1
  6
Continuous
 62
     2
100
AcDbLine
 10
-484.4722939504783
 20
516.9884720951649
 30
0.0
 11
-484.4722939504783
 21
532.9884720951646
 31
0.0
  0
SOLID
  5
21D
330
219
100
AcDbEntity
  8
1
 62
     2
100
AcDbTrace
 10
-487.9722939504783
 20
530.5276883536087
 30
0.0
 11
-487.9722939504783
 21
531.4492558367206
 31
0.0
 12
-484.4722939504783
 22
530.9884720951646
 32
0.0
 13
-484.4722939504783
 23
530.9884720951646
 33
0.0
  0
SOLID
  5
21E
330
219
100
AcDbEntity
  8
1
 62
     2
100
AcDbTrace
 10
-491.9722939504783
 20
531.4492558367206
 30
0.0
 11
-491.9722939504783
 21
530.5276883536087
 31
0.0
 12
-495.4722939504783
 22
530.9884720951646
 32
0.0
 13
-495.4722939504783
 23
530.9884720951646
 33
0.0
  0
MTEXT
  5
21F
330
219
100
AcDbEntity
  8
1
 62
     2
100
AcDbMText
 10
-492.0246340942482
 20
532.9884720951646
 30
0.0
 40
5.0
 41
0.0
 71
     7
 72
     1
  1
B
  7
CONVERTER_11
 11
0.9999999999970619
 21
2.424068405545306E-6
 31
0.0
 73
     1
 44
0.60024009603842
  0
ENDBLK
  5
221
330
219
100
AcDbEntity
  8
0
100
AcDbBlockEnd
  0
BLOCK
  5
22B
330
224
100
AcDbEntity
  8
0
100
AcDbBlockBegin
  2
*D14
 70
     1
 10
0.0
 20
0.0
 30
0.0
  3
*D14
  1

  0
LINE
  5
225
330
224
100
AcDbEntity
  8
1
  6
Continuous
 62
     2
100
AcDbLine
 10
-639.9722939504782
 20
21.19363017064842
 30
0.0
 11
-549.9722939504782
 21
21.19363017064842
 31
0.0
  0
LINE
  5
226
330
224
100
AcDbEntity
  8
1
  6
Continuous
 62
     2
100
AcDbLine
 10
-639.9722939504782
 20
117.6936301706484
 30
0.0
 11
-639.9722939504782
 21
19.19363017064842
 31
0.0
  0
LINE
  5
227
330
224
100
AcDbEntity
  8
1
  6
Continuous
 62
     2
100
AcDbLine
 10
-549.9722939504782
 20
117.6936301706484
 30
0.0
 11
-549.9722939504782
 21
19.19363017064842
 31
0.0
  0
SOLID
  5
228
330
224
100
AcDbEntity
  8
1
 62
     2
100
AcDbTrace
 10
-636.4722939504782
 20
21.6544139122043
 30
0.0
 11
-636.4722939504782
 21
20.73284642909253
 31
0.0
 12
-639.9722939504782
 22
21.19363017064842
 32
0.0
 13
-639.9722939504782
 23
21.19363017064842
 33
0.0
  0
SOLID
  5
229
330
224
100
AcDbEntity
  8
1
 62
     2
100
AcDbTrace
 10
-553.4722939504782
 20
20.73284642909253
 30
0.0
 11
-553.4722939504782
 21
21.6544139122043
 31
0.0
 12
-549.9722939504782
 22
21.19363017064842
 32
0.0
 13
-549.9722939504782
 23
21.19363017064842
 33
0.0
  0
MTEXT
  5
22A
330
224
100
AcDbEntity
  8
1
 62
     2
100
AcDbMText
 10
-604.1722939504541
 20
23.19361029328749
 30
0.0
 40
5.0
 41
0.0
 71
     7
 72
     1
  1
\C2;\U+00f8\C2;90
  7
CONVERTER_11
 11
0.9999999999970619
 21
2.424068405545306E-6
 31
0.0
 73
     1
 44
0.60024009603842
  0
ENDBLK
  5
22C
330
224
100
AcDbEntity
  8
0
100
AcDbBlockEnd
  0
BLOCK
  5
237
330
22F
100
AcDbEntity
  8
0
100
AcDbBlockBegin
  2
*D15
 70
     1
 10
0.0
 20
0.0
 30
0.0
  3
*D15
  1

  0
LINE
  5
230
330
22F
100
AcDbEntity
  8
1
  6
Continuous
 62
     2
100
AcDbLine
 10
-624.9722939504782
 20
35.19363017064842
 30
0.0
 11
-564.9722939504782
 21
35.19363017064842
 31
0.0
  0
LINE
  5
231
330
22F
100
AcDbEntity
  8
1
  6
Continuous
 62
     2
100
AcDbLine
 10
-624.9722939504782
 20
115.1936301706484
 30
0.0
 11
-624.9722939504782
 21
33.19363017064842
 31
0.0
  0
LINE
  5
232
330
22F
100
AcDbEntity
  8
1
  6
Continuous
 62
     2
100
AcDbLine
 10
-564.9722939504782
 20
46.44430237036587
 30
0.0
 11
-564.9722939504782
 21
33.19363017064842
 31
0.0
  0
LINE
  5
233
330
22F
100
AcDbEntity
  8
1
  6
Continuous
 62
     2
100
AcDbLine
 10
-564.9722939504782
 20
115.1936301706484
 30
0.0
 11
-564.9722939504782
 21
61.25884247750498
 31
0.0
  0
SOLID
  5
234
330
22F
100
AcDbEntity
  8
1
 62
     2
100
AcDbTrace
 10
-621.4722939504782
 20
35.6544139122043
 30
0.0
 11
-621.4722939504782
 21
34.73284642909253
 31
0.0
 12
-624.9722939504782
 22
35.19363017064842
 32
0.0
 13
-624.9722939504782
 23
35.19363017064842
 33
0.0
  0
SOLID
  5
235
330
22F
100
AcDbEntity
  8
1
 62
     2
100
AcDbTrace
 10
-568.4722939504782
 20
34.73284642909253
 30
0.0
 11
-568.4722939504782
 21
35.6544139122043
 31
0.0
 12
-564.9722939504782
 22
35.19363017064842
 32
0.0
 13
-564.9722939504782
 23
35.19363017064842
 33
0.0
  0
MTEXT
  5
236
330
22F
100
AcDbEntity
  8
1
 62
     2
100
AcDbMText
 10
-610.1722939504541
 20
38.69361029328749
 30
0.0
 40
5.0
 41
0.0
 71
     7
 72
     1
  1
\C2;\U+00f8\C2;60\C2;-j7
  7
CONVERTER_11
 11
0.9999999999970619
 21
2.424068405545306E-6
 31
0.0
 73
     1
 44
0.60024009603842
  0
ENDBLK
  5
238
330
22F
100
AcDbEntity
  8
0
100
AcDbBlockEnd
  0
BLOCK
  5
244
330
23B
100
AcDbEntity
  8
0
100
AcDbBlockBegin
  2
*D16
 70
     1
 10
0.0
 20
0.0
 30
0.0
  3
*D16
  1

  0
LINE
  5
23C
330
23B
100
AcDbEntity
  8
1
  6
Continuous
 62
     2
100
AcDbLine
 10
-673.9722939504783
 20
488.3884720951646
 30
0.0
 11
-673.9722939504783
 21
495.3884720951646
 31
0.0
  0
LINE
  5
23D
330
23B
100
AcDbEntity
  8
1
  6
Continuous
 62
     2
100
AcDbLine
 10
-673.9722939504783
 20
495.3884720951646
 30
0.0
 11
-673.9722939504783
 21
501.3884720951646
 31
0.0
  0
LINE
  5
23E
330
23B
100
AcDbEntity
  8
1
  6
Continuous
 62
     2
100
AcDbLine
 10
-673.9722939504783
 20
501.3884720951646
 30
0.0
 11
-673.9722939504783
 21
508.3884720951646
 31
0.0
  0
LINE
  5
23F
330
23B
100
AcDbEntity
  8
1
  6
Continuous
 62
     2
100
AcDbLine
 10
-659.9721939504783
 20
495.3884720951646
 30
0.0
 11
-675.9722939504783
 21
495.3884720951646
 31
0.0
  0
LINE
  5
240
330
23B
100
AcDbEntity
  8
1
  6
Continuous
 62
     2
100
AcDbLine
 10
-659.9721939504783
 20
501.3884720951646
 30
0.0
 11
-675.9722939504783
 21
501.3884720951646
 31
0.0
  0
SOLID
  5
241
330
23B
100
AcDbEntity
  8
1
 62
     2
100
AcDbTrace
 10
-674.4330776920342
 20
504.8884720951646
 30
0.0
 11
-673.5115102089223
 21
504.8884720951646
 31
0.0
 12
-673.9722939504783
 22
501.3884720951646
 32
0.0
 13
-673.9722939504783
 23
501.3884720951646
 33
0.0
  0
SOLID
  5
242
330
23B
100
AcDbEntity
  8
1
 62
     2
100
AcDbTrace
 10
-673.5115102089223
 20
491.8884720951646
 30
0.0
 11
-674.4330776920342
 21
491.8884720951646
 31
0.0
 12
-673.9722939504783
 22
495.3884720951646
 32
0.0
 13
-673.9722939504783
 23
495.3884720951646
 33
0.0
  0
MTEXT
  5
243
330
23B
100
AcDbEntity
  8
1
 62
     2
100
AcDbMText
 10
-675.9722939504783
 20
505.2111629349795
 30
0.0
 40
5.0
 41
0.0
 71
     7
 72
     1
  1
6
  7
CONVERTER_11
 11
0.0
 21
1.0
 31
0.0
 73
     1
 44
0.60024009603842
  0
ENDBLK
  5
245
330
23B
100
AcDbEntity
  8
0
100
AcDbBlockEnd
  0
BLOCK
  5
24F
330
248
100
AcDbEntity
  8
0
100
AcDbBlockBegin
  2
*D17
 70
     1
 10
0.0
 20
0.0
 30
0.0
  3
*D17
  1

  0
LINE
  5
249
330
248
100
AcDbEntity
  8
1
  6
Continuous
 62
     2
100
AcDbLine
 10
-715.9722939504782
 20
385.8884720951647
 30
0.0
 11
-715.9722939504782
 21
515.8884720951647
 31
0.0
  0
LINE
  5
24A
330
248
100
AcDbEntity
  8
1
  6
Continuous
 62
     2
100
AcDbLine
 10
-656.9722939504782
 20
385.8884720951647
 30
0.0
 11
-717.9722939504782
 21
385.8884720951647
 31
0.0
  0
LINE
  5
24B
330
248
100
AcDbEntity
  8
1
  6
Continuous
 62
     2
100
AcDbLine
 10
-656.9722939504782
 20
515.8884720951647
 30
0.0
 11
-717.9722939504782
 21
515.8884720951647
 31
0.0
  0
SOLID
  5
24C
330
248
100
AcDbEntity
  8
1
 62
     2
100
AcDbTrace
 10
-715.5115102089222
 20
512.3884720951647
 30
0.0
 11
-716.4330776920341
 21
512.3884720951647
 31
0.0
 12
-715.9722939504782
 22
515.8884720951647
 32
0.0
 13
-715.9722939504782
 23
515.8884720951647
 33
0.0
  0
SOLID
  5
24D
330
248
100
AcDbEntity
  8
1
 62
     2
100
AcDbTrace
 10
-716.4330776920341
 20
389.3884720951647
 30
0.0
 11
-715.5115102089222
 21
389.3884720951647
 31
0.0
 12
-715.9722939504782
 22
385.8884720951647
 32
0.0
 13
-715.9722939504782
 23
385.8884720951647
 33
0.0
  0
MTEXT
  5
24E
330
248
100
AcDbEntity
  8
1
 62
     2
100
AcDbMText
 10
-717.9722939504782
 20
445.6384720951647
 30
0.0
 40
5.0
 41
0.0
 71
     7
 72
     1
  1
130
  7
CONVERTER_11
 11
0.0
 21
1.0
 31
0.0
 73
     1
 44
0.60024009603842
  0
ENDBLK
  5
250
330
248
100
AcDbEntity
  8
0
100
AcDbBlockEnd
  0
BLOCK
  5
25C
330
253
100
AcDbEntity
  8
0
100
AcDbBlockBegin
  2
*D18
 70
     1
 10
0.0
 20
0.0
 30
0.0
  3
*D18
  1

  0
LINE
  5
254
330
253
100
AcDbEntity
  8
1
  6
Continuous
 62
     2
100
AcDbLine
 10
-632.4722939504782
 20
371.8884720951647
 30
0.0
 11
-639.4722939504782
 21
371.8884720951647
 31
0.0
  0
LINE
  5
255
330
253
100
AcDbEntity
  8
1
  6
Continuous
 62
     2
100
AcDbLine
 10
-645.4722939504782
 20
371.8884720951647
 30
0.0
 11
-639.4722939504782
 21
371.8884720951647
 31
0.0
  0
LINE
  5
256
330
253
100
AcDbEntity
  8
1
  6
Continuous
 62
     2
100
AcDbLine
 10
-645.4722939504782
 20
371.8884720951647
 30
0.0
 11
-652.6201253270681
 21
371.8884720951647
 31
0.0
  0
LINE
  5
257
330
253
100
AcDbEntity
  8
1
  6
Continuous
 62
     2
100
AcDbLine
 10
-645.4722939504782
 20
385.8884720951647
 30
0.0
 11
-645.4722939504782
 21
369.8884720951647
 31
0.0
  0
LINE
  5
258
330
253
100
AcDbEntity
  8
1
  6
Continuous
 62
     2
100
AcDbLine
 10
-639.4722939504782
 20
385.8884720951647
 30
0.0
 11
-639.4722939504782
 21
369.8884720951647
 31
0.0
  0
SOLID
  5
259
330
253
100
AcDbEntity
  8
1
 62
     2
100
AcDbTrace
 10
-648.9722939504782
 20
371.4276883536088
 30
0.0
 11
-648.9722939504782
 21
372.3492558367205
 31
0.0
 12
-645.4722939504782
 22
371.8884720951647
 32
0.0
 13
-645.4722939504782
 23
371.8884720951647
 33
0.0
  0
SOLID
  5
25A
330
253
100
AcDbEntity
  8
1
 62
     2
100
AcDbTrace
 10
-635.9722939504782
 20
372.3492558367205
 30
0.0
 11
-635.9722939504782
 21
371.4276883536088
 31
0.0
 12
-639.4722939504782
 22
371.8884720951647
 32
0.0
 13
-639.4722939504782
 23
371.8884720951647
 33
0.0
  0
MTEXT
  5
25B
330
253
100
AcDbEntity
  8
1
 62
     2
100
AcDbMText
 10
-652.6201253270681
 20
373.8884720951647
 30
0.0
 40
5.0
 41
0.0
 71
     7
 72
     1
  1
6
  7
CONVERTER_11
 11
0.9999999999970619
 21
2.424068405545306E-6
 31
0.0
 73
     1
 44
0.60024009603842
  0
ENDBLK
  5
25D
330
253
100
AcDbEntity
  8
0
100
AcDbBlockEnd
  0
BLOCK
  5
267
330
260
100
AcDbEntity
  8
0
100
AcDbBlockBegin
  2
*D19
 70
     1
 10
0.0
 20
0.0
 30
0.0
  3
*D19
  1

  0
LINE
  5
261
330
260
100
AcDbEntity
  8
1
  6
Continuous
 62
     2
100
AcDbLine
 10
-659.9722939504782
 20
329.8884720951647
 30
0.0
 11
-529.9722939504782
 21
329.8884720951647
 31
0.0
  0
LINE
  5
262
330
260
100
AcDbEntity
  8
1
  6
Continuous
 62
     2
100
AcDbLine
 10
-659.9722939504782
 20
388.8884720951647
 30
0.0
 11
-659.9722939504782
 21
327.8884720951647
 31
0.0
  0
LINE
  5
263
330
260
100
AcDbEntity
  8
1
  6
Continuous
 62
     2
100
AcDbLine
 10
-529.9722939504782
 20
388.8884720951647
 30
0.0
 11
-529.9722939504782
 21
327.8884720951647
 31
0.0
  0
SOLID
  5
264
330
260
100
AcDbEntity
  8
1
 62
     2
100
AcDbTrace
 10
-656.4722939504782
 20
330.3492558367205
 30
0.0
 11
-656.4722939504782
 21
329.4276883536088
 31
0.0
 12
-659.9722939504782
 22
329.8884720951647
 32
0.0
 13
-659.9722939504782
 23
329.8884720951647
 33
0.0
  0
SOLID
  5
265
330
260
100
AcDbEntity
  8
1
 62
     2
100
AcDbTrace
 10
-533.4722939504782
 20
329.4276883536088
 30
0.0
 11
-533.4722939504782
 21
330.3492558367205
 31
0.0
 12
-529.9722939504782
 22
329.8884720951647
 32
0.0
 13
-529.9722939504782
 23
329.8884720951647
 33
0.0
  0
MTEXT
  5
266
330
260
100
AcDbEntity
  8
1
 62
     2
100
AcDbMText
 10
-600.2222939504782
 20
331.8884720951647
 30
0.0
 40
5.0
 41
0.0
 71
     7
 72
     1
  1
130
  7
CONVERTER_11
 11
0.9999999999970619
 21
2.424068405545306E-6
 31
0.0
 73
     1
 44
0.60024009603842
  0
ENDBLK
  5
268
330
260
100
AcDbEntity
  8
0
100
AcDbBlockEnd
  0
BLOCK
  5
273
330
26B
100
AcDbEntity
  8
0
100
AcDbBlockBegin
  2
*D20
 70
     1
 10
0.0
 20
0.0
 30
0.0
  3
*D20
  1

  0
LINE
  5
26C
330
26B
100
AcDbEntity
  8
1
  6
Continuous
 62
     2
100
AcDbLine
 10
-584.9722939504782
 20
296.6936301706485
 30
0.0
 11
-558.635528173001
 21
296.6936301706485
 31
0.0
  0
LINE
  5
26D
330
26B
100
AcDbEntity
  8
1
  6
Continuous
 62
     2
100
AcDbLine
 10
-604.9722939504782
 20
296.6936301706485
 30
0.0
 11
-584.9722939504782
 21
296.6936301706485
 31
0.0
  0
LINE
  5
26E
330
26B
100
AcDbEntity
  8
1
  6
Continuous
 62
     2
100
AcDbLine
 10
-584.9722939504782
 20
282.6936301706485
 30
0.0
 11
-584.9722939504782
 21
298.6936301706485
 31
0.0
  0
LINE
  5
26F
330
26B
100
AcDbEntity
  8
1
  6
Continuous
 62
     2
100
AcDbLine
 10
-604.9722939504782
 20
282.6936301706485
 30
0.0
 11
-604.9722939504782
 21
298.6936301706485
 31
0.0
  0
SOLID
  5
270
330
26B
100
AcDbEntity
  8
1
 62
     2
100
AcDbTrace
 10
-601.4722939504782
 20
297.1544139122043
 30
0.0
 11
-601.4722939504782
 21
296.2328464290926
 31
0.0
 12
-604.9722939504782
 22
296.6936301706485
 32
0.0
 13
-604.9722939504782
 23
296.6936301706485
 33
0.0
  0
SOLID
  5
271
330
26B
100
AcDbEntity
  8
1
 62
     2
100
AcDbTrace
 10
-588.4722939504782
 20
296.2328464290926
 30
0.0
 11
-588.4722939504782
 21
297.1544139122043
 31
0.0
 12
-584.9722939504782
 22
296.6936301706485
 32
0.0
 13
-584.9722939504782
 23
296.6936301706485
 33
0.0
  0
MTEXT
  5
272
330
26B
100
AcDbEntity
  8
1
 62
     2
100
AcDbMText
 10
-586.335528172977
 20
300.1936102932876
 30
0.0
 40
5.0
 41
0.0
 71
     7
 72
     1
  1
\C2;\U+00f8\C2; K\C2;-j5
  7
CONVERTER_11
 11
0.9999999999970619
 21
2.424068405545306E-6
 31
0.0
 73
     1
 44
0.60024009603842
  0
ENDBLK
  5
274
330
26B
100
AcDbEntity
  8
0
100
AcDbBlockEnd
  0
BLOCK
  5
27F
330
277
100
AcDbEntity
  8
0
100
AcDbBlockBegin
  2
*D21
 70
     1
 10
0.0
 20
0.0
 30
0.0
  3
*D21
  1

  0
LINE
  5
278
330
277
100
AcDbEntity
  8
1
  6
Continuous
 62
     2
100
AcDbLine
 10
-604.9722939504782
 20
49.19363017064842
 30
0.0
 11
-584.9722939504782
 21
49.19363017064842
 31
0.0
  0
LINE
  5
279
330
277
100
AcDbEntity
  8
1
  6
Continuous
 62
     2
100
AcDbLine
 10
-584.9722939504782
 20
49.19363017064842
 30
0.0
 11
-557.770914883932
 21
49.19363017064842
 31
0.0
  0
LINE
  5
27A
330
277
100
AcDbEntity
  8
1
  6
Continuous
 62
     2
100
AcDbLine
 10
-604.9722939504782
 20
63.19363017064842
 30
0.0
 11
-604.9722939504782
 21
47.19363017064842
 31
0.0
  0
LINE
  5
27B
330
277
100
AcDbEntity
  8
1
  6
Continuous
 62
     2
100
AcDbLine
 10
-584.9722939504782
 20
63.19363017064842
 30
0.0
 11
-584.9722939504782
 21
47.19363017064842
 31
0.0
  0
SOLID
  5
27C
330
277
100
AcDbEntity
  8
1
 62
     2
100
AcDbTrace
 10
-601.4722939504782
 20
49.6544139122043
 30
0.0
 11
-601.4722939504782
 21
48.73284642909253
 31
0.0
 12
-604.9722939504782
 22
49.19363017064842
 32
0.0
 13
-604.9722939504782
 23
49.19363017064842
 33
0.0
  0
SOLID
  5
27D
330
277
100
AcDbEntity
  8
1
 62
     2
100
AcDbTrace
 10
-588.4722939504782
 20
48.73284642909253
 30
0.0
 11
-588.4722939504782
 21
49.6544139122043
 31
0.0
 12
-584.9722939504782
 22
49.19363017064842
 32
0.0
 13
-584.9722939504782
 23
49.19363017064842
 33
0.0
  0
MTEXT
  5
27E
330
277
100
AcDbEntity
  8
1
 62
     2
100
AcDbMText
 10
-585.470914883908
 20
52.69361029328749
 30
0.0
 40
5.0
 41
0.0
 71
     7
 72
     1
  1
\C2;\U+00f8\C2; K\C2;-j5
  7
CONVERTER_11
 11
0.9999999999970619
 21
2.424068405545306E-6
 31
0.0
 73
     1
 44
0.60024009603842
  0
ENDBLK
  5
280
330
277
100
AcDbEntity
  8
0
100
AcDbBlockEnd
  0
BLOCK
  5
28C
330
283
100
AcDbEntity
  8
0
100
AcDbBlockBegin
  2
*D22
 70
     1
 10
0.0
 20
0.0
 30
0.0
  3
*D22
  1

  0
LINE
  5
284
330
283
100
AcDbEntity
  8
1
  6
Continuous
 62
     2
100
AcDbLine
 10
-743.9722939504782
 20
63.19363017064842
 30
0.0
 11
-743.9722939504782
 21
113.1936301706484
 31
0.0
  0
LINE
  5
285
330
283
100
AcDbEntity
  8
1
  6
Continuous
 62
     2
100
AcDbLine
 10
-604.1722939504785
 20
63.19363017064842
 30
0.0
 11
-745.9722939504782
 21
63.19363017064842
 31
0.0
  0
LINE
  5
286
330
283
100
AcDbEntity
  8
1
  6
Continuous
 62
     2
100
AcDbLine
 10
-731.9722939504782
 20
113.1936301706484
 30
0.0
 11
-745.9722939504782
 21
113.1936301706484
 31
0.0
  0
LINE
  5
287
330
283
100
AcDbEntity
  8
1
  6
Continuous
 62
     2
100
AcDbLine
 10
-675.9722939504782
 20
113.1936301706484
 30
0.0
 11
-727.9722939504782
 21
113.1936301706484
 31
0.0
  0
LINE
  5
288
330
283
100
AcDbEntity
  8
1
  6
Continuous
 62
     2
100
AcDbLine
 10
-609.9722939504782
 20
113.1936301706484
 30
0.0
 11
-671.9722939504782
 21
113.1936301706484
 31
0.0
  0
SOLID
  5
289
330
283
100
AcDbEntity
  8
1
 62
     2
100
AcDbTrace
 10
-744.4330776920341
 20
66.69363017064842
 30
0.0
 11
-743.5115102089222
 21
66.69363017064842
 31
0.0
 12
-743.9722939504782
 22
63.19363017064842
 32
0.0
 13
-743.9722939504782
 23
63.19363017064842
 33
0.0
  0
SOLID
  5
28A
330
283
100
AcDbEntity
  8
1
 62
     2
100
AcDbTrace
 10
-743.5115102089222
 20
109.6936301706484
 30
0.0
 11
-744.4330776920341
 21
109.6936301706484
 31
0.0
 12
-743.9722939504782
 22
113.1936301706484
 32
0.0
 13
-743.9722939504782
 23
113.1936301706484
 33
0.0
  0
MTEXT
  5
28B
330
283
100
AcDbEntity
  8
1
 62
     2
100
AcDbMText
 10
-745.9722939504782
 20
87.58242510912136
 30
0.0
 40
5.0
 41
0.0
 71
     7
 72
     1
  1
M
  7
CONVERTER_11
 11
0.0
 21
1.0
 31
0.0
 73
     1
 44
0.60024009603842
  0
ENDBLK
  5
28D
330
283
100
AcDbEntity
  8
0
100
AcDbBlockEnd
  0
BLOCK
  5
299
330
290
100
AcDbEntity
  8
0
100
AcDbBlockBegin
  2
*D23
 70
     1
 10
0.0
 20
0.0
 30
0.0
  3
*D23
  1

  0
LINE
  5
291
330
290
100
AcDbEntity
  8
1
  6
Continuous
 62
     2
100
AcDbLine
 10
-743.9722939504782
 20
232.6936301706485
 30
0.0
 11
-743.9722939504782
 21
282.6936301706485
 31
0.0
  0
LINE
  5
292
330
290
100
AcDbEntity
  8
1
  6
Continuous
 62
     2
100
AcDbLine
 10
-731.9722939504782
 20
232.6936301706485
 30
0.0
 11
-745.9722939504782
 21
232.6936301706485
 31
0.0
  0
LINE
  5
293
330
290
100
AcDbEntity
  8
1
  6
Continuous
 62
     2
100
AcDbLine
 10
-689.9722939504782
 20
232.6936301706485
 30
0.0
 11
-727.9722939504782
 21
232.6936301706485
 31
0.0
  0
LINE
  5
294
330
290
100
AcDbEntity
  8
1
  6
Continuous
 62
     2
100
AcDbLine
 10
-609.9722939504782
 20
232.6936301706485
 30
0.0
 11
-685.9722939504782
 21
232.6936301706485
 31
0.0
  0
LINE
  5
295
330
290
100
AcDbEntity
  8
1
  6
Continuous
 62
     2
100
AcDbLine
 10
-604.1722939504785
 20
282.6936301706485
 30
0.0
 11
-745.9722939504782
 21
282.6936301706485
 31
0.0
  0
SOLID
  5
296
330
290
100
AcDbEntity
  8
1
 62
     2
100
AcDbTrace
 10
-743.5115102089222
 20
279.1936301706485
 30
0.0
 11
-744.4330776920341
 21
279.1936301706485
 31
0.0
 12
-743.9722939504782
 22
282.6936301706485
 32
0.0
 13
-743.9722939504782
 23
282.6936301706485
 33
0.0
  0
SOLID
  5
297
330
290
100
AcDbEntity
  8
1
 62
     2
100
AcDbTrace
 10
-744.4330776920341
 20
236.1936301706485
 30
0.0
 11
-743.5115102089222
 21
236.1936301706485
 31
0.0
 12
-743.9722939504782
 22
232.6936301706485
 32
0.0
 13
-743.9722939504782
 23
232.6936301706485
 33
0.0
  0
MTEXT
  5
298
330
290
100
AcDbEntity
  8
1
 62
     2
100
AcDbMText
 10
-745.9722939504782
 20
259.6148471778129
 30
0.0
 40
5.0
 41
0.0
 71
     7
 72
     1
  1
M
  7
CONVERTER_11
 11
0.0
 21
1.0
 31
0.0
 73
     1
 44
0.60024009603842
  0
ENDBLK
  5
29A
330
290
100
AcDbEntity
  8
0
100
AcDbBlockEnd
  0
BLOCK
  5
2A4
330
29D
100
AcDbEntity
  8
0
100
AcDbBlockBegin
  2
*D24
 70
     1
 10
0.0
 20
0.0
 30
0.0
  3
*D24
  1

  0
LINE
  5
29E
330
29D
100
AcDbEntity
  8
1
  6
Continuous
 62
     2
100
AcDbLine
 10
-757.9722939504782
 20
63.19363017064839
 30
0.0
 11
-757.9722939504782
 21
282.6936301706485
 31
0.0
  0
LINE
  5
29F
330
29D
100
AcDbEntity
  8
1
  6
Continuous
 62
     2
100
AcDbLine
 10
-604.1722939504785
 20
63.19363017064839
 30
0.0
 11
-759.9722939504782
 21
63.19363017064839
 31
0.0
  0
LINE
  5
2A0
330
29D
100
AcDbEntity
  8
1
  6
Continuous
 62
     2
100
AcDbLine
 10
-604.1722939504785
 20
282.6936301706485
 30
0.0
 11
-759.9722939504782
 21
282.6936301706485
 31
0.0
  0
SOLID
  5
2A1
330
29D
100
AcDbEntity
  8
1
 62
     2
100
AcDbTrace
 10
-758.4330776920341
 20
66.69363017064839
 30
0.0
 11
-757.5115102089222
 21
66.69363017064839
 31
0.0
 12
-757.9722939504782
 22
63.19363017064839
 32
0.0
 13
-757.9722939504782
 23
63.19363017064839
 33
0.0
  0
SOLID
  5
2A2
330
29D
100
AcDbEntity
  8
1
 62
     2
100
AcDbTrace
 10
-757.5115102089222
 20
279.1936301706485
 30
0.0
 11
-758.4330776920341
 21
279.1936301706485
 31
0.0
 12
-757.9722939504782
 22
282.6936301706485
 32
0.0
 13
-757.9722939504782
 23
282.6936301706485
 33
0.0
  0
MTEXT
  5
2A3
330
29D
100
AcDbEntity
  8
1
 62
     2
100
AcDbMText
 10
-759.9722939504782
 20
174.9639728265519
 30
0.0
 40
5.0
 41
0.0
 71
     7
 72
     1
  1
P
  7
CONVERTER_11
 11
0.0
 21
1.0
 31
0.0
 73
     1
 44
0.60024009603842
  0
ENDBLK
  5
2A5
330
29D
100
AcDbEntity
  8
0
100
AcDbBlockEnd
  0
BLOCK
  5
2B1
330
2A8
100
AcDbEntity
  8
0
100
AcDbBlockBegin
  2
*D25
 70
     1
 10
0.0
 20
0.0
 30
0.0
  3
*D25
  1

  0
LINE
  5
2A9
330
2A8
100
AcDbEntity
  8
1
  6
Continuous
 62
     2
100
AcDbLine
 10
-644.9722939504782
 20
475.190821049683
 30
0.0
 11
-651.9722939504782
 21
475.190821049683
 31
0.0
  0
LINE
  5
2AA
330
2A8
100
AcDbEntity
  8
1
  6
Continuous
 62
     2
100
AcDbLine
 10
-659.9722939504782
 20
475.190821049683
 30
0.0
 11
-651.9722939504782
 21
475.190821049683
 31
0.0
  0
LINE
  5
2AB
330
2A8
100
AcDbEntity
  8
1
  6
Continuous
 62
     2
100
AcDbLine
 10
-659.9722939504782
 20
475.190821049683
 30
0.0
 11
-669.4003863673973
 21
475.190821049683
 31
0.0
  0
LINE
  5
2AC
330
2A8
100
AcDbEntity
  8
1
  6
Continuous
 62
     2
100
AcDbLine
 10
-659.9722939504782
 20
485.8884720951647
 30
0.0
 11
-659.9722939504782
 21
473.190821049683
 31
0.0
  0
LINE
  5
2AD
330
2A8
100
AcDbEntity
  8
1
  6
Continuous
 62
     2
100
AcDbLine
 10
-651.9722939504782
 20
487.3884720951647
 30
0.0
 11
-651.9722939504782
 21
473.190821049683
 31
0.0
  0
SOLID
  5
2AE
330
2A8
100
AcDbEntity
  8
1
 62
     2
100
AcDbTrace
 10
-648.4722939504782
 20
475.6516047912389
 30
0.0
 11
-648.4722939504782
 21
474.7300373081271
 31
0.0
 12
-651.9722939504782
 22
475.190821049683
 32
0.0
 13
-651.9722939504782
 23
475.190821049683
 33
0.0
  0
SOLID
  5
2AF
330
2A8
100
AcDbEntity
  8
1
 62
     2
100
AcDbTrace
 10
-663.4722939504782
 20
474.7300373081271
 30
0.0
 11
-663.4722939504782
 21
475.6516047912389
 31
0.0
 12
-659.9722939504782
 22
475.190821049683
 32
0.0
 13
-659.9722939504782
 23
475.190821049683
 33
0.0
  0
MTEXT
  5
2B0
330
2A8
100
AcDbEntity
  8
1
 62
     2
100
AcDbMText
 10
-669.4003863673973
 20
477.190821049683
 30
0.0
 40
5.0
 41
0.0
 71
     7
 72
     1
  1
8
  7
CONVERTER_11
 11
0.9999999999970619
 21
2.424068405545306E-6
 31
0.0
 73
     1
 44
0.60024009603842
  0
ENDBLK
  5
2B2
330
2A8
100
AcDbEntity
  8
0
100
AcDbBlockEnd
  0
BLOCK
  5
2BE
330
2B5
100
AcDbEntity
  8
0
100
AcDbBlockBegin
  2
*D26
 70
     1
 10
0.0
 20
0.0
 30
0.0
  3
*D26
  1

  0
LINE
  5
2B6
330
2B5
100
AcDbEntity
  8
1
  6
Continuous
 62
     2
100
AcDbLine
 10
-666.9722939504782
 20
530.9884720951616
 30
0.0
 11
-659.9722939504782
 21
530.9884720951616
 31
0.0
  0
LINE
  5
2B7
330
2B5
100
AcDbEntity
  8
1
  6
Continuous
 62
     2
100
AcDbLine
 10
-659.9722939504782
 20
530.9884720951616
 30
0.0
 11
-656.9722939504782
 21
530.9884720951616
 31
0.0
  0
LINE
  5
2B8
330
2B5
100
AcDbEntity
  8
1
  6
Continuous
 62
     2
100
AcDbLine
 10
-656.9722939504782
 20
530.9884720951616
 30
0.0
 11
-631.468771280287
 21
530.9884720951616
 31
0.0
  0
LINE
  5
2B9
330
2B5
100
AcDbEntity
  8
1
  6
Continuous
 62
     2
100
AcDbLine
 10
-659.9722939504782
 20
512.8884720951647
 30
0.0
 11
-659.9722939504782
 21
532.9884720951616
 31
0.0
  0
LINE
  5
2BA
330
2B5
100
AcDbEntity
  8
1
  6
Continuous
 62
     2
100
AcDbLine
 10
-656.9722939504782
 20
515.8884720951647
 30
0.0
 11
-656.9722939504782
 21
532.9884720951616
 31
0.0
  0
SOLID
  5
2BB
330
2B5
100
AcDbEntity
  8
1
 62
     2
100
AcDbTrace
 10
-653.4722939504782
 20
531.4492558367175
 30
0.0
 11
-653.4722939504782
 21
530.5276883536056
 31
0.0
 12
-656.9722939504782
 22
530.9884720951616
 32
0.0
 13
-656.9722939504782
 23
530.9884720951616
 33
0.0
  0
SOLID
  5
2BC
330
2B5
100
AcDbEntity
  8
1
 62
     2
100
AcDbTrace
 10
-663.4722939504782
 20
530.5276883536056
 30
0.0
 11
-663.4722939504782
 21
531.4492558367175
 31
0.0
 12
-659.9722939504782
 22
530.9884720951616
 32
0.0
 13
-659.9722939504782
 23
530.9884720951616
 33
0.0
  0
MTEXT
  5
2BD
330
2B5
100
AcDbEntity
  8
1
 62
     2
100
AcDbMText
 10
-652.468771280287
 20
532.9884720951616
 30
0.0
 40
5.0
 41
0.0
 71
     7
 72
     1
  1
\C2;3\C2;x45%%d
  7
CONVERTER_11
 11
0.9999999999970619
 21
2.424068405545306E-6
 31
0.0
 73
     1
 44
0.60024009603842
  0
ENDBLK
  5
2BF
330
2B5
100
AcDbEntity
  8
0
100
AcDbBlockEnd
  0
BLOCK
  5
2CB
330
2C2
100
AcDbEntity
  8
0
100
AcDbBlockBegin
  2
*D27
 70
     1
 10
0.0
 20
0.0
 30
0.0
  3
*D27
  1

  0
LINE
  5
2C3
330
2C2
100
AcDbEntity
  8
1
  6
Continuous
 62
     2
100
AcDbLine
 10
-615.9722939504782
 20
500.8884720951646
 30
0.0
 11
-615.9722939504782
 21
507.8884720951646
 31
0.0
  0
LINE
  5
2C4
330
2C2
100
AcDbEntity
  8
1
  6
Continuous
 62
     2
100
AcDbLine
 10
-615.9722939504782
 20
507.8884720951646
 30
0.0
 11
-615.9722939504782
 21
515.8884720951647
 31
0.0
  0
LINE
  5
2C5
330
2C2
100
AcDbEntity
  8
1
  6
Continuous
 62
     2
100
AcDbLine
 10
-615.9722939504782
 20
515.8884720951647
 30
0.0
 11
-615.9722939504782
 21
525.969095619901
 31
0.0
  0
LINE
  5
2C6
330
2C2
100
AcDbEntity
  8
1
  6
Continuous
 62
     2
100
AcDbLine
 10
-631.4722939504782
 20
507.8884720951646
 30
0.0
 11
-613.9722939504782
 21
507.8884720951646
 31
0.0
  0
LINE
  5
2C7
330
2C2
100
AcDbEntity
  8
1
  6
Continuous
 62
     2
100
AcDbLine
 10
-629.9722939504782
 20
515.8884720951647
 30
0.0
 11
-613.9722939504782
 21
515.8884720951647
 31
0.0
  0
SOLID
  5
2C8
330
2C2
100
AcDbEntity
  8
1
 62
     2
100
AcDbTrace
 10
-616.4330776920341
 20
519.3884720951647
 30
0.0
 11
-615.5115102089222
 21
519.3884720951647
 31
0.0
 12
-615.9722939504782
 22
515.8884720951647
 32
0.0
 13
-615.9722939504782
 23
515.8884720951647
 33
0.0
  0
SOLID
  5
2C9
330
2C2
100
AcDbEntity
  8
1
 62
     2
100
AcDbTrace
 10
-615.5115102089222
 20
504.3884720951646
 30
0.0
 11
-616.4330776920341
 21
504.3884720951646
 31
0.0
 12
-615.9722939504782
 22
507.8884720951646
 32
0.0
 13
-615.9722939504782
 23
507.8884720951646
 33
0.0
  0
MTEXT
  5
2CA
330
2C2
100
AcDbEntity
  8
1
 62
     2
100
AcDbMText
 10
-617.9722939504782
 20
522.969095619901
 30
0.0
 40
5.0
 41
0.0
 71
     7
 72
     1
  1
8
  7
CONVERTER_11
 11
0.0
 21
1.0
 31
0.0
 73
     1
 44
0.60024009603842
  0
ENDBLK
  5
2CC
330
2C2
100
AcDbEntity
  8
0
100
AcDbBlockEnd
  0
BLOCK
  5
2D7
330
2CF
100
AcDbEntity
  8
0
100
AcDbBlockBegin
  2
*D28
 70
     1
 10
0.0
 20
0.0
 30
0.0
  3
*D28
  1

  0
LINE
  5
2D0
330
2CF
100
AcDbEntity
  8
1
  6
Continuous
 62
     2
100
AcDbLine
 10
-729.9722939504782
 20
117.6936301706484
 30
0.0
 11
-729.9722939504782
 21
230.6936301706485
 31
0.0
  0
LINE
  5
2D1
330
2CF
100
AcDbEntity
  8
1
  6
Continuous
 62
     2
100
AcDbLine
 10
-639.9722939504782
 20
117.6936301706484
 30
0.0
 11
-731.9722939504782
 21
117.6936301706484
 31
0.0
  0
LINE
  5
2D2
330
2CF
100
AcDbEntity
  8
1
  6
Continuous
 62
     2
100
AcDbLine
 10
-689.9722939504782
 20
230.6936301706485
 30
0.0
 11
-731.9722939504782
 21
230.6936301706485
 31
0.0
  0
LINE
  5
2D3
330
2CF
100
AcDbEntity
  8
1
  6
Continuous
 62
     2
100
AcDbLine
 10
-643.9722939504782
 20
230.6936301706485
 30
0.0
 11
-685.9722939504782
 21
230.6936301706485
 31
0.0
  0
SOLID
  5
2D4
330
2CF
100
AcDbEntity
  8
1
 62
     2
100
AcDbTrace
 10
-729.5115102089222
 20
227.1936301706485
 30
0.0
 11
-730.4330776920341
 21
227.1936301706485
 31
0.0
 12
-729.9722939504782
 22
230.6936301706485
 32
0.0
 13
-729.9722939504782
 23
230.6936301706485
 33
0.0
  0
SOLID
  5
2D5
330
2CF
100
AcDbEntity
  8
1
 62
     2
100
AcDbTrace
 10
-730.4330776920341
 20
121.1936301706484
 30
0.0
 11
-729.5115102089222
 21
121.1936301706484
 31
0.0
 12
-729.9722939504782
 22
117.6936301706484
 32
0.0
 13
-729.9722939504782
 23
117.6936301706484
 33
0.0
  0
MTEXT
  5
2D6
330
2CF
100
AcDbEntity
  8
1
 62
     2
100
AcDbMText
 10
-731.9722939504782
 20
173.46218967968
 30
0.0
 40
5.0
 41
0.0
 71
     7
 72
     1
  1
113
  7
CONVERTER_11
 11
0.0
 21
1.0
 31
0.0
 73
     1
 44
0.60024009603842
  0
ENDBLK
  5
2D8
330
2CF
100
AcDbEntity
  8
0
100
AcDbBlockEnd
  0
BLOCK
  5
2E2
330
2DB
100
AcDbEntity
  8
0
100
AcDbBlockBegin
  2
*D29
 70
     1
 10
0.0
 20
0.0
 30
0.0
  3
*D29
  1

  0
LINE
  5
2DC
330
2DB
100
AcDbEntity
  8
1
  6
Continuous
 62
     2
100
AcDbLine
 10
-729.9722939504782
 20
63.19363017064842
 30
0.0
 11
-729.9722939504782
 21
117.6936301706484
 31
0.0
  0
LINE
  5
2DD
330
2DB
100
AcDbEntity
  8
1
  6
Continuous
 62
     2
100
AcDbLine
 10
-604.1722939504785
 20
63.19363017064842
 30
0.0
 11
-731.9722939504782
 21
63.19363017064842
 31
0.0
  0
LINE
  5
2DE
330
2DB
100
AcDbEntity
  8
1
  6
Continuous
 62
     2
100
AcDbLine
 10
-639.9722939504782
 20
117.6936301706484
 30
0.0
 11
-731.9722939504782
 21
117.6936301706484
 31
0.0
  0
SOLID
  5
2DF
330
2DB
100
AcDbEntity
  8
1
 62
     2
100
AcDbTrace
 10
-729.5115102089222
 20
114.1936301706484
 30
0.0
 11
-730.4330776920341
 21
114.1936301706484
 31
0.0
 12
-729.9722939504782
 22
117.6936301706484
 32
0.0
 13
-729.9722939504782
 23
117.6936301706484
 33
0.0
  0
SOLID
  5
2E0
330
2DB
100
AcDbEntity
  8
1
 62
     2
100
AcDbTrace
 10
-730.4330776920341
 20
66.69363017064842
 30
0.0
 11
-729.5115102089222
 21
66.69363017064842
 31
0.0
 12
-729.9722939504782
 22
63.19363017064842
 32
0.0
 13
-729.9722939504782
 23
63.19363017064842
 33
0.0
  0
MTEXT
  5
2E1
330
2DB
100
AcDbEntity
  8
1
 62
     2
100
AcDbMText
 10
-731.9722939504782
 20
89.4781841922588
 30
0.0
 40
5.0
 41
0.0
 71
     7
 72
     1
  1
N
  7
CONVERTER_11
 11
0.0
 21
1.0
 31
0.0
 73
     1
 44
0.60024009603842
  0
ENDBLK
  5
2E3
330
2DB
100
AcDbEntity
  8
0
100
AcDbBlockEnd
  0
BLOCK
  5
2ED
330
2E6
100
AcDbEntity
  8
0
100
AcDbBlockBegin
  2
*D30
 70
     1
 10
0.0
 20
0.0
 30
0.0
  3
*D30
  1

  0
LINE
  5
2E7
330
2E6
100
AcDbEntity
  8
1
  6
Continuous
 62
     2
100
AcDbLine
 10
-535.9722939504782
 20
66.19363017064842
 30
0.0
 11
-535.9722939504782
 21
98.1936301706484
 31
0.0
  0
LINE
  5
2E8
330
2E6
100
AcDbEntity
  8
1
  6
Continuous
 62
     2
100
AcDbLine
 10
-594.9722939504782
 20
98.1936301706484
 30
0.0
 11
-533.9722939504782
 21
98.1936301706484
 31
0.0
  0
LINE
  5
2E9
330
2E6
100
AcDbEntity
  8
1
  6
Continuous
 62
     2
100
AcDbLine
 10
-594.9722939504782
 20
66.19363017064842
 30
0.0
 11
-533.9722939504782
 21
66.19363017064842
 31
0.0
  0
SOLID
  5
2EA
330
2E6
100
AcDbEntity
  8
1
 62
     2
100
AcDbTrace
 10
-535.5115102089222
 20
94.6936301706484
 30
0.0
 11
-536.4330776920341
 21
94.6936301706484
 31
0.0
 12
-535.9722939504782
 22
98.1936301706484
 32
0.0
 13
-535.9722939504782
 23
98.1936301706484
 33
0.0
  0
SOLID
  5
2EB
330
2E6
100
AcDbEntity
  8
1
 62
     2
100
AcDbTrace
 10
-536.4330776920341
 20
69.69363017064842
 30
0.0
 11
-535.5115102089222
 21
69.69363017064842
 31
0.0
 12
-535.9722939504782
 22
66.19363017064842
 32
0.0
 13
-535.9722939504782
 23
66.19363017064842
 33
0.0
  0
MTEXT
  5
2EC
330
2E6
100
AcDbEntity
  8
1
 62
     2
100
AcDbMText
 10
-537.9722939504782
 20
80.3986465909341
 30
0.0
 40
5.0
 41
0.0
 71
     7
 72
     1
  1
S
  7
CONVERTER_11
 11
0.0
 21
1.0
 31
0.0
 73
     1
 44
0.60024009603842
  0
ENDBLK
  5
2EE
330
2E6
100
AcDbEntity
  8
0
100
AcDbBlockEnd
  0
BLOCK
  5
2FA
330
2F1
100
AcDbEntity
  8
0
100
AcDbBlockBegin
  2
*D31
 70
     1
 10
0.0
 20
0.0
 30
0.0
  3
*D31
  1

  0
LINE
  5
2F2
330
2F1
100
AcDbEntity
  8
1
  6
Continuous
 62
     2
100
AcDbLine
 10
-535.9722939504782
 20
63.19363017064842
 30
0.0
 11
-535.9722939504782
 21
55.8967694772444
 31
0.0
  0
LINE
  5
2F3
330
2F1
100
AcDbEntity
  8
1
  6
Continuous
 62
     2
100
AcDbLine
 10
-535.9722939504782
 20
63.19363017064842
 30
0.0
 11
-535.9722939504782
 21
66.19363017064842
 31
0.0
  0
LINE
  5
2F4
330
2F1
100
AcDbEntity
  8
1
  6
Continuous
 62
     2
100
AcDbLine
 10
-535.9722939504782
 20
73.19363017064842
 30
0.0
 11
-535.9722939504782
 21
66.19363017064842
 31
0.0
  0
LINE
  5
2F5
330
2F1
100
AcDbEntity
  8
1
  6
Continuous
 62
     2
100
AcDbLine
 10
-594.9722939504782
 20
66.19363017064842
 30
0.0
 11
-533.9722939504782
 21
66.19363017064842
 31
0.0
  0
LINE
  5
2F6
330
2F1
100
AcDbEntity
  8
1
  6
Continuous
 62
     2
100
AcDbLine
 10
-584.9722939504782
 20
63.19363017064842
 30
0.0
 11
-533.9722939504782
 21
63.19363017064842
 31
0.0
  0
SOLID
  5
2F7
330
2F1
100
AcDbEntity
  8
1
 62
     2
100
AcDbTrace
 10
-536.4330776920341
 20
69.69363017064842
 30
0.0
 11
-535.5115102089222
 21
69.69363017064842
 31
0.0
 12
-535.9722939504782
 22
66.19363017064842
 32
0.0
 13
-535.9722939504782
 23
66.19363017064842
 33
0.0
  0
SOLID
  5
2F8
330
2F1
100
AcDbEntity
  8
1
 62
     2
100
AcDbTrace
 10
-535.5115102089222
 20
59.69363017064842
 30
0.0
 11
-536.4330776920341
 21
59.69363017064842
 31
0.0
 12
-535.9722939504782
 22
63.19363017064842
 32
0.0
 13
-535.9722939504782
 23
63.19363017064842
 33
0.0
  0
MTEXT
  5
2F9
330
2F1
100
AcDbEntity
  8
1
 62
     2
100
AcDbMText
 10
-537.9722939504782
 20
55.8967694772444
 30
0.0
 40
5.0
 41
0.0
 71
     7
 72
     1
  1
R
  7
CONVERTER_11
 11
0.0
 21
1.0
 31
0.0
 73
     1
 44
0.60024009603842
  0
ENDBLK
  5
2FB
330
2F1
100
AcDbEntity
  8
0
100
AcDbBlockEnd
  0
BLOCK
  5
305
330
2FE
100
AcDbEntity
  8
0
100
AcDbBlockBegin
  2
*D32
 70
     1
 10
0.0
 20
0.0
 30
0.0
  3
*D32
  1

  0
LINE
  5
2FF
330
2FE
100
AcDbEntity
  8
1
  6
Continuous
 62
     2
100
AcDbLine
 10
-673.9722939504782
 20
123.6936301706484
 30
0.0
 11
-673.9722939504782
 21
145.6936301706484
 31
0.0
  0
LINE
  5
300
330
2FE
100
AcDbEntity
  8
1
  6
Continuous
 62
     2
100
AcDbLine
 10
-639.9722939504782
 20
123.6936301706484
 30
0.0
 11
-675.9722939504782
 21
123.6936301706484
 31
0.0
  0
LINE
  5
301
330
2FE
100
AcDbEntity
  8
1
  6
Continuous
 62
     2
100
AcDbLine
 10
-629.9722939504782
 20
145.6936301706484
 30
0.0
 11
-675.9722939504782
 21
145.6936301706484
 31
0.0
  0
SOLID
  5
302
330
2FE
100
AcDbEntity
  8
1
 62
     2
100
AcDbTrace
 10
-673.5115102089222
 20
142.1936301706484
 30
0.0
 11
-674.4330776920341
 21
142.1936301706484
 31
0.0
 12
-673.9722939504782
 22
145.6936301706484
 32
0.0
 13
-673.9722939504782
 23
145.6936301706484
 33
0.0
  0
SOLID
  5
303
330
2FE
100
AcDbEntity
  8
1
 62
     2
100
AcDbTrace
 10
-674.4330776920341
 20
127.1936301706484
 30
0.0
 11
-673.5115102089222
 21
127.1936301706484
 31
0.0
 12
-673.9722939504782
 22
123.6936301706484
 32
0.0
 13
-673.9722939504782
 23
123.6936301706484
 33
0.0
  0
MTEXT
  5
304
330
2FE
100
AcDbEntity
  8
1
 62
     2
100
AcDbMText
 10
-675.9722939504782
 20
131.4096512351905
 30
0.0
 40
5.0
 41
0.0
 71
     7
 72
     1
  1
22
  7
CONVERTER_11
 11
0.0
 21
1.0
 31
0.0
 73
     1
 44
0.60024009603842
  0
ENDBLK
  5
306
330
2FE
100
AcDbEntity
  8
0
100
AcDbBlockEnd
  0
BLOCK
  5
310
330
309
100
AcDbEntity
  8
0
100
AcDbBlockBegin
  2
*D33
 70
     1
 10
0.0
 20
0.0
 30
0.0
  3
*D33
  1

  0
LINE
  5
30A
330
309
100
AcDbEntity
  8
1
  6
Continuous
 62
     2
100
AcDbLine
 10
-470.4722939504782
 20
471.9884720951641
 30
0.0
 11
-470.4722939504782
 21
515.8884720951647
 31
0.0
  0
LINE
  5
30B
330
309
100
AcDbEntity
  8
1
  6
Continuous
 62
     2
100
AcDbLine
 10
-476.043687102255
 20
471.9884720951641
 30
0.0
 11
-468.4722939504782
 21
471.9884720951641
 31
0.0
  0
LINE
  5
30C
330
309
100
AcDbEntity
  8
1
  6
Continuous
 62
     2
100
AcDbLine
 10
-532.9722939504782
 20
515.8884720951647
 30
0.0
 11
-468.4722939504782
 21
515.8884720951647
 31
0.0
  0
SOLID
  5
30D
330
309
100
AcDbEntity
  8
1
 62
     2
100
AcDbTrace
 10
-470.0115102089223
 20
512.3884720951647
 30
0.0
 11
-470.9330776920341
 21
512.3884720951647
 31
0.0
 12
-470.4722939504782
 22
515.8884720951647
 32
0.0
 13
-470.4722939504782
 23
515.8884720951647
 33
0.0
  0
SOLID
  5
30E
330
309
100
AcDbEntity
  8
1
 62
     2
100
AcDbTrace
 10
-470.9330776920341
 20
475.4884720951641
 30
0.0
 11
-470.0115102089223
 21
475.4884720951641
 31
0.0
 12
-470.4722939504782
 22
471.9884720951641
 32
0.0
 13
-470.4722939504782
 23
471.9884720951641
 33
0.0
  0
MTEXT
  5
30F
330
309
100
AcDbEntity
  8
1
 62
     2
100
AcDbMText
 10
-472.9722939504782
 20
488.2841074997655
 30
0.0
 40
5.0
 41
0.0
 71
     7
 72
     1
  1
43,9
  7
CONVERTER_11
 11
0.0
 21
1.0
 31
0.0
 73
     1
 44
0.60024009603842
  0
ENDBLK
  5
311
330
309
100
AcDbEntity
  8
0
100
AcDbBlockEnd
  0
BLOCK
  5
31B
330
314
100
AcDbEntity
  8
0
100
AcDbBlockBegin
  2
*D34
 70
     1
 10
0.0
 20
0.0
 30
0.0
  3
*D34
  1

  0
LINE
  5
315
330
314
100
AcDbEntity
  8
1
  6
Continuous
 62
     2
100
AcDbLine
 10
-470.4722939504782
 20
385.8884720951647
 30
0.0
 11
-470.4722939504782
 21
435.8884720951647
 31
0.0
  0
LINE
  5
316
330
314
100
AcDbEntity
  8
1
  6
Continuous
 62
     2
100
AcDbLine
 10
-532.9722939504782
 20
385.8884720951647
 30
0.0
 11
-468.4722939504782
 21
385.8884720951647
 31
0.0
  0
LINE
  5
317
330
314
100
AcDbEntity
  8
1
  6
Continuous
 62
     2
100
AcDbLine
 10
-520.8837850660104
 20
435.8884720951647
 30
0.0
 11
-468.4722939504782
 21
435.8884720951647
 31
0.0
  0
SOLID
  5
318
330
314
100
AcDbEntity
  8
1
 62
     2
100
AcDbTrace
 10
-470.0115102089223
 20
432.3884720951647
 30
0.0
 11
-470.9330776920341
 21
432.3884720951647
 31
0.0
 12
-470.4722939504782
 22
435.8884720951647
 32
0.0
 13
-470.4722939504782
 23
435.8884720951647
 33
0.0
  0
SOLID
  5
319
330
314
100
AcDbEntity
  8
1
 62
     2
100
AcDbTrace
 10
-470.9330776920341
 20
389.3884720951647
 30
0.0
 11
-470.0115102089223
 21
389.3884720951647
 31
0.0
 12
-470.4722939504782
 22
385.8884720951647
 32
0.0
 13
-470.4722939504782
 23
385.8884720951647
 33
0.0
  0
MTEXT
  5
31A
330
314
100
AcDbEntity
  8
1
 62
     2
100
AcDbMText
 10
-472.4722939504782
 20
407.1384720951647
 30
0.0
 40
5.0
 41
0.0
 71
     7
 72
     1
  1
50
  7
CONVERTER_11
 11
0.0
 21
1.0
 31
0.0
 73
     1
 44
0.60024009603842
  0
ENDBLK
  5
31C
330
314
100
AcDbEntity
  8
0
100
AcDbBlockEnd
  0
BLOCK
  5
326
330
31F
100
AcDbEntity
  8
0
100
AcDbBlockBegin
  2
*D35
 70
     1
 10
0.0
 20
0.0
 30
0.0
  3
*D35
  1

  0
LINE
  5
320
330
31F
100
AcDbEntity
  8
1
  6
Continuous
 62
     2
100
AcDbLine
 10
-470.4722939504782
 20
435.8884720951647
 30
0.0
 11
-470.4722939504782
 21
471.9884720951641
 31
0.0
  0
LINE
  5
321
330
31F
100
AcDbEntity
  8
1
  6
Continuous
 62
     2
100
AcDbLine
 10
-520.8837850660104
 20
435.8884720951647
 30
0.0
 11
-468.4722939504782
 21
435.8884720951647
 31
0.0
  0
LINE
  5
322
330
31F
100
AcDbEntity
  8
1
  6
Continuous
 62
     2
100
AcDbLine
 10
-476.043687102255
 20
471.9884720951641
 30
0.0
 11
-468.4722939504782
 21
471.9884720951641
 31
0.0
  0
SOLID
  5
323
330
31F
100
AcDbEntity
  8
1
 62
     2
100
AcDbTrace
 10
-470.0115102089223
 20
468.4884720951641
 30
0.0
 11
-470.9330776920341
 21
468.4884720951641
 31
0.0
 12
-470.4722939504782
 22
471.9884720951641
 32
0.0
 13
-470.4722939504782
 23
471.9884720951641
 33
0.0
  0
SOLID
  5
324
330
31F
100
AcDbEntity
  8
1
 62
     2
100
AcDbTrace
 10
-470.9330776920341
 20
439.3884720951647
 30
0.0
 11
-470.0115102089223
 21
439.3884720951647
 31
0.0
 12
-470.4722939504782
 22
435.8884720951647
 32
0.0
 13
-470.4722939504782
 23
435.8884720951647
 33
0.0
  0
MTEXT
  5
325
330
31F
100
AcDbEntity
  8
1
 62
     2
100
AcDbMText
 10
-472.9722939504782
 20
447.8134720951644
 30
0.0
 40
5.0
 41
0.0
 71
     7
 72
     1
  1
36,1
  7
CONVERTER_11
 11
0.0
 21
1.0
 31
0.0
 73
     1
 44
0.60024009603842
  0
ENDBLK
  5
327
330
31F
100
AcDbEntity
  8
0
100
AcDbBlockEnd
  0
BLOCK
  5
332
330
32A
100
AcDbEntity
  8
0
100
AcDbBlockBegin
  2
*D36
 70
     1
 10
0.0
 20
0.0
 30
0.0
  3
*D36
  1

  0
LINE
  5
32B
330
32A
100
AcDbEntity
  8
1
  6
Continuous
 62
     2
100
AcDbLine
 10
-701.9722939504782
 20
485.8884720951647
 30
0.0
 11
-701.9722939504782
 21
515.8884720951647
 31
0.0
  0
LINE
  5
32C
330
32A
100
AcDbEntity
  8
1
  6
Continuous
 62
     2
100
AcDbLine
 10
-690.9722939504782
 20
485.8884720951647
 30
0.0
 11
-703.9722939504782
 21
485.8884720951647
 31
0.0
  0
LINE
  5
32D
330
32A
100
AcDbEntity
  8
1
  6
Continuous
 62
     2
100
AcDbLine
 10
-659.9722939504782
 20
485.8884720951647
 30
0.0
 11
-684.9722939504782
 21
485.8884720951647
 31
0.0
  0
LINE
  5
32E
330
32A
100
AcDbEntity
  8
1
  6
Continuous
 62
     2
100
AcDbLine
 10
-656.9722939504782
 20
515.8884720951647
 30
0.0
 11
-703.9722939504782
 21
515.8884720951647
 31
0.0
  0
SOLID
  5
32F
330
32A
100
AcDbEntity
  8
1
 62
     2
100
AcDbTrace
 10
-701.5115102089222
 20
512.3884720951647
 30
0.0
 11
-702.4330776920341
 21
512.3884720951647
 31
0.0
 12
-701.9722939504782
 22
515.8884720951647
 32
0.0
 13
-701.9722939504782
 23
515.8884720951647
 33
0.0
  0
SOLID
  5
330
330
32A
100
AcDbEntity
  8
1
 62
     2
100
AcDbTrace
 10
-702.4330776920341
 20
489.3884720951647
 30
0.0
 11
-701.5115102089222
 21
489.3884720951647
 31
0.0
 12
-701.9722939504782
 22
485.8884720951647
 32
0.0
 13
-701.9722939504782
 23
485.8884720951647
 33
0.0
  0
MTEXT
  5
331
330
32A
100
AcDbEntity
  8
1
 62
     2
100
AcDbMText
 10
-703.9722939504782
 20
497.9885186938745
 30
0.0
 40
5.0
 41
0.0
 71
     7
 72
     1
  1
30
  7
CONVERTER_11
 11
0.0
 21
1.0
 31
0.0
 73
     1
 44
0.60024009603842
  0
ENDBLK
  5
333
330
32A
100
AcDbEntity
  8
0
100
AcDbBlockEnd
  0
BLOCK
  5
33E
330
336
100
AcDbEntity
  8
0
100
AcDbBlockBegin
  2
*D37
 70
     1
 10
0.0
 20
0.0
 30
0.0
  3
*D37
  1

  0
LINE
  5
337
330
336
100
AcDbEntity
  8
1
  6
Continuous
 62
     2
100
AcDbLine
 10
-701.9722939504782
 20
385.8884720951647
 30
0.0
 11
-701.9722939504782
 21
415.8884720951647
 31
0.0
  0
LINE
  5
338
330
336
100
AcDbEntity
  8
1
  6
Continuous
 62
     2
100
AcDbLine
 10
-656.9722939504782
 20
385.8884720951647
 30
0.0
 11
-703.9722939504782
 21
385.8884720951647
 31
0.0
  0
LINE
  5
339
330
336
100
AcDbEntity
  8
1
  6
Continuous
 62
     2
100
AcDbLine
 10
-690.9722939504782
 20
415.8884720951647
 30
0.0
 11
-703.9722939504782
 21
415.8884720951647
 31
0.0
  0
LINE
  5
33A
330
336
100
AcDbEntity
  8
1
  6
Continuous
 62
     2
100
AcDbLine
 10
-659.9722939504782
 20
415.8884720951647
 30
0.0
 11
-684.9722939504782
 21
415.8884720951647
 31
0.0
  0
SOLID
  5
33B
330
336
100
AcDbEntity
  8
1
 62
     2
100
AcDbTrace
 10
-701.5115102089222
 20
412.3884720951647
 30
0.0
 11
-702.4330776920341
 21
412.3884720951647
 31
0.0
 12
-701.9722939504782
 22
415.8884720951647
 32
0.0
 13
-701.9722939504782
 23
415.8884720951647
 33
0.0
  0
SOLID
  5
33C
330
336
100
AcDbEntity
  8
1
 62
     2
100
AcDbTrace
 10
-702.4330776920341
 20
389.3884720951647
 30
0.0
 11
-701.5115102089222
 21
389.3884720951647
 31
0.0
 12
-701.9722939504782
 22
385.8884720951647
 32
0.0
 13
-701.9722939504782
 23
385.8884720951647
 33
0.0
  0
MTEXT
  5
33D
330
336
100
AcDbEntity
  8
1
 62
     2
100
AcDbMText
 10
-703.9722939504782
 20
398.0121976358745
 30
0.0
 40
5.0
 41
0.0
 71
     7
 72
     1
  1
30
  7
CONVERTER_11
 11
0.0
 21
1.0
 31
0.0
 73
     1
 44
0.60024009603842
  0
ENDBLK
  5
33F
330
336
100
AcDbEntity
  8
0
100
AcDbBlockEnd
  0
BLOCK
  5
34B
330
342
100
AcDbEntity
  8
0
100
AcDbBlockBegin
  2
*D38
 70
     1
 10
0.0
 20
0.0
 30
0.0
  3
*D38
  1

  0
LINE
  5
343
330
342
100
AcDbEntity
  8
1
  6
Continuous
 62
     2
100
AcDbLine
 10
-701.9722939504782
 20
415.8884720951647
 30
0.0
 11
-701.9722939504782
 21
485.8884720951647
 31
0.0
  0
LINE
  5
344
330
342
100
AcDbEntity
  8
1
  6
Continuous
 62
     2
100
AcDbLine
 10
-690.9722939504782
 20
415.8884720951647
 30
0.0
 11
-703.9722939504782
 21
415.8884720951647
 31
0.0
  0
LINE
  5
345
330
342
100
AcDbEntity
  8
1
  6
Continuous
 62
     2
100
AcDbLine
 10
-659.9722939504782
 20
415.8884720951647
 30
0.0
 11
-684.9722939504782
 21
415.8884720951647
 31
0.0
  0
LINE
  5
346
330
342
100
AcDbEntity
  8
1
  6
Continuous
 62
     2
100
AcDbLine
 10
-690.9722939504782
 20
485.8884720951647
 30
0.0
 11
-703.9722939504782
 21
485.8884720951647
 31
0.0
  0
LINE
  5
347
330
342
100
AcDbEntity
  8
1
  6
Continuous
 62
     2
100
AcDbLine
 10
-659.9722939504782
 20
485.8884720951647
 30
0.0
 11
-684.9722939504782
 21
485.8884720951647
 31
0.0
  0
SOLID
  5
348
330
342
100
AcDbEntity
  8
1
 62
     2
100
AcDbTrace
 10
-701.5115102089222
 20
482.3884720951647
 30
0.0
 11
-702.4330776920341
 21
482.3884720951647
 31
0.0
 12
-701.9722939504782
 22
485.8884720951647
 32
0.0
 13
-701.9722939504782
 23
485.8884720951647
 33
0.0
  0
SOLID
  5
349
330
342
100
AcDbEntity
  8
1
 62
     2
100
AcDbTrace
 10
-702.4330776920341
 20
419.3884720951647
 30
0.0
 11
-701.5115102089222
 21
419.3884720951647
 31
0.0
 12
-701.9722939504782
 22
415.8884720951647
 32
0.0
 13
-701.9722939504782
 23
415.8884720951647
 33
0.0
  0
MTEXT
  5
34A
330
342
100
AcDbEntity
  8
1
 62
     2
100
AcDbMText
 10
-703.9722939504782
 20
447.1384720951647
 30
0.0
 40
5.0
 41
0.0
 71
     7
 72
     1
  1
70
  7
CONVERTER_11
 11
0.0
 21
1.0
 31
0.0
 73
     1
 44
0.60024009603842
  0
ENDBLK
  5
34C
330
342
100
AcDbEntity
  8
0
100
AcDbBlockEnd
  0
BLOCK
  5
356
330
34F
100
AcDbEntity
  8
0
100
AcDbBlockBegin
  2
*D39
 70
     1
 10
0.0
 20
0.0
 30
0.0
  3
*D39
  1

  0
LINE
  5
350
330
34F
100
AcDbEntity
  8
1
  6
Continuous
 62
     2
100
AcDbLine
 10
-687.9722939504782
 20
498.3884720951646
 30
0.0
 11
-687.9722939504782
 21
515.8884720951647
 31
0.0
  0
LINE
  5
351
330
34F
100
AcDbEntity
  8
1
  6
Continuous
 62
     2
100
AcDbLine
 10
-664.9722939504783
 20
498.3884720951646
 30
0.0
 11
-689.9722939504782
 21
498.3884720951646
 31
0.0
  0
LINE
  5
352
330
34F
100
AcDbEntity
  8
1
  6
Continuous
 62
     2
100
AcDbLine
 10
-656.9722939504782
 20
515.8884720951647
 30
0.0
 11
-689.9722939504782
 21
515.8884720951647
 31
0.0
  0
SOLID
  5
353
330
34F
100
AcDbEntity
  8
1
 62
     2
100
AcDbTrace
 10
-687.5115102089222
 20
512.3884720951647
 30
0.0
 11
-688.4330776920341
 21
512.3884720951647
 31
0.0
 12
-687.9722939504782
 22
515.8884720951647
 32
0.0
 13
-687.9722939504782
 23
515.8884720951647
 33
0.0
  0
SOLID
  5
354
330
34F
100
AcDbEntity
  8
1
 62
     2
100
AcDbTrace
 10
-688.4330776920341
 20
501.8884720951646
 30
0.0
 11
-687.5115102089222
 21
501.8884720951646
 31
0.0
 12
-687.9722939504782
 22
498.3884720951646
 32
0.0
 13
-687.9722939504782
 23
498.3884720951646
 33
0.0
  0
MTEXT
  5
355
330
34F
100
AcDbEntity
  8
1
 62
     2
100
AcDbMText
 10
-690.4722939504782
 20
500.5861629349795
 30
0.0
 40
5.0
 41
0.0
 71
     7
 72
     1
  1
17,5
  7
CONVERTER_11
 11
0.0
 21
1.0
 31
0.0
 73
     1
 44
0.60024009603842
  0
ENDBLK
  5
357
330
34F
100
AcDbEntity
  8
0
100
AcDbBlockEnd
  0
BLOCK
  5
361
330
35A
100
AcDbEntity
  8
0
100
AcDbBlockBegin
  2
*D40
 70
     1
 10
0.0
 20
0.0
 30
0.0
  3
*D40
  1

  0
LINE
  5
35B
330
35A
100
AcDbEntity
  8
1
  6
Continuous
 62
     2
100
AcDbLine
 10
-687.9722939504782
 20
385.8884720951647
 30
0.0
 11
-687.9722939504782
 21
403.3884720951647
 31
0.0
  0
LINE
  5
35C
330
35A
100
AcDbEntity
  8
1
  6
Continuous
 62
     2
100
AcDbLine
 10
-656.9722939504782
 20
385.8884720951647
 30
0.0
 11
-689.9722939504782
 21
385.8884720951647
 31
0.0
  0
LINE
  5
35D
330
35A
100
AcDbEntity
  8
1
  6
Continuous
 62
     2
100
AcDbLine
 10
-664.9722939504782
 20
403.3884720951647
 30
0.0
 11
-689.9722939504782
 21
403.3884720951647
 31
0.0
  0
SOLID
  5
35E
330
35A
100
AcDbEntity
  8
1
 62
     2
100
AcDbTrace
 10
-687.5115102089222
 20
399.8884720951647
 30
0.0
 11
-688.4330776920341
 21
399.8884720951647
 31
0.0
 12
-687.9722939504782
 22
403.3884720951647
 32
0.0
 13
-687.9722939504782
 23
403.3884720951647
 33
0.0
  0
SOLID
  5
35F
330
35A
100
AcDbEntity
  8
1
 62
     2
100
AcDbTrace
 10
-688.4330776920341
 20
389.3884720951647
 30
0.0
 11
-687.5115102089222
 21
389.3884720951647
 31
0.0
 12
-687.9722939504782
 22
385.8884720951647
 32
0.0
 13
-687.9722939504782
 23
385.8884720951647
 33
0.0
  0
MTEXT
  5
360
330
35A
100
AcDbEntity
  8
1
 62
     2
100
AcDbMText
 10
-690.4722939504782
 20
388.8325265690996
 30
0.0
 40
5.0
 41
0.0
 71
     7
 72
     1
  1
17,5
  7
CONVERTER_11
 11
0.0
 21
1.0
 31
0.0
 73
     1
 44
0.60024009603842
  0
ENDBLK
  5
362
330
35A
100
AcDbEntity
  8
0
100
AcDbBlockEnd
  0
BLOCK
  5
36C
330
365
100
AcDbEntity
  8
0
100
AcDbBlockBegin
  2
*D41
 70
     1
 10
0.0
 20
0.0
 30
0.0
  3
*D41
  1

  0
LINE
  5
366
330
365
100
AcDbEntity
  8
1
  6
Continuous
 62
     2
100
AcDbLine
 10
-687.9722939504782
 20
403.3884720951647
 30
0.0
 11
-687.9722939504782
 21
498.3884720951646
 31
0.0
  0
LINE
  5
367
330
365
100
AcDbEntity
  8
1
  6
Continuous
 62
     2
100
AcDbLine
 10
-664.9722939504782
 20
403.3884720951647
 30
0.0
 11
-689.9722939504782
 21
403.3884720951647
 31
0.0
  0
LINE
  5
368
330
365
100
AcDbEntity
  8
1
  6
Continuous
 62
     2
100
AcDbLine
 10
-664.9722939504783
 20
498.3884720951646
 30
0.0
 11
-689.9722939504782
 21
498.3884720951646
 31
0.0
  0
SOLID
  5
369
330
365
100
AcDbEntity
  8
1
 62
     2
100
AcDbTrace
 10
-687.5115102089222
 20
494.8884720951646
 30
0.0
 11
-688.4330776920341
 21
494.8884720951646
 31
0.0
 12
-687.9722939504782
 22
498.3884720951646
 32
0.0
 13
-687.9722939504782
 23
498.3884720951646
 33
0.0
  0
SOLID
  5
36A
330
365
100
AcDbEntity
  8
1
 62
     2
100
AcDbTrace
 10
-688.4330776920341
 20
406.8884720951647
 30
0.0
 11
-687.5115102089222
 21
406.8884720951647
 31
0.0
 12
-687.9722939504782
 22
403.3884720951647
 32
0.0
 13
-687.9722939504782
 23
403.3884720951647
 33
0.0
  0
MTEXT
  5
36B
330
365
100
AcDbEntity
  8
1
 62
     2
100
AcDbMText
 10
-689.9722939504782
 20
447.1384720951647
 30
0.0
 40
5.0
 41
0.0
 71
     7
 72
     1
  1
95
  7
CONVERTER_11
 11
0.0
 21
1.0
 31
0.0
 73
     1
 44
0.60024009603842
  0
ENDBLK
  5
36D
330
365
100
AcDbEntity
  8
0
100
AcDbBlockEnd
  0
BLOCK
  5
377
330
370
100
AcDbEntity
  8
0
100
AcDbBlockBegin
  2
*D42
 70
     1
 10
0.0
 20
0.0
 30
0.0
  3
*D42
  1

  0
LINE
  5
371
330
370
100
AcDbEntity
  8
1
  6
Continuous
 62
     2
100
AcDbLine
 10
-659.9722939504782
 20
357.8884720951647
 30
0.0
 11
-642.4722939504782
 21
357.8884720951647
 31
0.0
  0
LINE
  5
372
330
370
100
AcDbEntity
  8
1
  6
Continuous
 62
     2
100
AcDbLine
 10
-659.9722939504782
 20
388.8884720951647
 30
0.0
 11
-659.9722939504782
 21
355.8884720951647
 31
0.0
  0
LINE
  5
373
330
370
100
AcDbEntity
  8
1
  6
Continuous
 62
     2
100
AcDbLine
 10
-642.4722939504782
 20
380.8884720951647
 30
0.0
 11
-642.4722939504782
 21
355.8884720951647
 31
0.0
  0
SOLID
  5
374
330
370
100
AcDbEntity
  8
1
 62
     2
100
AcDbTrace
 10
-656.4722939504782
 20
358.3492558367205
 30
0.0
 11
-656.4722939504782
 21
357.4276883536088
 31
0.0
 12
-659.9722939504782
 22
357.8884720951647
 32
0.0
 13
-659.9722939504782
 23
357.8884720951647
 33
0.0
  0
SOLID
  5
375
330
370
100
AcDbEntity
  8
1
 62
     2
100
AcDbTrace
 10
-645.9722939504782
 20
357.4276883536088
 30
0.0
 11
-645.9722939504782
 21
358.3492558367205
 31
0.0
 12
-642.4722939504782
 22
357.8884720951647
 32
0.0
 13
-642.4722939504782
 23
357.8884720951647
 33
0.0
  0
MTEXT
  5
376
330
370
100
AcDbEntity
  8
1
 62
     2
100
AcDbMText
 10
-657.2451253270681
 20
360.3884720951647
 30
0.0
 40
5.0
 41
0.0
 71
     7
 72
     1
  1
17,5
  7
CONVERTER_11
 11
0.9999999999970619
 21
2.424068405545306E-6
 31
0.0
 73
     1
 44
0.60024009603842
  0
ENDBLK
  5
378
330
370
100
AcDbEntity
  8
0
100
AcDbBlockEnd
  0
BLOCK
  5
382
330
37B
100
AcDbEntity
  8
0
100
AcDbBlockBegin
  2
*D43
 70
     1
 10
0.0
 20
0.0
 30
0.0
  3
*D43
  1

  0
LINE
  5
37C
330
37B
100
AcDbEntity
  8
1
  6
Continuous
 62
     2
100
AcDbLine
 10
-547.4722939504782
 20
357.8884720951647
 30
0.0
 11
-529.9722939504782
 21
357.8884720951647
 31
0.0
  0
LINE
  5
37D
330
37B
100
AcDbEntity
  8
1
  6
Continuous
 62
     2
100
AcDbLine
 10
-547.4722939504782
 20
380.8884720951647
 30
0.0
 11
-547.4722939504782
 21
355.8884720951647
 31
0.0
  0
LINE
  5
37E
330
37B
100
AcDbEntity
  8
1
  6
Continuous
 62
     2
100
AcDbLine
 10
-529.9722939504782
 20
388.8884720951647
 30
0.0
 11
-529.9722939504782
 21
355.8884720951647
 31
0.0
  0
SOLID
  5
37F
330
37B
100
AcDbEntity
  8
1
 62
     2
100
AcDbTrace
 10
-543.9722939504782
 20
358.3492558367205
 30
0.0
 11
-543.9722939504782
 21
357.4276883536088
 31
0.0
 12
-547.4722939504782
 22
357.8884720951647
 32
0.0
 13
-547.4722939504782
 23
357.8884720951647
 33
0.0
  0
SOLID
  5
380
330
37B
100
AcDbEntity
  8
1
 62
     2
100
AcDbTrace
 10
-533.4722939504782
 20
357.4276883536088
 30
0.0
 11
-533.4722939504782
 21
358.3492558367205
 31
0.0
 12
-529.9722939504782
 22
357.8884720951647
 32
0.0
 13
-529.9722939504782
 23
357.8884720951647
 33
0.0
  0
MTEXT
  5
381
330
37B
100
AcDbEntity
  8
1
 62
     2
100
AcDbMText
 10
-545.0046511945882
 20
360.3884720951647
 30
0.0
 40
5.0
 41
0.0
 71
     7
 72
     1
  1
17,5
  7
CONVERTER_11
 11
0.9999999999970619
 21
2.424068405545306E-6
 31
0.0
 73
     1
 44
0.60024009603842
  0
ENDBLK
  5
383
330
37B
100
AcDbEntity
  8
0
100
AcDbBlockEnd
  0
BLOCK
  5
38D
330
386
100
AcDbEntity
  8
0
100
AcDbBlockBegin
  2
*D44
 70
     1
 10
0.0
 20
0.0
 30
0.0
  3
*D44
  1

  0
LINE
  5
387
330
386
100
AcDbEntity
  8
1
  6
Continuous
 62
     2
100
AcDbLine
 10
-642.4722939504782
 20
357.8884720951647
 30
0.0
 11
-547.4722939504782
 21
357.8884720951647
 31
0.0
  0
LINE
  5
388
330
386
100
AcDbEntity
  8
1
  6
Continuous
 62
     2
100
AcDbLine
 10
-642.4722939504782
 20
380.8884720951647
 30
0.0
 11
-642.4722939504782
 21
355.8884720951647
 31
0.0
  0
LINE
  5
389
330
386
100
AcDbEntity
  8
1
  6
Continuous
 62
     2
100
AcDbLine
 10
-547.4722939504782
 20
380.8884720951647
 30
0.0
 11
-547.4722939504782
 21
355.8884720951647
 31
0.0
  0
SOLID
  5
38A
330
386
100
AcDbEntity
  8
1
 62
     2
100
AcDbTrace
 10
-638.9722939504782
 20
358.3492558367205
 30
0.0
 11
-638.9722939504782
 21
357.4276883536088
 31
0.0
 12
-642.4722939504782
 22
357.8884720951647
 32
0.0
 13
-642.4722939504782
 23
357.8884720951647
 33
0.0
  0
SOLID
  5
38B
330
386
100
AcDbEntity
  8
1
 62
     2
100
AcDbTrace
 10
-550.9722939504782
 20
357.4276883536088
 30
0.0
 11
-550.9722939504782
 21
358.3492558367205
 31
0.0
 12
-547.4722939504782
 22
357.8884720951647
 32
0.0
 13
-547.4722939504782
 23
357.8884720951647
 33
0.0
  0
MTEXT
  5
38C
330
386
100
AcDbEntity
  8
1
 62
     2
100
AcDbMText
 10
-598.7222939504782
 20
359.8884720951647
 30
0.0
 40
5.0
 41
0.0
 71
     7
 72
     1
  1
95
  7
CONVERTER_11
 11
0.9999999999970619
 21
2.424068405545306E-6
 31
0.0
 73
     1
 44
0.60024009603842
  0
ENDBLK
  5
38E
330
386
100
AcDbEntity
  8
0
100
AcDbBlockEnd
  0
BLOCK
  5
399
330
391
100
AcDbEntity
  8
0
100
AcDbBlockBegin
  2
*D45
 70
     1
 10
0.0
 20
0.0
 30
0.0
  3
*D45
  1

  0
LINE
  5
392
330
391
100
AcDbEntity
  8
1
  6
Continuous
 62
     2
100
AcDbLine
 10
-659.9722939504782
 20
343.8884720951647
 30
0.0
 11
-629.9722939504782
 21
343.8884720951647
 31
0.0
  0
LINE
  5
393
330
391
100
AcDbEntity
  8
1
  6
Continuous
 62
     2
100
AcDbLine
 10
-659.9722939504782
 20
388.8884720951647
 30
0.0
 11
-659.9722939504782
 21
341.8884720951647
 31
0.0
  0
LINE
  5
394
330
391
100
AcDbEntity
  8
1
  6
Continuous
 62
     2
100
AcDbLine
 10
-629.9722939504782
 20
355.8884720951647
 30
0.0
 11
-629.9722939504782
 21
341.8884720951647
 31
0.0
  0
LINE
  5
395
330
391
100
AcDbEntity
  8
1
  6
Continuous
 62
     2
100
AcDbLine
 10
-629.9722939504782
 20
385.8884720951647
 30
0.0
 11
-629.9722939504782
 21
359.8884720951647
 31
0.0
  0
SOLID
  5
396
330
391
100
AcDbEntity
  8
1
 62
     2
100
AcDbTrace
 10
-656.4722939504782
 20
344.3492558367205
 30
0.0
 11
-656.4722939504782
 21
343.4276883536088
 31
0.0
 12
-659.9722939504782
 22
343.8884720951647
 32
0.0
 13
-659.9722939504782
 23
343.8884720951647
 33
0.0
  0
SOLID
  5
397
330
391
100
AcDbEntity
  8
1
 62
     2
100
AcDbTrace
 10
-633.4722939504782
 20
343.4276883536088
 30
0.0
 11
-633.4722939504782
 21
344.3492558367205
 31
0.0
 12
-629.9722939504782
 22
343.8884720951647
 32
0.0
 13
-629.9722939504782
 23
343.8884720951647
 33
0.0
  0
MTEXT
  5
398
330
391
100
AcDbEntity
  8
1
 62
     2
100
AcDbMText
 10
-649.0364208503281
 20
345.8884720951647
 30
0.0
 40
5.0
 41
0.0
 71
     7
 72
     1
  1
30
  7
CONVERTER_11
 11
0.9999999999970619
 21
2.424068405545306E-6
 31
0.0
 73
     1
 44
0.60024009603842
  0
ENDBLK
  5
39A
330
391
100
AcDbEntity
  8
0
100
AcDbBlockEnd
  0
BLOCK
  5
3A5
330
39D
100
AcDbEntity
  8
0
100
AcDbBlockBegin
  2
*D46
 70
     1
 10
0.0
 20
0.0
 30
0.0
  3
*D46
  1

  0
LINE
  5
39E
330
39D
100
AcDbEntity
  8
1
  6
Continuous
 62
     2
100
AcDbLine
 10
-559.9722939504782
 20
343.8884720951647
 30
0.0
 11
-529.9722939504782
 21
343.8884720951647
 31
0.0
  0
LINE
  5
39F
330
39D
100
AcDbEntity
  8
1
  6
Continuous
 62
     2
100
AcDbLine
 10
-559.9722939504782
 20
355.8884720951647
 30
0.0
 11
-559.9722939504782
 21
341.8884720951647
 31
0.0
  0
LINE
  5
3A0
330
39D
100
AcDbEntity
  8
1
  6
Continuous
 62
     2
100
AcDbLine
 10
-559.9722939504782
 20
385.8884720951647
 30
0.0
 11
-559.9722939504782
 21
359.8884720951647
 31
0.0
  0
LINE
  5
3A1
330
39D
100
AcDbEntity
  8
1
  6
Continuous
 62
     2
100
AcDbLine
 10
-529.9722939504782
 20
388.8884720951647
 30
0.0
 11
-529.9722939504782
 21
341.8884720951647
 31
0.0
  0
SOLID
  5
3A2
330
39D
100
AcDbEntity
  8
1
 62
     2
100
AcDbTrace
 10
-556.4722939504782
 20
344.3492558367205
 30
0.0
 11
-556.4722939504782
 21
343.4276883536088
 31
0.0
 12
-559.9722939504782
 22
343.8884720951647
 32
0.0
 13
-559.9722939504782
 23
343.8884720951647
 33
0.0
  0
SOLID
  5
3A3
330
39D
100
AcDbEntity
  8
1
 62
     2
100
AcDbTrace
 10
-533.4722939504782
 20
343.4276883536088
 30
0.0
 11
-533.4722939504782
 21
344.3492558367205
 31
0.0
 12
-529.9722939504782
 22
343.8884720951647
 32
0.0
 13
-529.9722939504782
 23
343.8884720951647
 33
0.0
  0
MTEXT
  5
3A4
330
39D
100
AcDbEntity
  8
1
 62
     2
100
AcDbMText
 10
-548.6967038503981
 20
345.8884720951647
 30
0.0
 40
5.0
 41
0.0
 71
     7
 72
     1
  1
30
  7
CONVERTER_11
 11
0.9999999999970619
 21
2.424068405545306E-6
 31
0.0
 73
     1
 44
0.60024009603842
  0
ENDBLK
  5
3A6
330
39D
100
AcDbEntity
  8
0
100
AcDbBlockEnd
  0
BLOCK
  5
3B2
330
3A9
100
AcDbEntity
  8
0
100
AcDbBlockBegin
  2
*D47
 70
     1
 10
0.0
 20
0.0
 30
0.0
  3
*D47
  1

  0
LINE
  5
3AA
330
3A9
100
AcDbEntity
  8
1
  6
Continuous
 62
     2
100
AcDbLine
 10
-629.9722939504782
 20
343.8884720951647
 30
0.0
 11
-559.9722939504782
 21
343.8884720951647
 31
0.0
  0
LINE
  5
3AB
330
3A9
100
AcDbEntity
  8
1
  6
Continuous
 62
     2
100
AcDbLine
 10
-629.9722939504782
 20
355.8884720951647
 30
0.0
 11
-629.9722939504782
 21
341.8884720951647
 31
0.0
  0
LINE
  5
3AC
330
3A9
100
AcDbEntity
  8
1
  6
Continuous
 62
     2
100
AcDbLine
 10
-629.9722939504782
 20
385.8884720951647
 30
0.0
 11
-629.9722939504782
 21
359.8884720951647
 31
0.0
  0
LINE
  5
3AD
330
3A9
100
AcDbEntity
  8
1
  6
Continuous
 62
     2
100
AcDbLine
 10
-559.9722939504782
 20
355.8884720951647
 30
0.0
 11
-559.9722939504782
 21
341.8884720951647
 31
0.0
  0
LINE
  5
3AE
330
3A9
100
AcDbEntity
  8
1
  6
Continuous
 62
     2
100
AcDbLine
 10
-559.9722939504782
 20
385.8884720951647
 30
0.0
 11
-559.9722939504782
 21
359.8884720951647
 31
0.0
  0
SOLID
  5
3AF
330
3A9
100
AcDbEntity
  8
1
 62
     2
100
AcDbTrace
 10
-626.4722939504782
 20
344.3492558367205
 30
0.0
 11
-626.4722939504782
 21
343.4276883536088
 31
0.0
 12
-629.9722939504782
 22
343.8884720951647
 32
0.0
 13
-629.9722939504782
 23
343.8884720951647
 33
0.0
  0
SOLID
  5
3B0
330
3A9
100
AcDbEntity
  8
1
 62
     2
100
AcDbTrace
 10
-563.4722939504782
 20
343.4276883536088
 30
0.0
 11
-563.4722939504782
 21
344.3492558367205
 31
0.0
 12
-559.9722939504782
 22
343.8884720951647
 32
0.0
 13
-559.9722939504782
 23
343.8884720951647
 33
0.0
  0
MTEXT
  5
3B1
330
3A9
100
AcDbEntity
  8
1
 62
     2
100
AcDbMText
 10
-598.7222939504782
 20
345.8884720951647
 30
0.0
 40
5.0
 41
0.0
 71
     7
 72
     1
  1
70
  7
CONVERTER_11
 11
0.9999999999970619
 21
2.424068405545306E-6
 31
0.0
 73
     1
 44
0.60024009603842
  0
ENDBLK
  5
3B3
330
3A9
100
AcDbEntity
  8
0
100
AcDbBlockEnd
  0
BLOCK
  5
3BD
330
3B6
100
AcDbEntity
  8
0
100
AcDbBlockBegin
  2
*D48
 70
     1
 10
0.0
 20
0.0
 30
0.0
  3
*D48
  1

  0
LINE
  5
3B7
330
3B6
100
AcDbEntity
  8
1
  6
Continuous
 62
     2
100
AcDbLine
 10
-659.9722939504782
 20
544.9884720951646
 30
0.0
 11
-594.9722939504782
 21
544.9884720951646
 31
0.0
  0
LINE
  5
3B8
330
3B6
100
AcDbEntity
  8
1
  6
Continuous
 62
     2
100
AcDbLine
 10
-659.9722939504782
 20
512.8884720951647
 30
0.0
 11
-659.9722939504782
 21
546.9884720951646
 31
0.0
  0
LINE
  5
3B9
330
3B6
100
AcDbEntity
  8
1
  6
Continuous
 62
     2
100
AcDbLine
 10
-594.9722939504782
 20
520.8884720951647
 30
0.0
 11
-594.9722939504782
 21
546.9884720951646
 31
0.0
  0
SOLID
  5
3BA
330
3B6
100
AcDbEntity
  8
1
 62
     2
100
AcDbTrace
 10
-656.4722939504782
 20
545.4492558367206
 30
0.0
 11
-656.4722939504782
 21
544.5276883536087
 31
0.0
 12
-659.9722939504782
 22
544.9884720951646
 32
0.0
 13
-659.9722939504782
 23
544.9884720951646
 33
0.0
  0
SOLID
  5
3BB
330
3B6
100
AcDbEntity
  8
1
 62
     2
100
AcDbTrace
 10
-598.4722939504782
 20
544.5276883536087
 30
0.0
 11
-598.4722939504782
 21
545.4492558367206
 31
0.0
 12
-594.9722939504782
 22
544.9884720951646
 32
0.0
 13
-594.9722939504782
 23
544.9884720951646
 33
0.0
  0
MTEXT
  5
3BC
330
3B6
100
AcDbEntity
  8
1
 62
     2
100
AcDbMText
 10
-629.6056338258181
 20
546.9884720951646
 30
0.0
 40
5.0
 41
0.0
 71
     7
 72
     1
  1
65
  7
CONVERTER_11
 11
0.9999999999970619
 21
2.424068405545306E-6
 31
0.0
 73
     1
 44
0.60024009603842
  0
ENDBLK
  5
3BE
330
3B6
100
AcDbEntity
  8
0
100
AcDbBlockEnd
  0
BLOCK
  5
3C8
330
3C1
100
AcDbEntity
  8
0
100
AcDbBlockBegin
  2
*D49
 70
     1
 10
0.0
 20
0.0
 30
0.0
  3
*D49
  1

  0
LINE
  5
3C2
330
3C1
100
AcDbEntity
  8
1
  6
Continuous
 62
     2
100
AcDbLine
 10
-594.9722939504782
 20
544.9884720951646
 30
0.0
 11
-529.9722939504782
 21
544.9884720951646
 31
0.0
  0
LINE
  5
3C3
330
3C1
100
AcDbEntity
  8
1
  6
Continuous
 62
     2
100
AcDbLine
 10
-594.9722939504782
 20
520.8884720951647
 30
0.0
 11
-594.9722939504782
 21
546.9884720951646
 31
0.0
  0
LINE
  5
3C4
330
3C1
100
AcDbEntity
  8
1
  6
Continuous
 62
     2
100
AcDbLine
 10
-529.9722939504782
 20
512.8884720951647
 30
0.0
 11
-529.9722939504782
 21
546.9884720951646
 31
0.0
  0
SOLID
  5
3C5
330
3C1
100
AcDbEntity
  8
1
 62
     2
100
AcDbTrace
 10
-591.4722939504782
 20
545.4492558367206
 30
0.0
 11
-591.4722939504782
 21
544.5276883536087
 31
0.0
 12
-594.9722939504782
 22
544.9884720951646
 32
0.0
 13
-594.9722939504782
 23
544.9884720951646
 33
0.0
  0
SOLID
  5
3C6
330
3C1
100
AcDbEntity
  8
1
 62
     2
100
AcDbTrace
 10
-533.4722939504782
 20
544.5276883536087
 30
0.0
 11
-533.4722939504782
 21
545.4492558367206
 31
0.0
 12
-529.9722939504782
 22
544.9884720951646
 32
0.0
 13
-529.9722939504782
 23
544.9884720951646
 33
0.0
  0
MTEXT
  5
3C7
330
3C1
100
AcDbEntity
  8
1
 62
     2
100
AcDbMText
 10
-563.8897114148381
 20
546.9884720951646
 30
0.0
 40
5.0
 41
0.0
 71
     7
 72
     1
  1
65
  7
CONVERTER_11
 11
0.9999999999970619
 21
2.424068405545306E-6
 31
0.0
 73
     1
 44
0.60024009603842
  0
ENDBLK
  5
3C9
330
3C1
100
AcDbEntity
  8
0
100
AcDbBlockEnd
  0
BLOCK
  5
3D3
330
3CC
100
AcDbEntity
  8
0
100
AcDbBlockBegin
  2
*D50
 70
     1
 10
0.0
 20
0.0
 30
0.0
  3
*D50
  1

  0
LINE
  5
3CD
330
3CC
100
AcDbEntity
  8
1
  6
Continuous
 62
     2
100
AcDbLine
 10
-659.9722939504782
 20
558.9884720951646
 30
0.0
 11
-484.4722939504783
 21
558.9884720951646
 31
0.0
  0
LINE
  5
3CE
330
3CC
100
AcDbEntity
  8
1
  6
Continuous
 62
     2
100
AcDbLine
 10
-659.9722939504782
 20
512.8884720951647
 30
0.0
 11
-659.9722939504782
 21
560.9884720951646
 31
0.0
  0
LINE
  5
3CF
330
3CC
100
AcDbEntity
  8
1
  6
Continuous
 62
     2
100
AcDbLine
 10
-484.4722939504783
 20
516.9884720951649
 30
0.0
 11
-484.4722939504783
 21
560.9884720951646
 31
0.0
  0
SOLID
  5
3D0
330
3CC
100
AcDbEntity
  8
1
 62
     2
100
AcDbTrace
 10
-656.4722939504782
 20
559.4492558367206
 30
0.0
 11
-656.4722939504782
 21
558.5276883536087
 31
0.0
 12
-659.9722939504782
 22
558.9884720951646
 32
0.0
 13
-659.9722939504782
 23
558.9884720951646
 33
0.0
  0
SOLID
  5
3D1
330
3CC
100
AcDbEntity
  8
1
 62
     2
100
AcDbTrace
 10
-487.9722939504783
 20
558.5276883536087
 30
0.0
 11
-487.9722939504783
 21
559.4492558367206
 31
0.0
 12
-484.4722939504783
 22
558.9884720951646
 32
0.0
 13
-484.4722939504783
 23
558.9884720951646
 33
0.0
  0
MTEXT
  5
3D2
330
3CC
100
AcDbEntity
  8
1
 62
     2
100
AcDbMText
 10
-573.7997443019082
 20
560.9884720951646
 30
0.0
 40
5.0
 41
0.0
 71
     7
 72
     1
  1
L
  7
CONVERTER_11
 11
0.9999999999970619
 21
2.424068405545306E-6
 31
0.0
 73
     1
 44
0.60024009603842
  0
ENDBLK
  5
3D4
330
3CC
100
AcDbEntity
  8
0
100
AcDbBlockEnd
  0
BLOCK
  5
3E1
330
3D7
100
AcDbEntity
  8
0
100
AcDbBlockBegin
  2
*D51
 70
     1
 10
0.0
 20
0.0
 30
0.0
  3
*D51
  1

  0
LINE
  5
3D8
330
3D7
100
AcDbEntity
  8
1
  6
Continuous
 62
     2
100
AcDbLine
 10
-687.9722939504782
 20
155.6936301706485
 30
0.0
 11
-687.9722939504782
 21
148.6936301706485
 31
0.0
  0
LINE
  5
3D9
330
3D7
100
AcDbEntity
  8
1
  6
Continuous
 62
     2
100
AcDbLine
 10
-687.9722939504782
 20
143.6936301706485
 30
0.0
 11
-687.9722939504782
 21
148.6936301706485
 31
0.0
  0
LINE
  5
3DA
330
3D7
100
AcDbEntity
  8
1
  6
Continuous
 62
     2
100
AcDbLine
 10
-687.9722939504782
 20
143.6936301706485
 30
0.0
 11
-687.9722939504782
 21
134.4184665385995
 31
0.0
  0
LINE
  5
3DB
330
3D7
100
AcDbEntity
  8
1
  6
Continuous
 62
     2
100
AcDbLine
 10
-675.9722939504782
 20
143.6936301706485
 30
0.0
 11
-689.9722939504782
 21
143.6936301706485
 31
0.0
  0
LINE
  5
3DC
330
3D7
100
AcDbEntity
  8
1
  6
Continuous
 62
     2
100
AcDbLine
 10
-658.9722939504782
 20
143.6936301706485
 30
0.0
 11
-671.9722939504782
 21
143.6936301706485
 31
0.0
  0
LINE
  5
3DD
330
3D7
100
AcDbEntity
  8
1
  6
Continuous
 62
     2
100
AcDbLine
 10
-647.9142067508573
 20
148.6936301706485
 30
0.0
 11
-689.9722939504782
 21
148.6936301706485
 31
0.0
  0
SOLID
  5
3DE
330
3D7
100
AcDbEntity
  8
1
 62
     2
100
AcDbTrace
 10
-687.5115102089222
 20
140.1936301706485
 30
0.0
 11
-688.4330776920341
 21
140.1936301706485
 31
0.0
 12
-687.9722939504782
 22
143.6936301706485
 32
0.0
 13
-687.9722939504782
 23
143.6936301706485
 33
0.0
  0
SOLID
  5
3DF
330
3D7
100
AcDbEntity
  8
1
 62
     2
100
AcDbTrace
 10
-688.4330776920341
 20
152.1936301706485
 30
0.0
 11
-687.5115102089222
 21
152.1936301706485
 31
0.0
 12
-687.9722939504782
 22
148.6936301706485
 32
0.0
 13
-687.9722939504782
 23
148.6936301706485
 33
0.0
  0
MTEXT
  5
3E0
330
3D7
100
AcDbEntity
  8
1
 62
     2
100
AcDbMText
 10
-689.9722939504782
 20
134.4184665385995
 30
0.0
 40
5.0
 41
0.0
 71
     7
 72
     1
  1
5
  7
CONVERTER_11
 11
0.0
 21
1.0
 31
0.0
 73
     1
 44
0.60024009603842
  0
ENDBLK
  5
3E2
330
3D7
100
AcDbEntity
  8
0
100
AcDbBlockEnd
  0
BLOCK
  5
3EE
330
3E5
100
AcDbEntity
  8
0
100
AcDbBlockBegin
  2
*D52
 70
     1
 10
0.0
 20
0.0
 30
0.0
  3
*D52
  1

  0
LINE
  5
3E6
330
3E5
100
AcDbEntity
  8
1
  6
Continuous
 62
     2
100
AcDbLine
 10
-687.9722939504782
 20
215.6936301706485
 30
0.0
 11
-687.9722939504782
 21
222.6936301706485
 31
0.0
  0
LINE
  5
3E7
330
3E5
100
AcDbEntity
  8
1
  6
Continuous
 62
     2
100
AcDbLine
 10
-687.9722939504782
 20
222.6936301706485
 30
0.0
 11
-687.9722939504782
 21
227.6936301706485
 31
0.0
  0
LINE
  5
3E8
330
3E5
100
AcDbEntity
  8
1
  6
Continuous
 62
     2
100
AcDbLine
 10
-687.9722939504782
 20
227.6936301706485
 30
0.0
 11
-687.9722939504782
 21
238.3409018919115
 31
0.0
  0
LINE
  5
3E9
330
3E5
100
AcDbEntity
  8
1
  6
Continuous
 62
     2
100
AcDbLine
 10
-648.0975517747082
 20
222.6936301706485
 30
0.0
 11
-689.9722939504782
 21
222.6936301706485
 31
0.0
  0
LINE
  5
3EA
330
3E5
100
AcDbEntity
  8
1
  6
Continuous
 62
     2
100
AcDbLine
 10
-656.9722939504783
 20
227.6936301706485
 30
0.0
 11
-689.9722939504782
 21
227.6936301706485
 31
0.0
  0
SOLID
  5
3EB
330
3E5
100
AcDbEntity
  8
1
 62
     2
100
AcDbTrace
 10
-687.5115102089222
 20
219.1936301706485
 30
0.0
 11
-688.4330776920341
 21
219.1936301706485
 31
0.0
 12
-687.9722939504782
 22
222.6936301706485
 32
0.0
 13
-687.9722939504782
 23
222.6936301706485
 33
0.0
  0
SOLID
  5
3EC
330
3E5
100
AcDbEntity
  8
1
 62
     2
100
AcDbTrace
 10
-688.4330776920341
 20
231.1936301706485
 30
0.0
 11
-687.5115102089222
 21
231.1936301706485
 31
0.0
 12
-687.9722939504782
 22
227.6936301706485
 32
0.0
 13
-687.9722939504782
 23
227.6936301706485
 33
0.0
  0
MTEXT
  5
3ED
330
3E5
100
AcDbEntity
  8
1
 62
     2
100
AcDbMText
 10
-689.9722939504782
 20
235.3409018919115
 30
0.0
 40
5.0
 41
0.0
 71
     7
 72
     1
  1
5
  7
CONVERTER_11
 11
0.0
 21
1.0
 31
0.0
 73
     1
 44
0.60024009603842
  0
ENDBLK
  5
3EF
330
3E5
100
AcDbEntity
  8
0
100
AcDbBlockEnd
  0
BLOCK
  5
3F9
330
3F2
100
AcDbEntity
  8
0
100
AcDbBlockBegin
  2
*D53
 70
     1
 10
0.0
 20
0.0
 30
0.0
  3
*D53
  1

  0
LINE
  5
3F3
330
3F2
100
AcDbEntity
  8
1
  6
Continuous
 62
     2
100
AcDbLine
 10
-687.9722939504782
 20
148.6936301706485
 30
0.0
 11
-687.9722939504782
 21
222.6936301706485
 31
0.0
  0
LINE
  5
3F4
330
3F2
100
AcDbEntity
  8
1
  6
Continuous
 62
     2
100
AcDbLine
 10
-647.9142067508573
 20
148.6936301706485
 30
0.0
 11
-689.9722939504782
 21
148.6936301706485
 31
0.0
  0
LINE
  5
3F5
330
3F2
100
AcDbEntity
  8
1
  6
Continuous
 62
     2
100
AcDbLine
 10
-648.0975517747082
 20
222.6936301706485
 30
0.0
 11
-689.9722939504782
 21
222.6936301706485
 31
0.0
  0
SOLID
  5
3F6
330
3F2
100
AcDbEntity
  8
1
 62
     2
100
AcDbTrace
 10
-688.4330776920341
 20
152.1936301706485
 30
0.0
 11
-687.5115102089222
 21
152.1936301706485
 31
0.0
 12
-687.9722939504782
 22
148.6936301706485
 32
0.0
 13
-687.9722939504782
 23
148.6936301706485
 33
0.0
  0
SOLID
  5
3F7
330
3F2
100
AcDbEntity
  8
1
 62
     2
100
AcDbTrace
 10
-687.5115102089222
 20
219.1936301706485
 30
0.0
 11
-688.4330776920341
 21
219.1936301706485
 31
0.0
 12
-687.9722939504782
 22
222.6936301706485
 32
0.0
 13
-687.9722939504782
 23
222.6936301706485
 33
0.0
  0
MTEXT
  5
3F8
330
3F2
100
AcDbEntity
  8
1
 62
     2
100
AcDbMText
 10
-689.9722939504782
 20
181.9436301706485
 30
0.0
 40
5.0
 41
0.0
 71
     7
 72
     1
  1
74
  7
CONVERTER_11
 11
0.0
 21
1.0
 31
0.0
 73
     1
 44
0.60024009603842
  0
ENDBLK
  5
3FA
330
3F2
100
AcDbEntity
  8
0
100
AcDbBlockEnd
  0
BLOCK
  5
405
330
3FD
100
AcDbEntity
  8
0
100
AcDbBlockBegin
  2
*D54
 70
     1
 10
0.0
 20
0.0
 30
0.0
  3
*D54
  1

  0
LINE
  5
3FE
330
3FD
100
AcDbEntity
  8
1
  6
Continuous
 62
     2
100
AcDbLine
 10
-729.9722939504782
 20
230.6936301706485
 30
0.0
 11
-729.9722939504782
 21
282.6936301706485
 31
0.0
  0
LINE
  5
3FF
330
3FD
100
AcDbEntity
  8
1
  6
Continuous
 62
     2
100
AcDbLine
 10
-689.9722939504782
 20
230.6936301706485
 30
0.0
 11
-731.9722939504782
 21
230.6936301706485
 31
0.0
  0
LINE
  5
400
330
3FD
100
AcDbEntity
  8
1
  6
Continuous
 62
     2
100
AcDbLine
 10
-643.9722939504782
 20
230.6936301706485
 30
0.0
 11
-685.9722939504782
 21
230.6936301706485
 31
0.0
  0
LINE
  5
401
330
3FD
100
AcDbEntity
  8
1
  6
Continuous
 62
     2
100
AcDbLine
 10
-604.1722939504785
 20
282.6936301706485
 30
0.0
 11
-731.9722939504782
 21
282.6936301706485
 31
0.0
  0
SOLID
  5
402
330
3FD
100
AcDbEntity
  8
1
 62
     2
100
AcDbTrace
 10
-730.4330776920341
 20
234.1936301706485
 30
0.0
 11
-729.5115102089222
 21
234.1936301706485
 31
0.0
 12
-729.9722939504782
 22
230.6936301706485
 32
0.0
 13
-729.9722939504782
 23
230.6936301706485
 33
0.0
  0
SOLID
  5
403
330
3FD
100
AcDbEntity
  8
1
 62
     2
100
AcDbTrace
 10
-729.5115102089222
 20
279.1936301706485
 30
0.0
 11
-730.4330776920341
 21
279.1936301706485
 31
0.0
 12
-729.9722939504782
 22
282.6936301706485
 32
0.0
 13
-729.9722939504782
 23
282.6936301706485
 33
0.0
  0
MTEXT
  5
404
330
3FD
100
AcDbEntity
  8
1
 62
     2
100
AcDbMText
 10
-731.9722939504782
 20
258.2495104947279
 30
0.0
 40
5.0
 41
0.0
 71
     7
 72
     1
  1
O
  7
CONVERTER_11
 11
0.0
 21
1.0
 31
0.0
 73
     1
 44
0.60024009603842
  0
ENDBLK
  5
406
330
3FD
100
AcDbEntity
  8
0
100
AcDbBlockEnd
  0
BLOCK
  5
40F
330
409
100
AcDbEntity
  8
0
100
AcDbBlockBegin
  2
*D55
 70
     1
 10
0.0
 20
0.0
 30
0.0
  3
*D55
  1

  0
LINE
  5
40A
330
409
100
AcDbEntity
  8
1
  6
Continuous
 62
     2
100
AcDbLine
 10
-456.4722939504783
 20
401.9884720951646
 30
0.0
 11
-456.4722939504783
 21
458.8571275328646
 31
0.0
  0
LINE
  5
40B
330
409
100
AcDbEntity
  8
1
  6
Continuous
 62
     2
100
AcDbLine
 10
-468.4722939504782
 20
401.9884720951646
 30
0.0
 11
-454.4722939504783
 21
401.9884720951646
 31
0.0
  0
LINE
  5
40C
330
409
100
AcDbEntity
  8
1
  6
Continuous
 62
     2
100
AcDbLine
 10
-484.4722939504782
 20
401.9884720951646
 30
0.0
 11
-472.4722939504782
 21
401.9884720951646
 31
0.0
  0
SOLID
  5
40D
330
409
100
AcDbEntity
  8
1
 62
     2
100
AcDbTrace
 10
-456.9330776920341
 20
405.4884720951646
 30
0.0
 11
-456.0115102089224
 21
405.4884720951646
 31
0.0
 12
-456.4722939504783
 22
401.9884720951646
 32
0.0
 13
-456.4722939504783
 23
401.9884720951646
 33
0.0
  0
MTEXT
  5
40E
330
409
100
AcDbEntity
  8
1
 62
     2
100
AcDbMText
 10
-458.4722939504783
 20
443.1571275328646
 30
0.0
 40
5.0
 41
0.0
 71
     7
 72
     1
  1
\C2;\U+00f8\C2; D
  7
CONVERTER_11
 11
0.0
 21
1.0
 31
0.0
 73
     1
 44
0.60024009603842
  0
ENDBLK
  5
410
330
409
100
AcDbEntity
  8
0
100
AcDbBlockEnd
  0
BLOCK
  5
417
330
412
100
AcDbEntity
  8
0
100
AcDbBlockBegin
  2
*D56
 70
     1
 10
0.0
 20
0.0
 30
0.0
  3
*D56
  1

  0
LINE
  5
413
330
412
100
AcDbEntity
  8
1
  6
Continuous
 62
     2
100
AcDbLine
 10
-456.4722939504783
 20
516.9884720951649
 30
0.0
 11
-456.4722939504783
 21
473.4312796915125
 31
0.0
  0
LINE
  5
414
330
412
100
AcDbEntity
  8
1
  6
Continuous
 62
     2
100
AcDbLine
 10
-484.4722939504782
 20
516.9884720951649
 30
0.0
 11
-454.4722939504783
 21
516.9884720951649
 31
0.0
  0
SOLID
  5
415
330
412
100
AcDbEntity
  8
1
 62
     2
100
AcDbTrace
 10
-456.0115102089224
 20
513.4884720951649
 30
0.0
 11
-456.9330776920341
 21
513.4884720951649
 31
0.0
 12
-456.4722939504783
 22
516.9884720951649
 32
0.0
 13
-456.4722939504783
 23
516.9884720951649
 33
0.0
  0
MTEXT
  5
416
330
412
100
AcDbEntity
  8
1
 62
     2
100
AcDbMText
 10
-458.4722939504783
 20
470.7312796915125
 30
0.0
 40
5.0
 41
0.0
 71
     7
 72
     1
  1
\C2;\U+00f8\C2; D
  7
CONVERTER_11
 11
0.0
 21
1.0
 31
0.0
 73
     1
 44
0.60024009603842
  0
ENDBLK
  5
418
330
412
100
AcDbEntity
  8
0
100
AcDbBlockEnd
  0
BLOCK
  5
41F
330
41A
100
AcDbEntity
  8
0
100
AcDbBlockBegin
  2
*D57
 70
     1
 10
0.0
 20
0.0
 30
0.0
  3
*D57
  1

  0
LINE
  5
41B
330
41A
100
AcDbEntity
  8
1
  6
Continuous
 62
     2
100
AcDbLine
 10
-560.0109247979294
 20
407.0813876276084
 30
0.0
 11
-586.8599825685967
 21
414.3639102527283
 31
0.0
  0
SOLID
  5
41C
330
41A
100
AcDbEntity
  8
1
 62
     2
100
AcDbTrace
 10
-575.3323057827079
 20
410.7597169189773
 30
0.0
 11
-575.0910573021417
 21
411.6491469592579
 31
0.0
 12
-571.8337355992036
 22
410.2881998698933
 32
0.0
 13
-571.8337355992036
 23
410.2881998698933
 33
0.0
  0
SOLID
  5
41D
330
41A
100
AcDbEntity
  8
1
 62
     2
100
AcDbTrace
 10
-561.5792735292571
 20
407.9842186823607
 30
0.0
 11
-561.8205220098232
 21
407.0947886420802
 31
0.0
 12
-565.0778437127614
 22
408.4557357314448
 32
0.0
 13
-565.0778437127614
 23
408.4557357314448
 33
0.0
  0
MTEXT
  5
41E
330
41A
100
AcDbEntity
  8
1
 62
     2
100
AcDbMText
 10
-588.942265399525
 20
417.0009726736848
 30
0.0
 40
5.0
 41
0.0
 71
     7
 72
     1
  1
\C2;\U+00f8\C2;7
  7
CONVERTER_11
 11
0.9651274123489324
 21
-0.261780591206938
 31
0.0
 73
     1
 44
0.60024009603842
  0
ENDBLK
  5
420
330
41A
100
AcDbEntity
  8
0
100
AcDbBlockEnd
  0
BLOCK
  5
427
330
422
100
AcDbEntity
  8
0
100
AcDbBlockBegin
  2
*D58
 70
     1
 10
0.0
 20
0.0
 30
0.0
  3
*D58
  1

  0
LINE
  5
423
330
422
100
AcDbEntity
  8
1
  6
Continuous
 62
     2
100
AcDbLine
 10
-631.3882387429759
 20
444.8399504574099
 30
0.0
 11
-533.9099362711871
 21
420.8786082394158
 31
0.0
  0
SOLID
  5
424
330
422
100
AcDbEntity
  8
1
 62
     2
100
AcDbTrace
 10
-562.0651625570725
 20
427.3250017055616
 30
0.0
 11
-561.8451787868212
 21
428.2199283878965
 31
0.0
 12
-558.5563491579804
 22
426.9369937329193
 32
0.0
 13
-558.5563491579804
 23
426.9369937329193
 33
0.0
  0
SOLID
  5
425
330
422
100
AcDbEntity
  8
1
 62
     2
100
AcDbTrace
 10
-627.8794253438838
 20
444.4519424847676
 30
0.0
 11
-628.0994091141351
 21
443.5570158024328
 31
0.0
 12
-631.3882387429759
 22
444.8399504574099
 32
0.0
 13
-631.3882387429759
 23
444.8399504574099
 33
0.0
  0
MTEXT
  5
426
330
422
100
AcDbEntity
  8
1
 62
     2
100
AcDbMText
 10
-548.6786663116599
 20
426.5684775693425
 30
0.0
 40
5.0
 41
0.0
 71
     7
 72
     1
  1
\C2;\U+00f8\C2;75
  7
CONVERTER_11
 11
0.9710918611332771
 21
-0.2387060896598749
 31
0.0
 73
     1
 44
0.60024009603842
  0
ENDBLK
  5
428
330
422
100
AcDbEntity
  8
0
100
AcDbBlockEnd
  0
BLOCK
  5
42E
330
42A
100
AcDbEntity
  8
0
100
AcDbBlockBegin
  2
*D59
 70
     1
 10
0.0
 20
0.0
 30
0.0
  3
*D59
  1

  0
LINE
  5
42B
330
42A
100
AcDbEntity
  8
1
  6
Continuous
 62
     2
100
AcDbLine
 10
-594.9722939504782
 20
230.6936301706484
 30
0.0
 11
-635.7058777487597
 21
242.8190229868993
 31
0.0
  0
SOLID
  5
42C
330
42A
100
AcDbEntity
  8
1
 62
     2
100
AcDbTrace
 10
-632.2198841684375
 20
242.2620935349622
 30
0.0
 11
-632.4828104681885
 21
241.3788289161597
 31
0.0
 12
-635.7058777487597
 22
242.8190229868993
 32
0.0
 13
-635.7058777487597
 23
242.8190229868993
 33
0.0
  0
MTEXT
  5
42D
330
42A
100
AcDbEntity
  8
1
 62
     2
100
AcDbMText
 10
-629.3243125919096
 20
243.0061171480326
 30
0.0
 40
5.0
 41
0.0
 71
     7
 72
     1
  1
\C2;\U+00f8\C2;85
  7
CONVERTER_11
 11
0.9584372658419151
 21
-0.2853033603823731
 31
0.0
 73
     1
 44
0.60024009603842
  0
ENDBLK
  5
42F
330
42A
100
AcDbEntity
  8
0
100
AcDbBlockEnd
  0
ENDSEC
  0
SECTION
  2
ENTITIES
  0
INSERT
  5
6C
330
1F
100
AcDbEntity
  8
0
100
AcDbBlockReference
  2
Top
 10
-209.9999999999997
 20
148.5000000000001
 30
0.0
 41
0.5
 42
0.5
 43
0.5
  0
INSERT
  5
6D
330
1F
100
AcDbEntity
  8
1
100
AcDbBlockReference
  2
A4
 10
-209.9999999999997
 20
148.5000000000002
 30
0.0
  0
ENDSEC
  0
SECTION
  2
OBJECTS
  0
DICTIONARY
  5
C
330
0
100
AcDbDictionary
281
     1
  3
ACAD_GROUP
350
D
  3
ACAD_LAYOUT
350
1A
  3
ACAD_MLEADERSTYLE
350
512
  3
ACAD_MLINESTYLE
350
17
  3
ACAD_PLOTSETTINGS
350
19
  3
ACAD_PLOTSTYLENAME
350
E
  3
ACAD_SCALELIST
350
4A
  3
ACAD_VISUALSTYLE
350
2A
  3
AcDbVariableDictionary
350
510
  0
DICTIONARY
  5
D
102
{ACAD_REACTORS
330
C
102
}
330
C
100
AcDbDictionary
281
     1
  0
DICTIONARY
  5
1A
102
{ACAD_REACTORS
330
C
102
}
330
C
100
AcDbDictionary
281
     1
  3
Layout1
350
1E
  3
Layout2
350
26
  3
Model
350
22
  0
DICTIONARY
  5
512
102
{ACAD_REACTORS
330
C
102
}
330
C
100
AcDbDictionary
281
     1
  0
DICTIONARY
  5
17
102
{ACAD_REACTORS
330
C
102
}
330
C
100
AcDbDictionary
281
     1
  3
Standard
350
18
  0
DICTIONARY
  5
19
102
{ACAD_REACTORS
330
C
102
}
330
C
100
AcDbDictionary
281
     1
  0
ACDBDICTIONARYWDFLT
  5
E
102
{ACAD_REACTORS
330
C
102
}
330
C
100
AcDbDictionary
281
     1
  3
Normal
350
F
100
AcDbDictionaryWithDefault
340
F
  0
DICTIONARY
  5
4A
102
{ACAD_REACTORS
330
C
102
}
330
C
100
AcDbDictionary
281
     1
  3
A0
350
4B
  3
A1
350
4C
  3
A2
350
4D
  3
A3
350
4E
  3
A4
350
4F
  3
A5
350
50
  3
A6
350
51
  3
A7
350
52
  3
A8
350
53
  3
A9
350
54
  3
B0
350
55
  3
B1
350
56
  3
B2
350
57
  3
B3
350
58
  3
B4
350
59
  3
B5
350
5A
  3
B6
350
5B
  3
B7
350
5C
  3
B8
350
5D
  3
B9
350
5E
  3
C0
350
5F
  3
C1
350
60
  3
C2
350
61
  3
C3
350
62
  3
C4
350
63
  3
C5
350
64
  3
C6
350
65
  3
C7
350
66
  3
C8
350
67
  3
C9
350
68
  3
D0
350
69
  3
D1
350
6A
  3
D2
350
6B
  0
DICTIONARY
  5
2A
102
{ACAD_REACTORS
330
C
102
}
330
C
100
AcDbDictionary
281
     1
  3
2dWireframe
350
2F
  3
3D Hidden
350
31
  3
3dWireframe
350
30
  3
Basic
350
32
  3
Brighten
350
36
  3
ColorChange
350
3A
  3
Conceptual
350
34
  3
Dim
350
35
  3
Facepattern
350
39
  3
Flat
350
2B
  3
FlatWithEdges
350
2C
  3
Gouraud
350
2D
  3
GouraudWithEdges
350
2E
  3
Linepattern
350
38
  3
Realistic
350
33
  3
Thicken
350
37
  0
DICTIONARY
  5
510
102
{ACAD_REACTORS
330
C
102
}
330
C
100
AcDbDictionary
281
     1
  3
CANNOSCALE
350
513
  0
LAYOUT
  5
1E
102
{ACAD_REACTORS
330
1A
102
}
330
1A
100
AcDbPlotSettings
  1

  2
none_device
  4

  6

 40
0.0
 41
0.0
 42
0.0
 43
0.0
 44
0.0
 45
0.0
 46
0.0
 47
0.0
 48
0.0
 49
0.0
140
0.0
141
0.0
142
1.0
143
1.0
 70
   688
 72
     0
 73
     0
 74
     5
  7

 75
    16
147
1.0
148
0.0
149
0.0
100
AcDbLayout
  1
Layout1
 70
     1
 71
     1
 10
0.0
 20
0.0
 11
12.0
 21
9.0
 12
0.0
 22
0.0
 32
0.0
 14
1.00000000000000E+20
 24
1.00000000000000E+20
 34
1.00000000000000E+20
 15
-1.00000000000000E+20
 25
-1.00000000000000E+20
 35
-1.00000000000000E+20
146
0.0
 13
0.0
 23
0.0
 33
0.0
 16
1.0
 26
0.0
 36
0.0
 17
0.0
 27
1.0
 37
0.0
 76
     0
330
1B
  0
LAYOUT
  5
26
102
{ACAD_REACTORS
330
1A
102
}
330
1A
100
AcDbPlotSettings
  1

  2
none_device
  4

  6

 40
0.0
 41
0.0
 42
0.0
 43
0.0
 44
0.0
 45
0.0
 46
0.0
 47
0.0
 48
0.0
 49
0.0
140
0.0
141
0.0
142
1.0
143
1.0
 70
   688
 72
     0
 73
     0
 74
     5
  7

 75
    16
147
1.0
148
0.0
149
0.0
100
AcDbLayout
  1
Layout2
 70
     1
 71
     2
 10
0.0
 20
0.0
 11
0.0
 21
0.0
 12
0.0
 22
0.0
 32
0.0
 14
0.0
 24
0.0
 34
0.0
 15
0.0
 25
0.0
 35
0.0
146
0.0
 13
0.0
 23
0.0
 33
0.0
 16
1.0
 26
0.0
 36
0.0
 17
0.0
 27
1.0
 37
0.0
 76
     0
330
23
  0
LAYOUT
  5
22
102
{ACAD_REACTORS
330
1A
102
}
330
1A
100
AcDbPlotSettings
  1

  2
none_device
  4

  6

 40
0.0
 41
0.0
 42
0.0
 43
0.0
 44
0.0
 45
0.0
 46
0.0
 47
0.0
 48
0.0
 49
0.0
140
0.0
141
0.0
142
1.0
143
1.0
 70
  1712
 72
     0
 73
     0
 74
     0
  7

 75
     0
147
1.0
148
0.0
149
0.0
100
AcDbLayout
  1
Model
 70
     1
 71
     0
 10
0.0
 20
0.0
 11
12.0
 21
9.0
 12
0.0
 22
0.0
 32
0.0
 14
-419.9999999999993
 24
0.0
 34
0.0
 15
0.0
 25
297.0000000000003
 35
0.0
146
0.0
 13
0.0
 23
0.0
 33
0.0
 16
1.0
 26
0.0
 36
0.0
 17
0.0
 27
1.0
 37
0.0
 76
     0
330
1F
331
29
  0
MLINESTYLE
  5
18
102
{ACAD_REACTORS
330
17
102
}
330
17
100
AcDbMlineStyle
  2
Standard
 70
     0
  3

 62
   256
 51
90.0
 52
90.0
 71
     2
 49
0.5
 62
   256
  6
BYLAYER
 49
-0.5
 62
   256
  6
BYLAYER
  0
ACDBPLACEHOLDER
  5
F
102
{ACAD_REACTORS
330
E
102
}
330
E
  0
SCALE
  5
4B
102
{ACAD_REACTORS
330
4A
102
}
330
4A
100
AcDbScale
 70
     0
300
1:1
140
1.0
141
1.0
290
     1
  0
SCALE
  5
4C
102
{ACAD_REACTORS
330
4A
102
}
330
4A
100
AcDbScale
 70
     0
300
1:2
140
1.0
141
2.0
290
     0
  0
SCALE
  5
4D
102
{ACAD_REACTORS
330
4A
102
}
330
4A
100
AcDbScale
 70
     0
300
1:4
140
1.0
141
4.0
290
     0
  0
SCALE
  5
4E
102
{ACAD_REACTORS
330
4A
102
}
330
4A
100
AcDbScale
 70
     0
300
1:5
140
1.0
141
5.0
290
     0
  0
SCALE
  5
4F
102
{ACAD_REACTORS
330
4A
102
}
330
4A
100
AcDbScale
 70
     0
300
1:8
140
1.0
141
8.0
290
     0
  0
SCALE
  5
50
102
{ACAD_REACTORS
330
4A
102
}
330
4A
100
AcDbScale
 70
     0
300
1:10
140
1.0
141
10.0
290
     0
  0
SCALE
  5
51
102
{ACAD_REACTORS
330
4A
102
}
330
4A
100
AcDbScale
 70
     0
300
1:16
140
1.0
141
16.0
290
     0
  0
SCALE
  5
52
102
{ACAD_REACTORS
330
4A
102
}
330
4A
100
AcDbScale
 70
     0
300
1:20
140
1.0
141
20.0
290
     0
  0
SCALE
  5
53
102
{ACAD_REACTORS
330
4A
102
}
330
4A
100
AcDbScale
 70
     0
300
1:30
140
1.0
141
30.0
290
     0
  0
SCALE
  5
54
102
{ACAD_REACTORS
330
4A
102
}
330
4A
100
AcDbScale
 70
     0
300
1:40
140
1.0
141
40.0
290
     0
  0
SCALE
  5
55
102
{ACAD_REACTORS
330
4A
102
}
330
4A
100
AcDbScale
 70
     0
300
1:50
140
1.0
141
50.0
290
     0
  0
SCALE
  5
56
102
{ACAD_REACTORS
330
4A
102
}
330
4A
100
AcDbScale
 70
     0
300
1:100
140
1.0
141
100.0
290
     0
  0
SCALE
  5
57
102
{ACAD_REACTORS
330
4A
102
}
330
4A
100
AcDbScale
 70
     0
300
2:1
140
2.0
141
1.0
290
     0
  0
SCALE
  5
58
102
{ACAD_REACTORS
330
4A
102
}
330
4A
100
AcDbScale
 70
     0
300
4:1
140
4.0
141
1.0
290
     0
  0
SCALE
  5
59
102
{ACAD_REACTORS
330
4A
102
}
330
4A
100
AcDbScale
 70
     0
300
8:1
140
8.0
141
1.0
290
     0
  0
SCALE
  5
5A
102
{ACAD_REACTORS
330
4A
102
}
330
4A
100
AcDbScale
 70
     0
300
10:1
140
10.0
141
1.0
290
     0
  0
SCALE
  5
5B
102
{ACAD_REACTORS
330
4A
102
}
330
4A
100
AcDbScale
 70
     0
300
100:1
140
100.0
141
1.0
290
     0
  0
SCALE
  5
5C
102
{ACAD_REACTORS
330
4A
102
}
330
4A
100
AcDbScale
 70
     0
300
1/128" = 1'-0"
140
0.0078125
141
12.0
290
     0
  0
SCALE
  5
5D
102
{ACAD_REACTORS
330
4A
102
}
330
4A
100
AcDbScale
 70
     0
300
1/64" = 1'-0"
140
0.015625
141
12.0
290
     0
  0
SCALE
  5
5E
102
{ACAD_REACTORS
330
4A
102
}
330
4A
100
AcDbScale
 70
     0
300
1/32" = 1'-0"
140
0.03125
141
12.0
290
     0
  0
SCALE
  5
5F
102
{ACAD_REACTORS
330
4A
102
}
330
4A
100
AcDbScale
 70
     0
300
1/16" = 1'-0"
140
0.0625
141
12.0
290
     0
  0
SCALE
  5
60
102
{ACAD_REACTORS
330
4A
102
}
330
4A
100
AcDbScale
 70
     0
300
3/32" = 1'-0"
140
0.09375
141
12.0
290
     0
  0
SCALE
  5
61
102
{ACAD_REACTORS
330
4A
102
}
330
4A
100
AcDbScale
 70
     0
300
1/8" = 1'-0"
140
0.125
141
12.0
290
     0
  0
SCALE
  5
62
102
{ACAD_REACTORS
330
4A
102
}
330
4A
100
AcDbScale
 70
     0
300
3/16" = 1'-0"
140
0.1875
141
12.0
290
     0
  0
SCALE
  5
63
102
{ACAD_REACTORS
330
4A
102
}
330
4A
100
AcDbScale
 70
     0
300
1/4" = 1'-0"
140
0.25
141
12.0
290
     0
  0
SCALE
  5
64
102
{ACAD_REACTORS
330
4A
102
}
330
4A
100
AcDbScale
 70
     0
300
3/8" = 1'-0"
140
0.375
141
12.0
290
     0
  0
SCALE
  5
65
102
{ACAD_REACTORS
330
4A
102
}
330
4A
100
AcDbScale
 70
     0
300
1/2" = 1'-0"
140
0.5
141
12.0
290
     0
  0
SCALE
  5
66
102
{ACAD_REACTORS
330
4A
102
}
330
4A
100
AcDbScale
 70
     0
300
3/4" = 1'-0"
140
0.75
141
12.0
290
     0
  0
SCALE
  5
67
102
{ACAD_REACTORS
330
4A
102
}
330
4A
100
AcDbScale
 70
     0
300
1" = 1'-0"
140
1.0
141
12.0
290
     0
  0
SCALE
  5
68
102
{ACAD_REACTORS
330
4A
102
}
330
4A
100
AcDbScale
 70
     0
300
1-1/2" = 1'-0"
140
1.5
141
12.0
290
     0
  0
SCALE
  5
69
102
{ACAD_REACTORS
330
4A
102
}
330
4A
100
AcDbScale
 70
     0
300
3" = 1'-0"
140
3.0
141
12.0
290
     0
  0
SCALE
  5
6A
102
{ACAD_REACTORS
330
4A
102
}
330
4A
100
AcDbScale
 70
     0
300
6" = 1'-0"
140
6.0
141
12.0
290
     0
  0
SCALE
  5
6B
102
{ACAD_REACTORS
330
4A
102
}
330
4A
100
AcDbScale
 70
     0
300
1'-0" = 1'-0"
140
12.0
141
12.0
290
     0
  0
VISUALSTYLE
  5
2F
102
{ACAD_REACTORS
330
2A
102
}
330
2A
100
AcDbVisualStyle
  2
2dWireframe
 70
     4
 71
     0
 72
     2
 73
     0
 90
        0
 40
-0.6
 41
-30.0
 62
     5
 63
     7
 74
     1
 91
        4
 64
     7
 65
   257
 75
     1
175
     1
 42
1.0
 92
        0
 66
   257
 43
1.0
 76
     1
 77
     6
 78
     2
 67
     7
 79
     5
170
     0
171
     0
290
     0
174
     0
 93
        1
 44
0.0
173
     0
291
     0
 45
0.0
1001
ACAD
1000
AcDbSavedByObjectVersion
1070
     0
  0
VISUALSTYLE
  5
31
102
{ACAD_REACTORS
330
2A
102
}
330
2A
100
AcDbVisualStyle
  2
3D Hidden
 70
     6
 71
     1
 72
     2
 73
     2
 90
        0
 40
-0.6
 41
-30.0
 62
     5
 63
     7
 74
     2
 91
        2
 64
     7
 65
   257
 75
     2
175
     1
 42
40.0
 92
        0
 66
   257
 43
1.0
 76
     1
 77
     6
 78
     2
 67
     7
 79
     3
170
     0
171
     0
290
     0
174
     0
 93
        1
 44
0.0
173
     0
291
     0
 45
0.0
1001
ACAD
1000
AcDbSavedByObjectVersion
1070
     0
  0
VISUALSTYLE
  5
30
102
{ACAD_REACTORS
330
2A
102
}
330
2A
100
AcDbVisualStyle
  2
3dWireframe
 70
     5
 71
     0
 72
     2
 73
     0
 90
        0
 40
-0.6
 41
-30.0
 62
     5
 63
     7
 74
     1
 91
        4
 64
     7
 65
   257
 75
     1
175
     1
 42
1.0
 92
        0
 66
   257
 43
1.0
 76
     1
 77
     6
 78
     2
 67
     7
 79
     5
170
     0
171
     0
290
     0
174
     0
 93
        1
 44
0.0
173
     0
291
     0
 45
0.0
1001
ACAD
1000
AcDbSavedByObjectVersion
1070
     0
  0
VISUALSTYLE
  5
32
102
{ACAD_REACTORS
330
2A
102
}
330
2A
100
AcDbVisualStyle
  2
Basic
 70
     7
 71
     1
 72
     0
 73
     1
 90
        0
 40
-0.6
 41
-30.0
 62
     5
 63
     7
 74
     0
 91
        4
 64
     7
 65
   257
 75
     1
175
     1
 42
1.0
 92
        8
 66
     7
 43
1.0
 76
     1
 77
     6
 78
     2
 67
     7
 79
     5
170
     0
171
     0
290
     0
174
     0
 93
        1
 44
0.0
173
     0
291
     1
 45
0.0
1001
ACAD
1000
AcDbSavedByObjectVersion
1070
     0
  0
VISUALSTYLE
  5
36
102
{ACAD_REACTORS
330
2A
102
}
330
2A
100
AcDbVisualStyle
  2
Brighten
 70
    12
 71
     2
 72
     2
 73
     0
 90
        0
 40
-0.6
 41
-30.0
 62
     5
 63
     7
 74
     1
 91
        4
 64
     7
 65
   257
 75
     1
175
     1
 42
1.0
 92
        8
 66
     7
 43
1.0
 76
     1
 77
     6
 78
     2
 67
     7
 79
     5
170
     0
171
     0
290
     0
174
     0
 93
        1
 44
50.0
173
     0
291
     1
 45
0.0
1001
ACAD
1000
AcDbSavedByObjectVersion
1070
     0
  0
VISUALSTYLE
  5
3A
102
{ACAD_REACTORS
330
2A
102
}
330
2A
100
AcDbVisualStyle
  2
ColorChange
 70
    16
 71
     2
 72
     2
 73
     3
 90
        0
 40
-0.6
 41
-30.0
 62
     5
 63
     8
 74
     1
 91
        4
 64
     7
 65
   257
 75
     1
175
     1
 42
1.0
 92
        8
 66
     8
 43
1.0
 76
     1
 77
     6
 78
     2
 67
     7
 79
     5
170
     0
171
     0
290
     0
174
     0
 93
        1
 44
0.0
173
     0
291
     1
 45
0.0
1001
ACAD
1000
AcDbSavedByObjectVersion
1070
     0
  0
VISUALSTYLE
  5
34
102
{ACAD_REACTORS
330
2A
102
}
330
2A
100
AcDbVisualStyle
  2
Conceptual
 70
     9
 71
     3
 72
     2
 73
     0
 90
        0
 40
-0.6
 41
-30.0
 62
     5
 63
     7
 74
     2
 91
        2
 64
     7
 65
   257
 75
     1
175
     1
 42
40.0
 92
        8
 66
     7
 43
1.0
 76
     1
 77
     6
 78
     2
 67
     7
 79
     3
170
     0
171
     0
290
     0
174
     0
 93
        1
 44
0.0
173
     0
291
     0
 45
0.0
1001
ACAD
1000
AcDbSavedByObjectVersion
1070
     0
  0
VISUALSTYLE
  5
35
102
{ACAD_REACTORS
330
2A
102
}
330
2A
100
AcDbVisualStyle
  2
Dim
 70
    11
 71
     2
 72
     2
 73
     0
 90
        0
 40
-0.6
 41
-30.0
 62
     5
 63
     7
 74
     1
 91
        4
 64
     7
 65
   257
 75
     1
175
     1
 42
1.0
 92
        8
 66
     7
 43
1.0
 76
     1
 77
     6
 78
     2
 67
     7
 79
     5
170
     0
171
     0
290
     0
174
     0
 93
        1
 44
-50.0
173
     0
291
     1
 45
0.0
1001
ACAD
1000
AcDbSavedByObjectVersion
1070
     0
  0
VISUALSTYLE
  5
39
102
{ACAD_REACTORS
330
2A
102
}
330
2A
100
AcDbVisualStyle
  2
Facepattern
 70
    15
 71
     2
 72
     2
 73
     0
 90
        0
 40
-0.6
 41
-30.0
 62
     5
 63
     7
 74
     1
 91
        4
 64
     7
 65
   257
 75
     1
175
     1
 42
1.0
 92
        8
 66
     7
 43
1.0
 76
     1
 77
     6
 78
     2
 67
     7
 79
     5
170
     0
171
     0
290
     0
174
     0
 93
        1
 44
0.0
173
     0
291
     1
 45
0.0
1001
ACAD
1000
AcDbSavedByObjectVersion
1070
     0
  0
VISUALSTYLE
  5
2B
102
{ACAD_REACTORS
330
2A
102
}
330
2A
100
AcDbVisualStyle
  2
Flat
 70
     0
 71
     2
 72
     1
 73
     1
 90
        2
 40
-0.6
 41
30.0
 62
     5
 63
     7
 74
     0
 91
        4
 64
     7
 65
   257
 75
     1
175
     1
 42
1.0
 92
        8
 66
     7
 43
1.0
 76
     1
 77
     6
 78
     2
 67
     7
 79
     5
170
     0
171
     0
290
     0
174
     0
 93
       13
 44
0.0
173
     0
291
     1
 45
0.0
1001
ACAD
1000
AcDbSavedByObjectVersion
1070
     0
  0
VISUALSTYLE
  5
2C
102
{ACAD_REACTORS
330
2A
102
}
330
2A
100
AcDbVisualStyle
  2
FlatWithEdges
 70
     1
 71
     2
 72
     1
 73
     1
 90
        2
 40
-0.6
 41
30.0
 62
     5
 63
     7
 74
     1
 91
        4
 64
     7
 65
   257
 75
     1
175
     1
 42
1.0
 92
        0
 66
   257
 43
1.0
 76
     1
 77
     6
 78
     2
 67
     7
 79
     5
170
     0
171
     0
290
     0
174
     0
 93
       13
 44
0.0
173
     0
291
     1
 45
0.0
1001
ACAD
1000
AcDbSavedByObjectVersion
1070
     0
  0
VISUALSTYLE
  5
2D
102
{ACAD_REACTORS
330
2A
102
}
330
2A
100
AcDbVisualStyle
  2
Gouraud
 70
     2
 71
     2
 72
     2
 73
     1
 90
        2
 40
-0.6
 41
30.0
 62
     5
 63
     7
 74
     0
 91
        4
 64
     7
 65
   257
 75
     1
175
     1
 42
1.0
 92
        0
 66
     7
 43
1.0
 76
     1
 77
     6
 78
     2
 67
     7
 79
     5
170
     0
171
     0
290
     0
174
     0
 93
       13
 44
0.0
173
     0
291
     1
 45
0.0
1001
ACAD
1000
AcDbSavedByObjectVersion
1070
     0
  0
VISUALSTYLE
  5
2E
102
{ACAD_REACTORS
330
2A
102
}
330
2A
100
AcDbVisualStyle
  2
GouraudWithEdges
 70
     3
 71
     2
 72
     2
 73
     1
 90
        2
 40
-0.6
 41
30.0
 62
     5
 63
     7
 74
     1
 91
        4
 64
     7
 65
   257
 75
     1
175
     1
 42
1.0
 92
        0
 66
   257
 43
1.0
 76
     1
 77
     6
 78
     2
 67
     7
 79
     5
170
     0
171
     0
290
     0
174
     0
 93
       13
 44
0.0
173
     0
291
     1
 45
0.0
1001
ACAD
1000
AcDbSavedByObjectVersion
1070
     0
  0
VISUALSTYLE
  5
38
102
{ACAD_REACTORS
330
2A
102
}
330
2A
100
AcDbVisualStyle
  2
Linepattern
 70
    14
 71
     2
 72
     2
 73
     0
 90
        0
 40
-0.6
 41
-30.0
 62
     5
 63
     7
 74
     1
 91
        4
 64
     7
 65
   257
 75
     7
175
     7
 42
1.0
 92
        8
 66
     7
 43
1.0
 76
     1
 77
     6
 78
     2
 67
     7
 79
     5
170
     0
171
     0
290
     0
174
     0
 93
        1
 44
0.0
173
     0
291
     1
 45
0.0
1001
ACAD
1000
AcDbSavedByObjectVersion
1070
     0
  0
VISUALSTYLE
  5
33
102
{ACAD_REACTORS
330
2A
102
}
330
2A
100
AcDbVisualStyle
  2
Realistic
 70
     8
 71
     2
 72
     2
 73
     0
 90
        0
 40
-0.6
 41
-30.0
 62
     5
 63
     7
 74
     1
 91
        0
 64
     7
 65
   257
 75
     1
175
     1
 42
1.0
 92
        8
 66
     8
 43
1.0
 76
     1
 77
     6
 78
     2
 67
     7
 79
     5
170
     0
171
     0
290
     0
174
     0
 93
       13
 44
0.0
173
     0
291
     0
 45
0.0
1001
ACAD
1000
AcDbSavedByObjectVersion
1070
     0
  0
VISUALSTYLE
  5
37
102
{ACAD_REACTORS
330
2A
102
}
330
2A
100
AcDbVisualStyle
  2
Thicken
 70
    13
 71
     2
 72
     2
 73
     0
 90
        0
 40
-0.6
 41
-30.0
 62
     5
 63
     7
 74
     1
 91
        4
 64
     7
 65
   257
 75
     1
175
     1
 42
1.0
 92
       12
 66
     7
 43
1.0
 76
     1
 77
     6
 78
     2
 67
     7
 79
     5
170
     0
171
     0
290
     0
174
     0
 93
        1
 44
0.0
173
     0
291
     1
 45
0.0
1001
ACAD
1000
AcDbSavedByObjectVersion
1070
     0
  0
DICTIONARYVAR
  5
513
102
{ACAD_REACTORS
330
510
102
}
330
510
100
DictionaryVariables
280
     0
  1
1:1
  0
ENDSEC
  0
EOF
