  0
SECTION
  2
HEADER
  9
$ACADVER
  1
AC1015
  9
$ACADMAINTVER
 70
     6
  9
$DWGCODEPAGE
  3
ANSI_1252
  9
$INSBASE
 10
0.0
 20
0.0
 30
0.0
  9
$EXTMIN
 10
943.9342064489174
 20
-440.5780292524814
 30
0.0
  9
$EXTMAX
 10
1363.934206448917
 20
-143.5780292524814
 30
0.0
  9
$LIMMIN
 10
0.0
 20
0.0
  9
$LIMMAX
 10
12.0
 20
9.0
  9
$ORTHOMODE
 70
     0
  9
$REGENMODE
 70
     1
  9
$FILLMODE
 70
     1
  9
$QTEXTMODE
 70
     0
  9
$MIRRTEXT
 70
     1
  9
$LTSCALE
 40
1.0
  9
$ATTMODE
 70
     1
  9
$TEXTSIZE
 40
0.2
  9
$TRACEWID
 40
0.05
  9
$TEXTSTYLE
  7
Standard
  9
$CLAYER
  8
0
  9
$CELTYPE
  6
ByLayer
  9
$CECOLOR
 62
   256
  9
$CELTSCALE
 40
1.0
  9
$DISPSILH
 70
     0
  9
$DIMSCALE
 40
1.0
  9
$DIMASZ
 40
0.18
  9
$DIMEXO
 40
0.0625
  9
$DIMDLI
 40
0.38
  9
$DIMRND
 40
0.0
  9
$DIMDLE
 40
0.0
  9
$DIMEXE
 40
0.18
  9
$DIMTP
 40
0.0
  9
$DIMTM
 40
0.0
  9
$DIMTXT
 40
0.18
  9
$DIMCEN
 40
0.09
  9
$DIMTSZ
 40
0.0
  9
$DIMTOL
 70
     0
  9
$DIMLIM
 70
     0
  9
$DIMTIH
 70
     1
  9
$DIMTOH
 70
     1
  9
$DIMSE1
 70
     0
  9
$DIMSE2
 70
     0
  9
$DIMTAD
 70
     0
  9
$DIMZIN
 70
     0
  9
$DIMBLK
  1

  9
$DIMASO
 70
     1
  9
$DIMSHO
 70
     1
  9
$DIMPOST
  1

  9
$DIMAPOST
  1

  9
$DIMALT
 70
     0
  9
$DIMALTD
 70
     2
  9
$DIMALTF
 40
25.4
  9
$DIMLFAC
 40
1.0
  9
$DIMTOFL
 70
     0
  9
$DIMTVP
 40
0.0
  9
$DIMTIX
 70
     0
  9
$DIMSOXD
 70
     0
  9
$DIMSAH
 70
     0
  9
$DIMBLK1
  1

  9
$DIMBLK2
  1

  9
$DIMSTYLE
  2
Standard
  9
$DIMCLRD
 70
     0
  9
$DIMCLRE
 70
     0
  9
$DIMCLRT
 70
     0
  9
$DIMTFAC
 40
1.0
  9
$DIMGAP
 40
0.09
  9
$DIMJUST
 70
     0
  9
$DIMSD1
 70
     0
  9
$DIMSD2
 70
     0
  9
$DIMTOLJ
 70
     1
  9
$DIMTZIN
 70
     0
  9
$DIMALTZ
 70
     0
  9
$DIMALTTZ
 70
     0
  9
$DIMUPT
 70
     0
  9
$DIMDEC
 70
     4
  9
$DIMTDEC
 70
     4
  9
$DIMALTU
 70
     2
  9
$DIMALTTD
 70
     2
  9
$DIMTXSTY
  7
Standard
  9
$DIMAUNIT
 70
     0
  9
$DIMADEC
 70
     0
  9
$DIMALTRND
 40
0.0
  9
$DIMAZIN
 70
     0
  9
$DIMDSEP
 70
    46
  9
$DIMATFIT
 70
     3
  9
$DIMFRAC
 70
     0
  9
$DIMLDRBLK
  1

  9
$DIMLUNIT
 70
     2
  9
$DIMLWD
 70
    -2
  9
$DIMLWE
 70
    -2
  9
$DIMTMOVE
 70
     0
  9
$LUNITS
 70
     2
  9
$LUPREC
 70
     4
  9
$SKETCHINC
 40
0.1
  9
$FILLETRAD
 40
0.5
  9
$AUNITS
 70
     0
  9
$AUPREC
 70
     0
  9
$MENU
  1
.
  9
$ELEVATION
 40
0.0
  9
$PELEVATION
 40
0.0
  9
$THICKNESS
 40
0.0
  9
$LIMCHECK
 70
     0
  9
$CHAMFERA
 40
0.5
  9
$CHAMFERB
 40
0.5
  9
$CHAMFERC
 40
1.0
  9
$CHAMFERD
 40
0.0
  9
$SKPOLY
 70
     0
  9
$TDCREATE
 40
2455569.574576655
  9
$TDUCREATE
 40
2455569.532909988
  9
$TDUPDATE
 40
2455569.574576667
  9
$TDUUPDATE
 40
2455569.53291
  9
$TDINDWG
 40
0.0000000116
  9
$TDUSRTIMER
 40
0.0000000116
  9
$USRTIMER
 70
     1
  9
$ANGBASE
 50
0.0
  9
$ANGDIR
 70
     0
  9
$PDMODE
 70
     0
  9
$PDSIZE
 40
0.0
  9
$PLINEWID
 40
0.0
  9
$SPLFRAME
 70
     0
  9
$SPLINETYPE
 70
     6
  9
$SPLINESEGS
 70
     8
  9
$HANDSEED
  5
534
  9
$SURFTAB1
 70
     6
  9
$SURFTAB2
 70
     6
  9
$SURFTYPE
 70
     6
  9
$SURFU
 70
     6
  9
$SURFV
 70
     6
  9
$UCSBASE
  2

  9
$UCSNAME
  2

  9
$UCSORG
 10
0.0
 20
0.0
 30
0.0
  9
$UCSXDIR
 10
1.0
 20
0.0
 30
0.0
  9
$UCSYDIR
 10
0.0
 20
1.0
 30
0.0
  9
$UCSORTHOREF
  2

  9
$UCSORTHOVIEW
 70
     0
  9
$UCSORGTOP
 10
0.0
 20
0.0
 30
0.0
  9
$UCSORGBOTTOM
 10
0.0
 20
0.0
 30
0.0
  9
$UCSORGLEFT
 10
0.0
 20
0.0
 30
0.0
  9
$UCSORGRIGHT
 10
0.0
 20
0.0
 30
0.0
  9
$UCSORGFRONT
 10
0.0
 20
0.0
 30
0.0
  9
$UCSORGBACK
 10
0.0
 20
0.0
 30
0.0
  9
$PUCSBASE
  2

  9
$PUCSNAME
  2

  9
$PUCSORG
 10
0.0
 20
0.0
 30
0.0
  9
$PUCSXDIR
 10
1.0
 20
0.0
 30
0.0
  9
$PUCSYDIR
 10
0.0
 20
1.0
 30
0.0
  9
$PUCSORTHOREF
  2

  9
$PUCSORTHOVIEW
 70
     0
  9
$PUCSORGTOP
 10
0.0
 20
0.0
 30
0.0
  9
$PUCSORGBOTTOM
 10
0.0
 20
0.0
 30
0.0
  9
$PUCSORGLEFT
 10
0.0
 20
0.0
 30
0.0
  9
$PUCSORGRIGHT
 10
0.0
 20
0.0
 30
0.0
  9
$PUCSORGFRONT
 10
0.0
 20
0.0
 30
0.0
  9
$PUCSORGBACK
 10
0.0
 20
0.0
 30
0.0
  9
$USERI1
 70
     0
  9
$USERI2
 70
     0
  9
$USERI3
 70
     0
  9
$USERI4
 70
     0
  9
$USERI5
 70
     0
  9
$USERR1
 40
16.5
  9
$USERR2
 40
0.0
  9
$USERR3
 40
0.0
  9
$USERR4
 40
0.0
  9
$USERR5
 40
0.0
  9
$WORLDVIEW
 70
     1
  9
$SHADEDGE
 70
     3
  9
$SHADEDIF
 70
    70
  9
$TILEMODE
 70
     1
  9
$MAXACTVP
 70
    64
  9
$PINSBASE
 10
0.0
 20
0.0
 30
0.0
  9
$PLIMCHECK
 70
     0
  9
$PEXTMIN
 10
1.00000000000000E+20
 20
1.00000000000000E+20
 30
1.00000000000000E+20
  9
$PEXTMAX
 10
-1.00000000000000E+20
 20
-1.00000000000000E+20
 30
-1.00000000000000E+20
  9
$PLIMMIN
 10
0.0
 20
0.0
  9
$PLIMMAX
 10
12.0
 20
9.0
  9
$UNITMODE
 70
     0
  9
$VISRETAIN
 70
     1
  9
$PLINEGEN
 70
     0
  9
$PSLTSCALE
 70
     1
  9
$TREEDEPTH
 70
  3020
  9
$CMLSTYLE
  2
Standard
  9
$CMLJUST
 70
     0
  9
$CMLSCALE
 40
1.0
  9
$PROXYGRAPHICS
 70
     1
  9
$MEASUREMENT
 70
     1
  9
$CELWEIGHT
370
    -1
  9
$ENDCAPS
280
     0
  9
$JOINSTYLE
280
     0
  9
$LWDISPLAY
290
     0
  9
$INSUNITS
 70
     1
  9
$HYPERLINKBASE
  1

  9
$STYLESHEET
  1

  9
$XEDIT
290
     1
  9
$CEPSNTYPE
380
     0
  9
$PSTYLEMODE
290
     1
  9
$FINGERPRINTGUID
  2
{052BD8CE-5759-401C-B24F-31683AC20F35}
  9
$VERSIONGUID
  2
{FAEB1C32-E019-11D5-929B-00C0DF256EC4}
  9
$EXTNAMES
290
     1
  9
$PSVPSCALE
 40
0.0
  9
$OLESTARTUP
290
     0
  0
ENDSEC
  0
SECTION
  2
CLASSES
  0
CLASS
  1
ACDBDICTIONARYWDFLT
  2
AcDbDictionaryWithDefault
  3
ObjectDBX Classes
 90
        0
280
     0
281
     0
  0
CLASS
  1
VISUALSTYLE
  2
AcDbVisualStyle
  3
ObjectDBX Classes
 90
     4095
280
     0
281
     0
  0
CLASS
  1
SCALE
  2
AcDbScale
  3
ObjectDBX Classes
 90
     1153
280
     0
281
     0
  0
CLASS
  1

  2
exOdDbCircle
  3

 90
        0
280
     0
281
     1
  0
CLASS
  1

  2
exOdDbPolyline
  3

 90
        0
280
     0
281
     1
  0
CLASS
  1
DICTIONARYVAR
  2
AcDbDictionaryVar
  3
ObjectDBX Classes
 90
        0
280
     0
281
     0
  0
CLASS
  1
ACDBPLACEHOLDER
  2
AcDbPlaceHolder
  3
ObjectDBX Classes
 90
        0
280
     0
281
     0
  0
CLASS
  1
LAYOUT
  2
AcDbLayout
  3
ObjectDBX Classes
 90
        0
280
     0
281
     0
  0
ENDSEC
  0
SECTION
  2
TABLES
  0
TABLE
  2
VPORT
  5
8
330
0
100
AcDbSymbolTable
 70
     1
  0
VPORT
  5
29
330
8
100
AcDbSymbolTableRecord
100
AcDbViewportTableRecord
  2
*Active
 70
     0
 10
0.0
 20
0.0
 11
1.0
 21
1.0
 12
1153.934206448917
 22
-292.0780292524814
 13
0.0
 23
0.0
 14
0.5
 24
0.5
 15
0.5
 25
0.5
 16
0.0
 26
0.0
 36
1.0
 17
0.0
 27
0.0
 37
0.0
 40
326.7
 41
1.60267857142857
 42
50.0
 43
0.0
 44
0.0
 50
0.0
 51
0.0
 71
     0
 72
   100
 73
     1
 74
     3
 75
     0
 76
     0
 77
     0
 78
     0
281
     0
 65
     1
110
0.0
120
0.0
130
0.0
111
1.0
121
0.0
131
0.0
112
0.0
122
1.0
132
0.0
 79
     0
146
0.0
  0
ENDTAB
  0
TABLE
  2
LTYPE
  5
5
330
0
100
AcDbSymbolTable
 70
     8
  0
LTYPE
  5
14
330
5
100
AcDbSymbolTableRecord
100
AcDbLinetypeTableRecord
  2
ByBlock
 70
     0
  3

 72
    65
 73
     0
 40
0.0
  0
LTYPE
  5
15
330
5
100
AcDbSymbolTableRecord
100
AcDbLinetypeTableRecord
  2
ByLayer
 70
     0
  3

 72
    65
 73
     0
 40
0.0
  0
LTYPE
  5
16
330
5
100
AcDbSymbolTableRecord
100
AcDbLinetypeTableRecord
  2
Continuous
 70
     0
  3
Solid line
 72
    65
 73
     0
 40
0.0
  0
LTYPE
  5
3B
330
5
100
AcDbSymbolTableRecord
100
AcDbLinetypeTableRecord
  2
DASHED
 70
     0
  3
Dashed
 72
    65
 73
     2
 40
15.0
 49
7.0
 74
     0
 49
-8.0
 74
     0
  0
LTYPE
  5
3C
330
5
100
AcDbSymbolTableRecord
100
AcDbLinetypeTableRecord
  2
DOTTED
 70
     0
  3
Dotted
 72
    65
 73
     2
 40
1.0
 49
0.0
 74
     0
 49
-1.0
 74
     0
  0
LTYPE
  5
3D
330
5
100
AcDbSymbolTableRecord
100
AcDbLinetypeTableRecord
  2
DOT_CENTER
 70
     0
  3
Dot_Center
 72
    65
 73
     4
 40
14.0
 49
12.0
 74
     0
 49
-1.0
 74
     0
 49
0.0
 74
     0
 49
-1.0
 74
     0
  0
LTYPE
  5
3E
330
5
100
AcDbSymbolTableRecord
100
AcDbLinetypeTableRecord
  2
LONG_DASHED
 70
     0
  3
Long_Dashed
 72
    65
 73
     2
 40
15.0
 49
10.0
 74
     0
 49
-5.0
 74
     0
  0
LTYPE
  5
3F
330
5
100
AcDbSymbolTableRecord
100
AcDbLinetypeTableRecord
  2
DASH_CENTER
 70
     0
  3
Dash_Center
 72
    65
 73
     4
 40
14.0
 49
11.0
 74
     0
 49
-1.0
 74
     0
 49
1.0
 74
     0
 49
-1.0
 74
     0
  0
LTYPE
  5
40
330
5
100
AcDbSymbolTableRecord
100
AcDbLinetypeTableRecord
  2
PHANTOM
 70
     0
  3
Phantom
 72
    65
 73
     6
 40
13.0
 49
10.0
 74
     0
 49
-1.0
 74
     0
 49
0.0
 74
     0
 49
-1.0
 74
     0
 49
0.0
 74
     0
 49
-1.0
 74
     0
  0
LTYPE
  5
41
330
5
100
AcDbSymbolTableRecord
100
AcDbLinetypeTableRecord
  2
CENTER_DASH_DASH
 70
     0
  3
Center_Dash_Dash
 72
    65
 73
     6
 40
14.0
 49
9.0
 74
     0
 49
-1.0
 74
     0
 49
1.0
 74
     0
 49
-1.0
 74
     0
 49
1.0
 74
     0
 49
-1.0
 74
     0
  0
ENDTAB
  0
TABLE
  2
LAYER
  5
2
330
0
100
AcDbSymbolTable
 70
     2
  0
LAYER
  5
10
330
2
100
AcDbSymbolTableRecord
100
AcDbLayerTableRecord
  2
0
 70
     0
 62
     7
  6
Continuous
370
    -3
390
F
  0
LAYER
  5
42
330
2
100
AcDbSymbolTableRecord
100
AcDbLayerTableRecord
  2
1
 70
     0
 62
     7
  6
Continuous
370
    -3
390
F
  0
ENDTAB
  0
TABLE
  2
STYLE
  5
3
330
0
100
AcDbSymbolTable
 70
     2
  0
STYLE
  5
11
330
3
100
AcDbSymbolTableRecord
100
AcDbTextStyleTableRecord
  2
Standard
 70
     0
 40
0.0
 41
1.0
 50
0.0
 71
     0
 42
0.2
  3
txt
  4

  0
STYLE
  5
E6
330
3
100
AcDbSymbolTableRecord
100
AcDbTextStyleTableRecord
  2
CONVERTER_11
 70
     0
 40
0.0
 41
0.9
 50
0.0
 71
     0
 42
0.2
  3
txt.shx
  4

  0
ENDTAB
  0
TABLE
  2
VIEW
  5
6
330
0
100
AcDbSymbolTable
 70
     0
  0
ENDTAB
  0
TABLE
  2
UCS
  5
7
330
0
100
AcDbSymbolTable
 70
     0
  0
ENDTAB
  0
TABLE
  2
APPID
  5
9
330
0
100
AcDbSymbolTable
 70
     1
  0
APPID
  5
12
330
9
100
AcDbSymbolTableRecord
100
AcDbRegAppTableRecord
  2
ACAD
 70
     0
  0
ENDTAB
  0
TABLE
  2
DIMSTYLE
  5
A
330
0
100
AcDbSymbolTable
 70
    53
100
AcDbDimStyleTable
  0
DIMSTYLE
105
27
330
A
100
AcDbSymbolTableRecord
100
AcDbDimStyleTableRecord
  2
Standard
 70
     0
340
11
  0
DIMSTYLE
105
29E
102
{ACAD_REACTORS
330
29F
102
}
330
A
100
AcDbSymbolTableRecord
100
AcDbDimStyleTableRecord
  2
ME10_DIM_10
 70
     0
 41
4.375
 42
0.0
 44
2.5
 73
     0
 74
     0
 77
     1
 78
     8
140
6.25
147
2.5
172
     1
173
     1
176
     2
177
     2
178
     2
271
     2
340
E6
  0
DIMSTYLE
105
2A9
102
{ACAD_REACTORS
330
2AA
102
}
330
A
100
AcDbSymbolTableRecord
100
AcDbDimStyleTableRecord
  2
ME10_DIM_11
 70
     0
 41
4.375
 42
0.0
 44
2.5
 73
     0
 74
     0
 77
     1
 78
     8
140
6.25
147
2.5
172
     1
173
     1
176
     2
177
     2
178
     2
271
     2
340
E6
  0
DIMSTYLE
105
2B7
102
{ACAD_REACTORS
330
2B8
102
}
330
A
100
AcDbSymbolTableRecord
100
AcDbDimStyleTableRecord
  2
ME10_DIM_12
 70
     0
 41
4.375
 42
0.0
 44
2.5
 73
     0
 74
     0
 77
     1
 78
     8
140
6.25
147
2.5
172
     1
173
     1
176
     2
177
     2
178
     2
271
     2
340
E6
  0
DIMSTYLE
105
2C4
102
{ACAD_REACTORS
330
2C5
102
}
330
A
100
AcDbSymbolTableRecord
100
AcDbDimStyleTableRecord
  2
ME10_DIM_13
 70
     0
 41
4.375
 42
0.0
 44
2.5
 73
     0
 74
     0
 77
     1
 78
     8
140
6.25
147
2.5
172
     1
173
     1
176
     2
177
     2
178
     2
271
     2
340
E6
  0
DIMSTYLE
105
2D1
102
{ACAD_REACTORS
330
2D2
102
}
330
A
100
AcDbSymbolTableRecord
100
AcDbDimStyleTableRecord
  2
ME10_DIM_14
 70
     0
 41
4.375
 42
0.0
 44
2.5
 73
     0
 74
     0
 77
     1
 78
     8
140
6.25
147
2.5
172
     1
173
     1
176
     2
177
     2
178
     2
271
     2
340
E6
  0
DIMSTYLE
105
2E0
102
{ACAD_REACTORS
330
2E1
102
}
330
A
100
AcDbSymbolTableRecord
100
AcDbDimStyleTableRecord
  2
ME10_DIM_15
 70
     0
 41
4.375
 42
0.0
 44
2.5
 73
     0
 74
     0
 77
     1
 78
     8
140
6.25
147
2.5
172
     1
173
     1
176
     2
177
     2
178
     2
271
     2
340
E6
  0
DIMSTYLE
105
2ED
102
{ACAD_REACTORS
330
2EE
102
}
330
A
100
AcDbSymbolTableRecord
100
AcDbDimStyleTableRecord
  2
ME10_DIM_16
 70
     0
 41
4.375
 42
0.0
 44
2.5
 73
     0
 74
     0
 77
     1
 78
     8
140
6.25
147
2.5
172
     1
173
     1
176
     2
177
     2
178
     2
271
     2
340
E6
  0
DIMSTYLE
105
2FA
102
{ACAD_REACTORS
330
2FB
102
}
330
A
100
AcDbSymbolTableRecord
100
AcDbDimStyleTableRecord
  2
ME10_DIM_17
 70
     0
 41
4.375
 42
0.0
 44
2.5
 73
     0
 74
     0
 77
     1
 78
     8
140
6.25
147
2.5
172
     1
173
     1
176
     2
177
     2
178
     2
271
     2
340
E6
  0
DIMSTYLE
105
307
102
{ACAD_REACTORS
330
308
102
}
330
A
100
AcDbSymbolTableRecord
100
AcDbDimStyleTableRecord
  2
ME10_DIM_18
 70
     0
  3
x45·
 41
4.375
 42
0.0
 44
2.5
 73
     0
 74
     0
 77
     1
 78
     8
140
6.25
147
2.5
172
     1
173
     1
176
     2
177
     2
178
     2
271
     2
340
E6
  0
DIMSTYLE
105
312
102
{ACAD_REACTORS
330
313
102
}
330
A
100
AcDbSymbolTableRecord
100
AcDbDimStyleTableRecord
  2
ME10_DIM_19
 70
     0
 41
4.375
 42
0.0
 44
2.5
 73
     0
 74
     0
 77
     1
 78
     8
140
6.25
147
2.5
172
     1
173
     1
176
     2
177
     2
178
     2
271
     2
340
E6
  0
DIMSTYLE
105
322
102
{ACAD_REACTORS
330
323
102
}
330
A
100
AcDbSymbolTableRecord
100
AcDbDimStyleTableRecord
  2
ME10_DIM_20
 70
     0
 41
4.375
 42
0.0
 44
2.5
 73
     0
 74
     0
 77
     1
 78
     8
140
6.25
147
2.5
172
     1
173
     1
176
     2
177
     2
178
     2
271
     2
340
E6
344
31E
  0
DIMSTYLE
105
32E
102
{ACAD_REACTORS
330
32F
102
}
330
A
100
AcDbSymbolTableRecord
100
AcDbDimStyleTableRecord
  2
ME10_DIM_21
 70
     0
 41
4.375
 42
0.0
 44
2.5
 73
     0
 74
     0
 77
     1
 78
     8
140
6.25
147
2.5
172
     1
173
     1
176
     2
177
     2
178
     2
271
     2
340
E6
343
31E
  0
DIMSTYLE
105
339
102
{ACAD_REACTORS
330
33A
102
}
330
A
100
AcDbSymbolTableRecord
100
AcDbDimStyleTableRecord
  2
ME10_DIM_22
 70
     0
  3
ø<>
 41
4.375
 42
0.0
 44
2.5
 73
     0
 74
     0
 77
     1
 78
     8
140
6.25
147
2.5
172
     1
173
     1
176
     2
177
     2
178
     2
271
     2
340
E6
  0
DIMSTYLE
105
345
102
{ACAD_REACTORS
330
346
102
}
330
A
100
AcDbSymbolTableRecord
100
AcDbDimStyleTableRecord
  2
ME10_DIM_23
 70
     0
  3
ø<>-j7
 41
4.375
 42
0.0
 44
2.5
 73
     0
 74
     0
 77
     1
 78
     8
140
6.25
147
2.5
172
     1
173
     1
176
     2
177
     2
178
     2
271
     2
340
E6
  0
DIMSTYLE
105
350
102
{ACAD_REACTORS
330
351
102
}
330
A
100
AcDbSymbolTableRecord
100
AcDbDimStyleTableRecord
  2
ME10_DIM_24
 70
     0
 41
4.375
 42
0.0
 44
2.5
 73
     0
 74
     0
 77
     1
 78
     8
140
6.25
147
2.5
172
     1
173
     1
176
     2
177
     2
178
     2
271
     2
340
E6
  0
DIMSTYLE
105
35D
102
{ACAD_REACTORS
330
35E
102
}
330
A
100
AcDbSymbolTableRecord
100
AcDbDimStyleTableRecord
  2
ME10_DIM_25
 70
     0
 41
4.375
 42
0.0
 44
2.5
 73
     0
 74
     0
 77
     1
 78
     8
140
6.25
147
2.5
172
     1
173
     1
176
     2
177
     2
178
     2
271
     2
340
E6
  0
DIMSTYLE
105
36A
102
{ACAD_REACTORS
330
36B
102
}
330
A
100
AcDbSymbolTableRecord
100
AcDbDimStyleTableRecord
  2
ME10_DIM_26
 70
     0
 41
4.375
 42
0.0
 44
2.5
 73
     0
 74
     0
 77
     1
 78
     8
140
6.25
147
2.5
172
     1
173
     1
176
     2
177
     2
178
     2
271
     2
340
E6
  0
DIMSTYLE
105
378
102
{ACAD_REACTORS
330
379
102
}
330
A
100
AcDbSymbolTableRecord
100
AcDbDimStyleTableRecord
  2
ME10_DIM_27
 70
     0
 41
4.375
 42
0.0
 44
2.5
 73
     0
 74
     0
 77
     1
 78
     8
140
6.25
147
2.5
172
     1
173
     1
176
     2
177
     2
178
     2
271
     2
340
E6
  0
DIMSTYLE
105
383
102
{ACAD_REACTORS
330
384
102
}
330
A
100
AcDbSymbolTableRecord
100
AcDbDimStyleTableRecord
  2
ME10_DIM_28
 70
     0
 41
4.375
 42
0.0
 44
2.5
 73
     0
 74
     0
 77
     1
 78
     8
140
6.25
147
2.5
172
     1
173
     1
176
     2
177
     2
178
     2
271
     2
340
E6
  0
DIMSTYLE
105
390
102
{ACAD_REACTORS
330
391
102
}
330
A
100
AcDbSymbolTableRecord
100
AcDbDimStyleTableRecord
  2
ME10_DIM_29
 70
     0
 41
4.375
 42
0.0
 44
2.5
 73
     0
 74
     0
 77
     1
 78
     8
140
6.25
147
2.5
172
     1
173
     1
176
     2
177
     2
178
     2
271
     2
340
E6
  0
DIMSTYLE
105
39C
102
{ACAD_REACTORS
330
39D
102
}
330
A
100
AcDbSymbolTableRecord
100
AcDbDimStyleTableRecord
  2
ME10_DIM_30
 70
     0
  3
ø<>-j5
 41
4.375
 42
0.0
 44
2.5
 73
     0
 74
     0
 77
     1
 78
     8
140
6.25
147
2.5
172
     1
173
     1
176
     2
177
     2
178
     2
271
     2
340
E6
  0
DIMSTYLE
105
3A8
102
{ACAD_REACTORS
330
3A9
102
}
330
A
100
AcDbSymbolTableRecord
100
AcDbDimStyleTableRecord
  2
ME10_DIM_31
 70
     0
  3
ø<>-j5
 41
4.375
 42
0.0
 44
2.5
 73
     0
 74
     0
 77
     1
 78
     8
140
6.25
147
2.5
172
     1
173
     1
176
     2
177
     2
178
     2
271
     2
340
E6
  0
DIMSTYLE
105
3B3
102
{ACAD_REACTORS
330
3B4
102
}
330
A
100
AcDbSymbolTableRecord
100
AcDbDimStyleTableRecord
  2
ME10_DIM_32
 70
     0
 41
4.375
 42
0.0
 44
2.5
 73
     0
 74
     0
 77
     1
 78
     8
140
6.25
147
2.5
172
     1
173
     1
176
     2
177
     2
178
     2
271
     2
340
E6
  0
DIMSTYLE
105
3C0
102
{ACAD_REACTORS
330
3C1
102
}
330
A
100
AcDbSymbolTableRecord
100
AcDbDimStyleTableRecord
  2
ME10_DIM_33
 70
     0
 41
4.375
 42
0.0
 44
2.5
 73
     0
 74
     0
 77
     1
 78
     8
140
6.25
147
2.5
172
     1
173
     1
176
     2
177
     2
178
     2
271
     2
340
E6
  0
DIMSTYLE
105
3CB
102
{ACAD_REACTORS
330
3CC
102
}
330
A
100
AcDbSymbolTableRecord
100
AcDbDimStyleTableRecord
  2
ME10_DIM_34
 70
     0
  3
ø<>
 41
4.375
 42
0.0
 44
2.5
 73
     0
 74
     0
 77
     1
 78
     8
140
6.25
147
2.5
172
     1
173
     1
176
     2
177
     2
178
     2
271
     2
340
E6
  0
DIMSTYLE
105
3D8
102
{ACAD_REACTORS
330
3D9
102
}
330
A
100
AcDbSymbolTableRecord
100
AcDbDimStyleTableRecord
  2
ME10_DIM_35
 70
     0
 41
4.375
 42
0.0
 44
2.5
 73
     0
 74
     0
 77
     1
 78
     8
140
6.25
147
2.5
172
     1
173
     1
176
     2
177
     2
178
     2
271
     2
340
E6
  0
DIMSTYLE
105
3E5
102
{ACAD_REACTORS
330
3E6
102
}
330
A
100
AcDbSymbolTableRecord
100
AcDbDimStyleTableRecord
  2
ME10_DIM_36
 70
     0
 41
4.375
 42
0.0
 44
2.5
 73
     0
 74
     0
 77
     1
 78
     8
140
6.25
147
2.5
172
     1
173
     1
176
     2
177
     2
178
     2
271
     2
340
E6
  0
DIMSTYLE
105
3F1
102
{ACAD_REACTORS
330
3F2
102
}
330
A
100
AcDbSymbolTableRecord
100
AcDbDimStyleTableRecord
  2
ME10_DIM_37
 70
     0
 41
4.375
 42
0.0
 44
2.5
 73
     0
 74
     0
 77
     1
 78
     8
140
6.25
147
2.5
172
     1
173
     1
176
     2
177
     2
178
     2
271
     2
340
E6
  0
DIMSTYLE
105
3FC
102
{ACAD_REACTORS
330
3FD
102
}
330
A
100
AcDbSymbolTableRecord
100
AcDbDimStyleTableRecord
  2
ME10_DIM_38
 70
     0
 41
4.375
 42
0.0
 44
2.5
 73
     0
 74
     0
 77
     1
 78
     8
140
6.25
147
2.5
172
     1
173
     1
176
     2
177
     2
178
     2
271
     2
340
E6
  0
DIMSTYLE
105
408
102
{ACAD_REACTORS
330
409
102
}
330
A
100
AcDbSymbolTableRecord
100
AcDbDimStyleTableRecord
  2
ME10_DIM_39
 70
     0
 41
4.375
 42
0.0
 44
2.5
 73
     0
 74
     0
 77
     1
 78
     8
140
6.25
147
2.5
172
     1
173
     1
176
     2
177
     2
178
     2
271
     2
340
E6
  0
DIMSTYLE
105
413
102
{ACAD_REACTORS
330
414
102
}
330
A
100
AcDbSymbolTableRecord
100
AcDbDimStyleTableRecord
  2
ME10_DIM_40
 70
     0
 41
4.375
 42
0.0
 44
2.5
 73
     0
 74
     0
 77
     1
 78
     8
140
6.25
147
2.5
172
     1
173
     1
176
     2
177
     2
178
     2
271
     2
340
E6
  0
DIMSTYLE
105
41E
102
{ACAD_REACTORS
330
41F
102
}
330
A
100
AcDbSymbolTableRecord
100
AcDbDimStyleTableRecord
  2
ME10_DIM_41
 70
     0
 41
4.375
 42
0.0
 44
2.5
 73
     0
 74
     0
 77
     1
 78
     8
140
6.25
147
2.5
172
     1
173
     1
176
     2
177
     2
178
     2
271
     2
340
E6
  0
DIMSTYLE
105
429
102
{ACAD_REACTORS
330
42A
102
}
330
A
100
AcDbSymbolTableRecord
100
AcDbDimStyleTableRecord
  2
ME10_DIM_42
 70
     0
 41
4.375
 42
0.0
 44
2.5
 73
     0
 74
     0
 77
     1
 78
     8
140
6.25
147
2.5
172
     1
173
     1
176
     2
177
     2
178
     2
271
     2
340
E6
  0
DIMSTYLE
105
434
102
{ACAD_REACTORS
330
435
102
}
330
A
100
AcDbSymbolTableRecord
100
AcDbDimStyleTableRecord
  2
ME10_DIM_43
 70
     0
 41
4.375
 42
0.0
 44
2.5
 73
     0
 74
     0
 77
     1
 78
     8
140
6.25
147
2.5
172
     1
173
     1
176
     2
177
     2
178
     2
271
     2
340
E6
  0
DIMSTYLE
105
43F
102
{ACAD_REACTORS
330
440
102
}
330
A
100
AcDbSymbolTableRecord
100
AcDbDimStyleTableRecord
  2
ME10_DIM_44
 70
     0
 41
4.375
 42
0.0
 44
2.5
 73
     0
 74
     0
 77
     1
 78
     8
140
6.25
147
2.5
172
     1
173
     1
176
     2
177
     2
178
     2
271
     2
340
E6
  0
DIMSTYLE
105
44A
102
{ACAD_REACTORS
330
44B
102
}
330
A
100
AcDbSymbolTableRecord
100
AcDbDimStyleTableRecord
  2
ME10_DIM_45
 70
     0
 41
4.375
 42
0.0
 44
2.5
 73
     0
 74
     0
 77
     1
 78
     8
140
6.25
147
2.5
172
     1
173
     1
176
     2
177
     2
178
     2
271
     2
340
E6
  0
DIMSTYLE
105
455
102
{ACAD_REACTORS
330
456
102
}
330
A
100
AcDbSymbolTableRecord
100
AcDbDimStyleTableRecord
  2
ME10_DIM_46
 70
     0
 41
4.375
 42
0.0
 44
2.5
 73
     0
 74
     0
 77
     1
 78
     8
140
6.25
147
2.5
172
     1
173
     1
176
     2
177
     2
178
     2
271
     2
340
E6
  0
DIMSTYLE
105
462
102
{ACAD_REACTORS
330
463
102
}
330
A
100
AcDbSymbolTableRecord
100
AcDbDimStyleTableRecord
  2
ME10_DIM_47
 70
     0
 41
4.375
 42
0.0
 44
2.5
 73
     0
 74
     0
 77
     1
 78
     8
140
6.25
147
2.5
172
     1
173
     1
176
     2
177
     2
178
     2
271
     2
340
E6
  0
DIMSTYLE
105
46E
102
{ACAD_REACTORS
330
46F
102
}
330
A
100
AcDbSymbolTableRecord
100
AcDbDimStyleTableRecord
  2
ME10_DIM_48
 70
     0
 41
4.375
 42
0.0
 44
2.5
 73
     0
 74
     0
 77
     1
 78
     8
140
6.25
147
2.5
172
     1
173
     1
176
     2
177
     2
178
     2
271
     2
340
E6
  0
DIMSTYLE
105
47A
102
{ACAD_REACTORS
330
47B
102
}
330
A
100
AcDbSymbolTableRecord
100
AcDbDimStyleTableRecord
  2
ME10_DIM_49
 70
     0
 41
4.375
 42
0.0
 44
2.5
 73
     0
 74
     0
 77
     1
 78
     8
140
6.25
147
2.5
172
     1
173
     1
176
     2
177
     2
178
     2
271
     2
340
E6
  0
DIMSTYLE
105
487
102
{ACAD_REACTORS
330
488
102
}
330
A
100
AcDbSymbolTableRecord
100
AcDbDimStyleTableRecord
  2
ME10_DIM_50
 70
     0
 41
4.375
 42
0.0
 44
2.5
 73
     0
 74
     0
 77
     1
 78
     8
140
6.25
147
2.5
172
     1
173
     1
176
     2
177
     2
178
     2
271
     2
340
E6
  0
DIMSTYLE
105
492
102
{ACAD_REACTORS
330
493
102
}
330
A
100
AcDbSymbolTableRecord
100
AcDbDimStyleTableRecord
  2
ME10_DIM_51
 70
     0
 41
4.375
 42
0.0
 44
2.5
 73
     0
 74
     0
 77
     1
 78
     8
140
6.25
147
2.5
172
     1
173
     1
176
     2
177
     2
178
     2
271
     2
340
E6
  0
DIMSTYLE
105
49D
102
{ACAD_REACTORS
330
49E
102
}
330
A
100
AcDbSymbolTableRecord
100
AcDbDimStyleTableRecord
  2
ME10_DIM_52
 70
     0
 41
4.375
 42
0.0
 44
2.5
 73
     0
 74
     0
 77
     1
 78
     8
140
6.25
147
2.5
172
     1
173
     1
176
     2
177
     2
178
     2
271
     2
340
E6
  0
DIMSTYLE
105
4A8
102
{ACAD_REACTORS
330
4A9
102
}
330
A
100
AcDbSymbolTableRecord
100
AcDbDimStyleTableRecord
  2
ME10_DIM_53
 70
     0
 41
4.375
 42
0.0
 44
2.5
 73
     0
 74
     0
 77
     1
 78
     8
140
6.25
147
2.5
172
     1
173
     1
176
     2
177
     2
178
     2
271
     2
340
E6
  0
DIMSTYLE
105
4B4
102
{ACAD_REACTORS
330
4B5
102
}
330
A
100
AcDbSymbolTableRecord
100
AcDbDimStyleTableRecord
  2
ME10_DIM_54
 70
     0
 41
4.375
 42
0.0
 44
2.5
 73
     0
 74
     0
 77
     1
 78
     8
140
6.25
147
2.5
172
     1
173
     1
176
     2
177
     2
178
     2
271
     2
340
E6
  0
DIMSTYLE
105
4C0
102
{ACAD_REACTORS
330
4C1
102
}
330
A
100
AcDbSymbolTableRecord
100
AcDbDimStyleTableRecord
  2
ME10_DIM_55
 70
     0
 41
4.375
 42
0.0
 44
2.5
 73
     0
 74
     0
 77
     1
 78
     8
140
6.25
147
2.5
172
     1
173
     1
176
     2
177
     2
178
     2
271
     2
340
E6
  0
DIMSTYLE
105
4CD
102
{ACAD_REACTORS
330
4CE
102
}
330
A
100
AcDbSymbolTableRecord
100
AcDbDimStyleTableRecord
  2
ME10_DIM_56
 70
     0
 41
4.375
 42
0.0
 44
2.5
 73
     0
 74
     0
 77
     1
 78
     8
140
6.25
147
2.5
172
     1
173
     1
176
     2
177
     2
178
     2
271
     2
340
E6
  0
DIMSTYLE
105
4D8
102
{ACAD_REACTORS
330
4D9
102
}
330
A
100
AcDbSymbolTableRecord
100
AcDbDimStyleTableRecord
  2
ME10_DIM_57
 70
     0
 41
4.375
 42
0.0
 44
2.5
 73
     0
 74
     0
 77
     1
 78
     8
140
6.25
147
2.5
172
     1
173
     1
176
     2
177
     2
178
     2
271
     2
340
E6
  0
DIMSTYLE
105
4E3
102
{ACAD_REACTORS
330
4E4
102
}
330
A
100
AcDbSymbolTableRecord
100
AcDbDimStyleTableRecord
  2
ME10_DIM_58
 70
     0
 41
4.375
 42
0.0
 44
2.5
 73
     0
 74
     0
 77
     1
 78
     8
140
6.25
147
2.5
172
     1
173
     1
176
     2
177
     2
178
     2
271
     2
340
E6
  0
DIMSTYLE
105
4EE
102
{ACAD_REACTORS
330
4EF
102
}
330
A
100
AcDbSymbolTableRecord
100
AcDbDimStyleTableRecord
  2
ME10_DIM_59
 70
     0
 41
4.375
 42
0.0
 44
2.5
 73
     0
 74
     0
 77
     1
 78
     8
140
6.25
147
2.5
172
     1
173
     1
176
     2
177
     2
178
     2
271
     2
340
E6
  0
DIMSTYLE
105
4F9
102
{ACAD_REACTORS
330
4FA
102
}
330
A
100
AcDbSymbolTableRecord
100
AcDbDimStyleTableRecord
  2
ME10_DIM_60
 70
     0
 41
4.375
 42
0.0
 44
2.5
 73
     0
 74
     0
 77
     1
 78
     8
140
6.25
147
2.5
172
     1
173
     1
176
     2
177
     2
178
     2
271
     2
340
E6
  0
DIMSTYLE
105
506
102
{ACAD_REACTORS
330
507
102
}
330
A
100
AcDbSymbolTableRecord
100
AcDbDimStyleTableRecord
  2
ME10_DIM_61
 70
     0
 41
4.375
 42
0.0
 44
2.5
 73
     0
 74
     0
 77
     1
 78
     8
140
6.25
147
2.5
172
     1
173
     1
176
     2
177
     2
178
     2
271
     2
340
E6
  0
ENDTAB
  0
TABLE
  2
BLOCK_RECORD
  5
1
330
0
100
AcDbSymbolTable
 70
    61
  0
BLOCK_RECORD
  5
1F
330
1
100
AcDbSymbolTableRecord
100
AcDbBlockTableRecord
  2
*Model_Space
340
22
  0
BLOCK_RECORD
  5
1B
330
1
100
AcDbSymbolTableRecord
100
AcDbBlockTableRecord
  2
*Paper_Space
340
1E
  0
BLOCK_RECORD
  5
23
330
1
100
AcDbSymbolTableRecord
100
AcDbBlockTableRecord
  2
*Paper_Space0
340
26
  0
BLOCK_RECORD
  5
43
330
1
100
AcDbSymbolTableRecord
100
AcDbBlockTableRecord
  2
Top__1
340
0
102
{BLKREFS
331
69
102
}
  0
BLOCK_RECORD
  5
46
330
1
100
AcDbSymbolTableRecord
100
AcDbBlockTableRecord
  2
Top__2
340
0
102
{BLKREFS
331
6C
102
}
  0
BLOCK_RECORD
  5
294
330
1
100
AcDbSymbolTableRecord
100
AcDbBlockTableRecord
  2
*D3
340
0
  0
BLOCK_RECORD
  5
2A0
330
1
100
AcDbSymbolTableRecord
100
AcDbBlockTableRecord
  2
*D4
340
0
  0
BLOCK_RECORD
  5
2AB
330
1
100
AcDbSymbolTableRecord
100
AcDbBlockTableRecord
  2
*D5
340
0
  0
BLOCK_RECORD
  5
2B9
330
1
100
AcDbSymbolTableRecord
100
AcDbBlockTableRecord
  2
*D6
340
0
  0
BLOCK_RECORD
  5
2C6
330
1
100
AcDbSymbolTableRecord
100
AcDbBlockTableRecord
  2
*D7
340
0
  0
BLOCK_RECORD
  5
2D3
330
1
100
AcDbSymbolTableRecord
100
AcDbBlockTableRecord
  2
*D8
340
0
  0
BLOCK_RECORD
  5
2E2
330
1
100
AcDbSymbolTableRecord
100
AcDbBlockTableRecord
  2
*D9
340
0
  0
BLOCK_RECORD
  5
2EF
330
1
100
AcDbSymbolTableRecord
100
AcDbBlockTableRecord
  2
*D10
340
0
  0
BLOCK_RECORD
  5
2FC
330
1
100
AcDbSymbolTableRecord
100
AcDbBlockTableRecord
  2
*D11
340
0
  0
BLOCK_RECORD
  5
309
330
1
100
AcDbSymbolTableRecord
100
AcDbBlockTableRecord
  2
*D12
340
0
  0
BLOCK_RECORD
  5
314
330
1
100
AcDbSymbolTableRecord
100
AcDbBlockTableRecord
  2
*D13
340
0
  0
BLOCK_RECORD
  5
31E
330
1
100
AcDbSymbolTableRecord
100
AcDbBlockTableRecord
  2
_OBLIQUE
340
0
  0
BLOCK_RECORD
  5
324
330
1
100
AcDbSymbolTableRecord
100
AcDbBlockTableRecord
  2
*D15
340
0
  0
BLOCK_RECORD
  5
330
330
1
100
AcDbSymbolTableRecord
100
AcDbBlockTableRecord
  2
*D16
340
0
  0
BLOCK_RECORD
  5
33B
330
1
100
AcDbSymbolTableRecord
100
AcDbBlockTableRecord
  2
*D17
340
0
  0
BLOCK_RECORD
  5
347
330
1
100
AcDbSymbolTableRecord
100
AcDbBlockTableRecord
  2
*D18
340
0
  0
BLOCK_RECORD
  5
352
330
1
100
AcDbSymbolTableRecord
100
AcDbBlockTableRecord
  2
*D19
340
0
  0
BLOCK_RECORD
  5
35F
330
1
100
AcDbSymbolTableRecord
100
AcDbBlockTableRecord
  2
*D20
340
0
  0
BLOCK_RECORD
  5
36C
330
1
100
AcDbSymbolTableRecord
100
AcDbBlockTableRecord
  2
*D21
340
0
  0
BLOCK_RECORD
  5
37A
330
1
100
AcDbSymbolTableRecord
100
AcDbBlockTableRecord
  2
*D22
340
0
  0
BLOCK_RECORD
  5
385
330
1
100
AcDbSymbolTableRecord
100
AcDbBlockTableRecord
  2
*D23
340
0
  0
BLOCK_RECORD
  5
392
330
1
100
AcDbSymbolTableRecord
100
AcDbBlockTableRecord
  2
*D24
340
0
  0
BLOCK_RECORD
  5
39E
330
1
100
AcDbSymbolTableRecord
100
AcDbBlockTableRecord
  2
*D25
340
0
  0
BLOCK_RECORD
  5
3AA
330
1
100
AcDbSymbolTableRecord
100
AcDbBlockTableRecord
  2
*D26
340
0
  0
BLOCK_RECORD
  5
3B5
330
1
100
AcDbSymbolTableRecord
100
AcDbBlockTableRecord
  2
*D27
340
0
  0
BLOCK_RECORD
  5
3C2
330
1
100
AcDbSymbolTableRecord
100
AcDbBlockTableRecord
  2
*D28
340
0
  0
BLOCK_RECORD
  5
3CD
330
1
100
AcDbSymbolTableRecord
100
AcDbBlockTableRecord
  2
*D29
340
0
  0
BLOCK_RECORD
  5
3DA
330
1
100
AcDbSymbolTableRecord
100
AcDbBlockTableRecord
  2
*D30
340
0
  0
BLOCK_RECORD
  5
3E7
330
1
100
AcDbSymbolTableRecord
100
AcDbBlockTableRecord
  2
*D31
340
0
  0
BLOCK_RECORD
  5
3F3
330
1
100
AcDbSymbolTableRecord
100
AcDbBlockTableRecord
  2
*D32
340
0
  0
BLOCK_RECORD
  5
3FE
330
1
100
AcDbSymbolTableRecord
100
AcDbBlockTableRecord
  2
*D33
340
0
  0
BLOCK_RECORD
  5
40A
330
1
100
AcDbSymbolTableRecord
100
AcDbBlockTableRecord
  2
*D34
340
0
  0
BLOCK_RECORD
  5
415
330
1
100
AcDbSymbolTableRecord
100
AcDbBlockTableRecord
  2
*D35
340
0
  0
BLOCK_RECORD
  5
420
330
1
100
AcDbSymbolTableRecord
100
AcDbBlockTableRecord
  2
*D36
340
0
  0
BLOCK_RECORD
  5
42B
330
1
100
AcDbSymbolTableRecord
100
AcDbBlockTableRecord
  2
*D37
340
0
  0
BLOCK_RECORD
  5
436
330
1
100
AcDbSymbolTableRecord
100
AcDbBlockTableRecord
  2
*D38
340
0
  0
BLOCK_RECORD
  5
441
330
1
100
AcDbSymbolTableRecord
100
AcDbBlockTableRecord
  2
*D39
340
0
  0
BLOCK_RECORD
  5
44C
330
1
100
AcDbSymbolTableRecord
100
AcDbBlockTableRecord
  2
*D40
340
0
  0
BLOCK_RECORD
  5
457
330
1
100
AcDbSymbolTableRecord
100
AcDbBlockTableRecord
  2
*D41
340
0
  0
BLOCK_RECORD
  5
464
330
1
100
AcDbSymbolTableRecord
100
AcDbBlockTableRecord
  2
*D42
340
0
  0
BLOCK_RECORD
  5
470
330
1
100
AcDbSymbolTableRecord
100
AcDbBlockTableRecord
  2
*D43
340
0
  0
BLOCK_RECORD
  5
47C
330
1
100
AcDbSymbolTableRecord
100
AcDbBlockTableRecord
  2
*D44
340
0
  0
BLOCK_RECORD
  5
489
330
1
100
AcDbSymbolTableRecord
100
AcDbBlockTableRecord
  2
*D45
340
0
  0
BLOCK_RECORD
  5
494
330
1
100
AcDbSymbolTableRecord
100
AcDbBlockTableRecord
  2
*D46
340
0
  0
BLOCK_RECORD
  5
49F
330
1
100
AcDbSymbolTableRecord
100
AcDbBlockTableRecord
  2
*D47
340
0
  0
BLOCK_RECORD
  5
4AA
330
1
100
AcDbSymbolTableRecord
100
AcDbBlockTableRecord
  2
*D48
340
0
  0
BLOCK_RECORD
  5
4B6
330
1
100
AcDbSymbolTableRecord
100
AcDbBlockTableRecord
  2
*D49
340
0
  0
BLOCK_RECORD
  5
4C2
330
1
100
AcDbSymbolTableRecord
100
AcDbBlockTableRecord
  2
*D50
340
0
  0
BLOCK_RECORD
  5
4CF
330
1
100
AcDbSymbolTableRecord
100
AcDbBlockTableRecord
  2
*D51
340
0
  0
BLOCK_RECORD
  5
4DA
330
1
100
AcDbSymbolTableRecord
100
AcDbBlockTableRecord
  2
*D52
340
0
  0
BLOCK_RECORD
  5
4E5
330
1
100
AcDbSymbolTableRecord
100
AcDbBlockTableRecord
  2
*D53
340
0
  0
BLOCK_RECORD
  5
4F0
330
1
100
AcDbSymbolTableRecord
100
AcDbBlockTableRecord
  2
*D54
340
0
  0
BLOCK_RECORD
  5
4FB
330
1
100
AcDbSymbolTableRecord
100
AcDbBlockTableRecord
  2
*D55
340
0
  0
BLOCK_RECORD
  5
508
330
1
100
AcDbSymbolTableRecord
100
AcDbBlockTableRecord
  2
*D56
340
0
102
{BLKREFS
331
510
102
}
  0
BLOCK_RECORD
  5
511
330
1
100
AcDbSymbolTableRecord
100
AcDbBlockTableRecord
  2
*D57
340
0
102
{BLKREFS
331
518
102
}
  0
BLOCK_RECORD
  5
519
330
1
100
AcDbSymbolTableRecord
100
AcDbBlockTableRecord
  2
*D58
340
0
102
{BLKREFS
331
520
102
}
  0
BLOCK_RECORD
  5
521
330
1
100
AcDbSymbolTableRecord
100
AcDbBlockTableRecord
  2
*D59
340
0
102
{BLKREFS
331
528
102
}
  0
BLOCK_RECORD
  5
529
330
1
100
AcDbSymbolTableRecord
100
AcDbBlockTableRecord
  2
*D60
340
0
102
{BLKREFS
331
52F
102
}
  0
ENDTAB
  0
ENDSEC
  0
SECTION
  2
BLOCKS
  0
BLOCK
  5
20
330
1F
100
AcDbEntity
  8
0
100
AcDbBlockBegin
  2
*Model_Space
 70
     0
 10
0.0
 20
0.0
 30
0.0
  3
*Model_Space
  1

  0
ENDBLK
  5
21
330
1F
100
AcDbEntity
  8
0
100
AcDbBlockEnd
  0
BLOCK
  5
1C
330
1B
100
AcDbEntity
 67
     1
  8
0
100
AcDbBlockBegin
  2
*Paper_Space
 70
     0
 10
0.0
 20
0.0
 30
0.0
  3
*Paper_Space
  1

  0
ENDBLK
  5
1D
330
1B
100
AcDbEntity
 67
     1
  8
0
100
AcDbBlockEnd
  0
BLOCK
  5
24
330
23
100
AcDbEntity
  8
0
100
AcDbBlockBegin
  2
*Paper_Space0
 70
     0
 10
0.0
 20
0.0
 30
0.0
  3
*Paper_Space0
  1

  0
ENDBLK
  5
25
330
23
100
AcDbEntity
  8
0
100
AcDbBlockEnd
  0
BLOCK
  5
44
330
43
100
AcDbEntity
  8
0
100
AcDbBlockBegin
  2
Top__1
 70
     0
 10
4851.840286075789
 20
-2450.223884134713
 30
0.0
  3
Top__1
  1

  0
LINE
  5
6D
330
43
100
AcDbEntity
  8
1
  6
Continuous
 62
     2
100
AcDbLine
 10
943.9342064489174
 20
-143.5780292524814
 30
0.0
 11
1363.934206448917
 21
-143.5780292524814
 31
0.0
  0
LINE
  5
6E
330
43
100
AcDbEntity
  8
1
  6
Continuous
 62
     7
100
AcDbLine
 10
948.9342064489174
 20
-148.5780292524814
 30
0.0
 11
1358.934206448917
 21
-148.5780292524814
 31
0.0
  0
LINE
  5
6F
330
43
100
AcDbEntity
  8
1
  6
Continuous
 62
     7
100
AcDbLine
 10
948.9342064489174
 20
-435.5780292524814
 30
0.0
 11
948.9342064489174
 21
-148.5780292524814
 31
0.0
  0
LINE
  5
70
330
43
100
AcDbEntity
  8
1
  6
Continuous
 62
     2
100
AcDbLine
 10
943.9342064489174
 20
-440.5780292524814
 30
0.0
 11
943.9342064489174
 21
-143.5780292524814
 31
0.0
  0
LINE
  5
71
330
43
100
AcDbEntity
  8
1
  6
Continuous
 62
     2
100
AcDbLine
 10
1363.934206448917
 20
-440.5780292524814
 30
0.0
 11
943.9342064489174
 21
-440.5780292524814
 31
0.0
  0
LINE
  5
72
330
43
100
AcDbEntity
  8
1
  6
Continuous
 62
     7
100
AcDbLine
 10
1173.934206448917
 20
-435.5780292524814
 30
0.0
 11
948.9342064489174
 21
-435.5780292524814
 31
0.0
  0
LINE
  5
73
330
43
100
AcDbEntity
  8
1
  6
Continuous
 62
     2
100
AcDbLine
 10
1363.934206448917
 20
-143.5780292524814
 30
0.0
 11
1363.934206448917
 21
-440.5780292524814
 31
0.0
  0
LINE
  5
74
330
43
100
AcDbEntity
  8
1
  6
Continuous
 62
     7
100
AcDbLine
 10
1358.934206448917
 20
-148.5780292524814
 30
0.0
 11
1358.934206448917
 21
-383.5780292524814
 31
0.0
  0
LINE
  5
75
330
43
100
AcDbEntity
  8
1
  6
Continuous
 62
     7
100
AcDbLine
 10
1176.434206448917
 20
-413.5780292524814
 30
0.0
 11
1220.037038982791
 21
-413.5780292524814
 31
0.0
  0
LINE
  5
76
330
43
100
AcDbEntity
  8
1
  6
Continuous
 62
     7
100
AcDbLine
 10
1331.434206448917
 20
-387.3280292524814
 30
0.0
 11
1331.434206448917
 21
-388.5780292524814
 31
0.0
  0
LINE
  5
77
330
43
100
AcDbEntity
  8
1
  6
Continuous
 62
     7
100
AcDbLine
 10
1358.934206448917
 20
-387.3280292524814
 30
0.0
 11
1358.934206448917
 21
-391.0780292524814
 31
0.0
  0
LINE
  5
78
330
43
100
AcDbEntity
  8
1
  6
Continuous
 62
     2
100
AcDbLine
 10
1358.934206448917
 20
-387.3280292524814
 30
0.0
 11
1331.434206448917
 21
-387.3280292524814
 31
0.0
  0
LINE
  5
79
330
43
100
AcDbEntity
  8
1
  6
Continuous
 62
     7
100
AcDbLine
 10
1358.934206448917
 20
-391.0780292524814
 30
0.0
 11
1358.934206448917
 21
-394.8280292524814
 31
0.0
  0
LINE
  5
7A
330
43
100
AcDbEntity
  8
1
  6
Continuous
 62
     7
100
AcDbLine
 10
1331.434206448917
 20
-391.0780292524814
 30
0.0
 11
1331.434206448917
 21
-393.5780292524814
 31
0.0
  0
LINE
  5
7B
330
43
100
AcDbEntity
  8
1
  6
Continuous
 62
     2
100
AcDbLine
 10
1331.434206448917
 20
-391.0780292524814
 30
0.0
 11
1358.934206448917
 21
-391.0780292524814
 31
0.0
  0
LINE
  5
7C
330
43
100
AcDbEntity
  8
1
  6
Continuous
 62
     7
100
AcDbLine
 10
1331.434206448917
 20
-394.8280292524814
 30
0.0
 11
1331.434206448917
 21
-398.5780292524814
 31
0.0
  0
LINE
  5
7D
330
43
100
AcDbEntity
  8
1
  6
Continuous
 62
     7
100
AcDbLine
 10
1358.934206448917
 20
-394.8280292524814
 30
0.0
 11
1358.934206448917
 21
-398.5780292524814
 31
0.0
  0
LINE
  5
7E
330
43
100
AcDbEntity
  8
1
  6
Continuous
 62
     2
100
AcDbLine
 10
1358.934206448917
 20
-394.8280292524814
 30
0.0
 11
1331.434206448917
 21
-394.8280292524814
 31
0.0
  0
LINE
  5
7F
330
43
100
AcDbEntity
  8
1
  6
Continuous
 62
     7
100
AcDbLine
 10
1358.934206448917
 20
-404.0780292524814
 30
0.0
 11
1358.934206448917
 21
-409.5780292524814
 31
0.0
  0
LINE
  5
80
330
43
100
AcDbEntity
  8
1
  6
Continuous
 62
     2
100
AcDbLine
 10
1358.934206448917
 20
-404.0780292524814
 30
0.0
 11
1304.934206448917
 21
-404.0780292524814
 31
0.0
  0
LINE
  5
81
330
43
100
AcDbEntity
  8
1
  6
Continuous
 62
     7
100
AcDbLine
 10
1358.934206448917
 20
-409.5780292524814
 30
0.0
 11
1358.934206448917
 21
-415.0780292524814
 31
0.0
  0
LINE
  5
82
330
43
100
AcDbEntity
  8
1
  6
Continuous
 62
     7
100
AcDbLine
 10
1304.934206448917
 20
-409.5780292524814
 30
0.0
 11
1304.934206448917
 21
-415.0780292524814
 31
0.0
  0
LINE
  5
83
330
43
100
AcDbEntity
  8
1
  6
Continuous
 62
     2
100
AcDbLine
 10
1304.934206448917
 20
-409.5780292524814
 30
0.0
 11
1358.934206448917
 21
-409.5780292524814
 31
0.0
  0
LINE
  5
84
330
43
100
AcDbEntity
  8
1
  6
Continuous
 62
     7
100
AcDbLine
 10
1304.934206448917
 20
-415.0780292524814
 30
0.0
 11
1304.934206448917
 21
-420.5780292524814
 31
0.0
  0
LINE
  5
85
330
43
100
AcDbEntity
  8
1
  6
Continuous
 62
     7
100
AcDbLine
 10
1358.934206448917
 20
-415.0780292524814
 30
0.0
 11
1358.934206448917
 21
-420.5780292524814
 31
0.0
  0
LINE
  5
86
330
43
100
AcDbEntity
  8
1
  6
Continuous
 62
     2
100
AcDbLine
 10
1358.934206448917
 20
-415.0780292524814
 30
0.0
 11
1304.934206448917
 21
-415.0780292524814
 31
0.0
  0
LINE
  5
87
330
43
100
AcDbEntity
  8
1
  6
Continuous
 62
     7
100
AcDbLine
 10
1341.434206448917
 20
-398.5780292524814
 30
0.0
 11
1358.934206448917
 21
-398.5780292524814
 31
0.0
  0
LINE
  5
88
330
43
100
AcDbEntity
  8
1
  6
Continuous
 62
     7
100
AcDbLine
 10
1341.434206448917
 20
-420.5780292524814
 30
0.0
 11
1323.934206448917
 21
-420.5780292524814
 31
0.0
  0
LINE
  5
89
330
43
100
AcDbEntity
  8
1
  6
Continuous
 62
     2
100
AcDbLine
 10
1341.434206448917
 20
-420.5780292524814
 30
0.0
 11
1341.434206448917
 21
-398.5780292524814
 31
0.0
  0
LINE
  5
8A
330
43
100
AcDbEntity
  8
1
  6
Continuous
 62
     7
100
AcDbLine
 10
1323.934206448917
 20
-420.5780292524814
 30
0.0
 11
1304.934206448917
 21
-420.5780292524814
 31
0.0
  0
LINE
  5
8B
330
43
100
AcDbEntity
  8
1
  6
Continuous
 62
     7
100
AcDbLine
 10
1323.934206448917
 20
-398.5780292524814
 30
0.0
 11
1331.434206448917
 21
-398.5780292524814
 31
0.0
  0
LINE
  5
8C
330
43
100
AcDbEntity
  8
1
  6
Continuous
 62
     2
100
AcDbLine
 10
1323.934206448917
 20
-398.5780292524814
 30
0.0
 11
1323.934206448917
 21
-420.5780292524814
 31
0.0
  0
LINE
  5
8D
330
43
100
AcDbEntity
  8
1
  6
Continuous
 62
     7
100
AcDbLine
 10
1318.934206448917
 20
-398.5780292524814
 30
0.0
 11
1323.934206448917
 21
-398.5780292524814
 31
0.0
  0
LINE
  5
8E
330
43
100
AcDbEntity
  8
1
  6
Continuous
 62
     2
100
AcDbLine
 10
1318.934206448917
 20
-398.5780292524814
 30
0.0
 11
1318.934206448917
 21
-383.5780292524814
 31
0.0
  0
LINE
  5
8F
330
43
100
AcDbEntity
  8
1
  6
Continuous
 62
     7
100
AcDbLine
 10
1306.934206448917
 20
-398.5780292524814
 30
0.0
 11
1318.934206448917
 21
-398.5780292524814
 31
0.0
  0
LINE
  5
90
330
43
100
AcDbEntity
  8
1
  6
Continuous
 62
     7
100
AcDbLine
 10
1306.934206448917
 20
-383.5780292524814
 30
0.0
 11
1286.934206448917
 21
-383.5780292524814
 31
0.0
  0
LINE
  5
91
330
43
100
AcDbEntity
  8
1
  6
Continuous
 62
     2
100
AcDbLine
 10
1306.934206448917
 20
-383.5780292524814
 30
0.0
 11
1306.934206448917
 21
-398.5780292524814
 31
0.0
  0
LINE
  5
92
330
43
100
AcDbEntity
  8
1
  6
Continuous
 62
     7
100
AcDbLine
 10
1286.934206448917
 20
-383.5780292524814
 30
0.0
 11
1266.934206448917
 21
-383.5780292524814
 31
0.0
  0
LINE
  5
93
330
43
100
AcDbEntity
  8
1
  6
Continuous
 62
     7
100
AcDbLine
 10
1286.934206448917
 20
-398.5780292524814
 30
0.0
 11
1304.934206448917
 21
-398.5780292524814
 31
0.0
  0
LINE
  5
94
330
43
100
AcDbEntity
  8
1
  6
Continuous
 62
     2
100
AcDbLine
 10
1286.934206448917
 20
-398.5780292524814
 30
0.0
 11
1286.934206448917
 21
-383.5780292524814
 31
0.0
  0
LINE
  5
95
330
43
100
AcDbEntity
  8
1
  6
Continuous
 62
     7
100
AcDbLine
 10
1266.934206448917
 20
-398.5780292524814
 30
0.0
 11
1286.934206448917
 21
-398.5780292524814
 31
0.0
  0
LINE
  5
96
330
43
100
AcDbEntity
  8
1
  6
Continuous
 62
     2
100
AcDbLine
 10
1266.934206448917
 20
-398.5780292524814
 30
0.0
 11
1266.934206448917
 21
-383.5780292524814
 31
0.0
  0
LINE
  5
97
330
43
100
AcDbEntity
  8
1
  6
Continuous
 62
     7
100
AcDbLine
 10
1254.434206448917
 20
-383.5780292524814
 30
0.0
 11
1234.434206448917
 21
-383.5780292524814
 31
0.0
  0
LINE
  5
98
330
43
100
AcDbEntity
  8
1
  6
Continuous
 62
     7
100
AcDbLine
 10
1254.434206448917
 20
-398.5780292524814
 30
0.0
 11
1266.934206448917
 21
-398.5780292524814
 31
0.0
  0
LINE
  5
99
330
43
100
AcDbEntity
  8
1
  6
Continuous
 62
     2
100
AcDbLine
 10
1254.434206448917
 20
-398.5780292524814
 30
0.0
 11
1254.434206448917
 21
-383.5780292524814
 31
0.0
  0
LINE
  5
9A
330
43
100
AcDbEntity
  8
1
  6
Continuous
 62
     7
100
AcDbLine
 10
1234.434206448917
 20
-398.5780292524814
 30
0.0
 11
1254.434206448917
 21
-398.5780292524814
 31
0.0
  0
LINE
  5
9B
330
43
100
AcDbEntity
  8
1
  6
Continuous
 62
     7
100
AcDbLine
 10
1234.434206448917
 20
-383.5780292524814
 30
0.0
 11
1226.434206448917
 21
-383.5780292524814
 31
0.0
  0
LINE
  5
9C
330
43
100
AcDbEntity
  8
1
  6
Continuous
 62
     2
100
AcDbLine
 10
1234.434206448917
 20
-383.5780292524814
 30
0.0
 11
1234.434206448917
 21
-398.5780292524814
 31
0.0
  0
LINE
  5
9D
330
43
100
AcDbEntity
  8
1
  6
Continuous
 62
     7
100
AcDbLine
 10
1214.434206448917
 20
-383.5780292524814
 30
0.0
 11
1201.934206448917
 21
-383.5780292524814
 31
0.0
  0
LINE
  5
9E
330
43
100
AcDbEntity
  8
1
  6
Continuous
 62
     7
100
AcDbLine
 10
1214.434206448917
 20
-398.5780292524814
 30
0.0
 11
1226.434206448917
 21
-398.5780292524814
 31
0.0
  0
LINE
  5
9F
330
43
100
AcDbEntity
  8
1
  6
Continuous
 62
     2
100
AcDbLine
 10
1214.434206448917
 20
-398.5780292524814
 30
0.0
 11
1214.434206448917
 21
-383.5780292524814
 31
0.0
  0
LINE
  5
A0
330
43
100
AcDbEntity
  8
1
  6
Continuous
 62
     7
100
AcDbLine
 10
1201.934206448917
 20
-398.5780292524814
 30
0.0
 11
1214.434206448917
 21
-398.5780292524814
 31
0.0
  0
LINE
  5
A1
330
43
100
AcDbEntity
  8
1
  6
Continuous
 62
     7
100
AcDbLine
 10
1201.934206448917
 20
-383.5780292524814
 30
0.0
 11
1181.934206448917
 21
-383.5780292524814
 31
0.0
  0
LINE
  5
A2
330
43
100
AcDbEntity
  8
1
  6
Continuous
 62
     2
100
AcDbLine
 10
1201.934206448917
 20
-383.5780292524814
 30
0.0
 11
1201.934206448917
 21
-398.5780292524814
 31
0.0
  0
LINE
  5
A3
330
43
100
AcDbEntity
  8
1
  6
Continuous
 62
     7
100
AcDbLine
 10
1181.934206448917
 20
-398.5780292524814
 30
0.0
 11
1201.934206448917
 21
-398.5780292524814
 31
0.0
  0
LINE
  5
A4
330
43
100
AcDbEntity
  8
1
  6
Continuous
 62
     2
100
AcDbLine
 10
1181.934206448917
 20
-398.5780292524814
 30
0.0
 11
1181.934206448917
 21
-383.5780292524814
 31
0.0
  0
LINE
  5
A5
330
43
100
AcDbEntity
  8
1
  6
Continuous
 62
     7
100
AcDbLine
 10
1173.934206448917
 20
-393.5780292524814
 30
0.0
 11
1173.934206448917
 21
-388.5780292524814
 31
0.0
  0
LINE
  5
A6
330
43
100
AcDbEntity
  8
1
  6
Continuous
 62
     7
100
AcDbLine
 10
1331.434206448917
 20
-393.5780292524814
 30
0.0
 11
1331.434206448917
 21
-394.8280292524814
 31
0.0
  0
LINE
  5
A7
330
43
100
AcDbEntity
  8
1
  6
Continuous
 62
     2
100
AcDbLine
 10
1331.434206448917
 20
-393.5780292524814
 30
0.0
 11
1173.934206448917
 21
-393.5780292524814
 31
0.0
  0
LINE
  5
A8
330
43
100
AcDbEntity
  8
1
  6
Continuous
 62
     7
100
AcDbLine
 10
1331.434206448917
 20
-388.5780292524814
 30
0.0
 11
1331.434206448917
 21
-391.0780292524814
 31
0.0
  0
LINE
  5
A9
330
43
100
AcDbEntity
  8
1
  6
Continuous
 62
     7
100
AcDbLine
 10
1173.934206448917
 20
-388.5780292524814
 30
0.0
 11
1173.934206448917
 21
-383.5780292524814
 31
0.0
  0
LINE
  5
AA
330
43
100
AcDbEntity
  8
1
  6
Continuous
 62
     2
100
AcDbLine
 10
1173.934206448917
 20
-388.5780292524814
 30
0.0
 11
1331.434206448917
 21
-388.5780292524814
 31
0.0
  0
LINE
  5
AB
330
43
100
AcDbEntity
  8
1
  6
Continuous
 62
     7
100
AcDbLine
 10
1278.934206448917
 20
-404.0780292524814
 30
0.0
 11
1278.934206448917
 21
-435.5780292524814
 31
0.0
  0
LINE
  5
AC
330
43
100
AcDbEntity
  8
1
  6
Continuous
 62
     7
100
AcDbLine
 10
1304.934206448917
 20
-404.0780292524814
 30
0.0
 11
1304.934206448917
 21
-409.5780292524814
 31
0.0
  0
LINE
  5
AD
330
43
100
AcDbEntity
  8
1
  6
Continuous
 62
     7
100
AcDbLine
 10
1304.934206448917
 20
-404.0780292524814
 30
0.0
 11
1278.934206448917
 21
-404.0780292524814
 31
0.0
  0
LINE
  5
AE
330
43
100
AcDbEntity
  8
1
  6
Continuous
 62
     7
100
AcDbLine
 10
1304.934206448917
 20
-420.5780292524814
 30
0.0
 11
1173.934206448917
 21
-420.5780292524814
 31
0.0
  0
LINE
  5
AF
330
43
100
AcDbEntity
  8
1
  6
Continuous
 62
     7
100
AcDbLine
 10
1304.934206448917
 20
-398.5780292524814
 30
0.0
 11
1306.934206448917
 21
-398.5780292524814
 31
0.0
  0
LINE
  5
B0
330
43
100
AcDbEntity
  8
1
  6
Continuous
 62
     7
100
AcDbLine
 10
1304.934206448917
 20
-398.5780292524814
 30
0.0
 11
1304.934206448917
 21
-404.0780292524814
 31
0.0
  0
LINE
  5
B1
330
43
100
AcDbEntity
  8
1
  6
Continuous
 62
     7
100
AcDbLine
 10
1226.434206448917
 20
-398.5780292524814
 30
0.0
 11
1234.434206448917
 21
-398.5780292524814
 31
0.0
  0
LINE
  5
B2
330
43
100
AcDbEntity
  8
1
  6
Continuous
 62
     7
100
AcDbLine
 10
1226.434206448917
 20
-383.5780292524814
 30
0.0
 11
1214.434206448917
 21
-383.5780292524814
 31
0.0
  0
LINE
  5
B3
330
43
100
AcDbEntity
  8
1
  6
Continuous
 62
     7
100
AcDbLine
 10
1226.434206448917
 20
-383.5780292524814
 30
0.0
 11
1226.434206448917
 21
-398.5780292524814
 31
0.0
  0
LINE
  5
B4
330
43
100
AcDbEntity
  8
1
  6
Continuous
 62
     7
100
AcDbLine
 10
1331.434206448917
 20
-398.5780292524814
 30
0.0
 11
1341.434206448917
 21
-398.5780292524814
 31
0.0
  0
LINE
  5
B5
330
43
100
AcDbEntity
  8
1
  6
Continuous
 62
     7
100
AcDbLine
 10
1331.434206448917
 20
-383.5780292524814
 30
0.0
 11
1318.934206448917
 21
-383.5780292524814
 31
0.0
  0
LINE
  5
B6
330
43
100
AcDbEntity
  8
1
  6
Continuous
 62
     7
100
AcDbLine
 10
1331.434206448917
 20
-383.5780292524814
 30
0.0
 11
1331.434206448917
 21
-387.3280292524814
 31
0.0
  0
LINE
  5
B7
330
43
100
AcDbEntity
  8
1
  6
Continuous
 62
     7
100
AcDbLine
 10
1318.934206448917
 20
-383.5780292524814
 30
0.0
 11
1306.934206448917
 21
-383.5780292524814
 31
0.0
  0
LINE
  5
B8
330
43
100
AcDbEntity
  8
1
  6
Continuous
 62
     7
100
AcDbLine
 10
1278.934206448917
 20
-435.5780292524814
 30
0.0
 11
1173.934206448917
 21
-435.5780292524814
 31
0.0
  0
LINE
  5
B9
330
43
100
AcDbEntity
  8
1
  6
Continuous
 62
     7
100
AcDbLine
 10
1278.934206448917
 20
-383.5780292524814
 30
0.0
 11
1278.934206448917
 21
-404.0780292524814
 31
0.0
  0
LINE
  5
BA
330
43
100
AcDbEntity
  8
1
  6
Continuous
 62
     7
100
AcDbLine
 10
1266.934206448917
 20
-383.5780292524814
 30
0.0
 11
1254.434206448917
 21
-383.5780292524814
 31
0.0
  0
LINE
  5
BB
330
43
100
AcDbEntity
  8
1
  6
Continuous
 62
     7
100
AcDbLine
 10
1181.934206448917
 20
-383.5780292524814
 30
0.0
 11
1173.934206448917
 21
-383.5780292524814
 31
0.0
  0
LINE
  5
BC
330
43
100
AcDbEntity
  8
1
  6
Continuous
 62
     7
100
AcDbLine
 10
1358.934206448917
 20
-383.5780292524814
 30
0.0
 11
1358.934206448917
 21
-387.3280292524814
 31
0.0
  0
LINE
  5
BD
330
43
100
AcDbEntity
  8
1
  6
Continuous
 62
     7
100
AcDbLine
 10
1358.934206448917
 20
-383.5780292524814
 30
0.0
 11
1331.434206448917
 21
-383.5780292524814
 31
0.0
  0
LINE
  5
BE
330
43
100
AcDbEntity
  8
1
  6
Continuous
 62
     7
100
AcDbLine
 10
1358.934206448917
 20
-398.5780292524814
 30
0.0
 11
1358.934206448917
 21
-404.0780292524814
 31
0.0
  0
LINE
  5
BF
330
43
100
AcDbEntity
  8
1
  6
Continuous
 62
     7
100
AcDbLine
 10
1173.934206448917
 20
-398.5780292524814
 30
0.0
 11
1173.934206448917
 21
-393.5780292524814
 31
0.0
  0
LINE
  5
C0
330
43
100
AcDbEntity
  8
1
  6
Continuous
 62
     7
100
AcDbLine
 10
1173.934206448917
 20
-398.5780292524814
 30
0.0
 11
1181.934206448917
 21
-398.5780292524814
 31
0.0
  0
LINE
  5
C1
330
43
100
AcDbEntity
  8
1
  6
Continuous
 62
     7
100
AcDbLine
 10
1173.934206448917
 20
-420.5780292524814
 30
0.0
 11
1173.934206448917
 21
-398.5780292524814
 31
0.0
  0
LINE
  5
C2
330
43
100
AcDbEntity
  8
1
  6
Continuous
 62
     7
100
AcDbLine
 10
1358.934206448917
 20
-420.5780292524814
 30
0.0
 11
1358.934206448917
 21
-435.5780292524814
 31
0.0
  0
LINE
  5
C3
330
43
100
AcDbEntity
  8
1
  6
Continuous
 62
     7
100
AcDbLine
 10
1358.934206448917
 20
-420.5780292524814
 30
0.0
 11
1341.434206448917
 21
-420.5780292524814
 31
0.0
  0
LINE
  5
C4
330
43
100
AcDbEntity
  8
1
  6
Continuous
 62
     7
100
AcDbLine
 10
1173.934206448917
 20
-435.5780292524814
 30
0.0
 11
1173.934206448917
 21
-420.5780292524814
 31
0.0
  0
LINE
  5
C5
330
43
100
AcDbEntity
  8
1
  6
Continuous
 62
     7
100
AcDbLine
 10
1358.934206448917
 20
-435.5780292524814
 30
0.0
 11
1278.934206448917
 21
-435.5780292524814
 31
0.0
  0
LINE
  5
C6
330
43
100
AcDbEntity
  8
1
  6
Continuous
 62
     4
100
AcDbLine
 10
1189.45395790249
 20
-304.0719541469398
 30
0.0
 11
1321.45395790249
 21
-304.0719541469398
 31
0.0
  0
LINE
  5
C7
330
43
100
AcDbEntity
  8
1
  6
Continuous
 62
     4
100
AcDbLine
 10
1189.45395790249
 20
-319.0719541469398
 30
0.0
 11
1321.45395790249
 21
-319.0719541469398
 31
0.0
  0
LINE
  5
C8
330
43
100
AcDbEntity
  8
1
  6
Continuous
 62
     4
100
AcDbLine
 10
1189.45395790249
 20
-304.0719541469398
 30
0.0
 11
1189.45395790249
 21
-319.0719541469398
 31
0.0
  0
LINE
  5
C9
330
43
100
AcDbEntity
  8
1
  6
Continuous
 62
     4
100
AcDbLine
 10
1229.45395790249
 20
-304.0719541469398
 30
0.0
 11
1229.45395790249
 21
-319.0719541469398
 31
0.0
  0
LINE
  5
CA
330
43
100
AcDbEntity
  8
1
  6
Continuous
 62
     2
100
AcDbLine
 10
1189.45395790249
 20
-314.0719541469398
 30
0.0
 11
1321.45395790249
 21
-314.0719541469398
 31
0.0
  0
LINE
  5
CB
330
43
100
AcDbEntity
  8
1
  6
Continuous
 62
     4
100
AcDbLine
 10
1321.45395790249
 20
-309.0719541469398
 30
0.0
 11
1189.45395790249
 21
-309.0719541469398
 31
0.0
  0
LINE
  5
CC
330
43
100
AcDbEntity
  8
1
  6
Continuous
 62
     4
100
AcDbLine
 10
1261.45395790249
 20
-304.0719541469398
 30
0.0
 11
1261.45395790249
 21
-319.0719541469398
 31
0.0
  0
LINE
  5
CD
330
43
100
AcDbEntity
  8
1
  6
Continuous
 62
     4
100
AcDbLine
 10
1219.45395790249
 20
-304.0719541469398
 30
0.0
 11
1219.45395790249
 21
-319.0719541469398
 31
0.0
  0
LINE
  5
CE
330
43
100
AcDbEntity
  8
1
  6
Continuous
 62
     4
100
AcDbLine
 10
1209.45395790249
 20
-304.0719541469398
 30
0.0
 11
1209.45395790249
 21
-319.0719541469398
 31
0.0
  0
LINE
  5
CF
330
43
100
AcDbEntity
  8
1
  6
Continuous
 62
     4
100
AcDbLine
 10
1321.45395790249
 20
-304.0719541469398
 30
0.0
 11
1321.45395790249
 21
-319.0719541469398
 31
0.0
  0
LINE
  5
D0
330
43
100
AcDbEntity
  8
1
  6
Continuous
 62
     4
100
AcDbLine
 10
1291.45395790249
 20
-304.0719541469398
 30
0.0
 11
1291.45395790249
 21
-319.0719541469398
 31
0.0
  0
LINE
  5
D1
330
43
100
AcDbEntity
  8
1
  6
Continuous
 62
     4
100
AcDbLine
 10
1239.45395790249
 20
-304.0719541469398
 30
0.0
 11
1239.45395790249
 21
-319.0719541469398
 31
0.0
  0
LINE
  5
D2
330
43
100
AcDbEntity
  8
1
  6
Continuous
 62
     4
100
AcDbLine
 10
1249.45395790249
 20
-304.0719541469398
 30
0.0
 11
1249.45395790249
 21
-319.0719541469398
 31
0.0
  0
LINE
  5
D3
330
43
100
AcDbEntity
  8
1
  6
Continuous
 62
     4
100
AcDbLine
 10
1271.45395790249
 20
-304.0719541469398
 30
0.0
 11
1271.45395790249
 21
-319.0719541469398
 31
0.0
  0
LINE
  5
D4
330
43
100
AcDbEntity
  8
1
  6
Continuous
 62
     4
100
AcDbLine
 10
1281.45395790249
 20
-304.0719541469398
 30
0.0
 11
1281.45395790249
 21
-319.0719541469398
 31
0.0
  0
LINE
  5
D5
330
43
100
AcDbEntity
  8
1
  6
Continuous
 62
     4
100
AcDbLine
 10
1264.25395790249
 20
-246.2471990486347
 30
0.0
 11
1264.25395790249
 21
-281.2471990486347
 31
0.0
  0
LINE
  5
D6
330
43
100
AcDbEntity
  8
1
  6
Continuous
 62
     2
100
AcDbLine
 10
1206.25395790249
 20
-276.2471990486347
 30
0.0
 11
1289.45395790249
 21
-276.2471990486347
 31
0.0
  0
LINE
  5
D7
330
43
100
AcDbEntity
  8
1
  6
Continuous
 62
     4
100
AcDbLine
 10
1289.45395790249
 20
-246.2471990486347
 30
0.0
 11
1289.45395790249
 21
-281.2471990486347
 31
0.0
  0
LINE
  5
D8
330
43
100
AcDbEntity
  8
1
  6
Continuous
 62
     4
100
AcDbLine
 10
1224.25395790249
 20
-246.2471990486347
 30
0.0
 11
1224.25395790249
 21
-281.2471990486347
 31
0.0
  0
LINE
  5
D9
330
43
100
AcDbEntity
  8
1
  6
Continuous
 62
     4
100
AcDbLine
 10
1237.05395790249
 20
-246.2471990486347
 30
0.0
 11
1237.05395790249
 21
-281.2471990486347
 31
0.0
  0
LINE
  5
DA
330
43
100
AcDbEntity
  8
1
  6
Continuous
 62
     4
100
AcDbLine
 10
1256.25395790249
 20
-246.2471990486347
 30
0.0
 11
1256.25395790249
 21
-281.2471990486347
 31
0.0
  0
LINE
  5
DB
330
43
100
AcDbEntity
  8
1
  6
Continuous
 62
     4
100
AcDbLine
 10
1289.45395790249
 20
-251.2471990486347
 30
0.0
 11
1189.45395790249
 21
-251.2471990486347
 31
0.0
  0
LINE
  5
DC
330
43
100
AcDbEntity
  8
1
  6
Continuous
 62
     2
100
AcDbLine
 10
1206.25395790249
 20
-256.2471990486347
 30
0.0
 11
1289.45395790249
 21
-256.2471990486347
 31
0.0
  0
LINE
  5
DD
330
43
100
AcDbEntity
  8
1
  6
Continuous
 62
     2
100
AcDbLine
 10
1289.45395790249
 20
-266.2471990486347
 30
0.0
 11
1206.25395790249
 21
-266.2471990486347
 31
0.0
  0
LINE
  5
DE
330
43
100
AcDbEntity
  8
1
  6
Continuous
 62
     4
100
AcDbLine
 10
1248.25395790249
 20
-246.2471990486347
 30
0.0
 11
1248.25395790249
 21
-281.2471990486347
 31
0.0
  0
LINE
  5
DF
330
43
100
AcDbEntity
  8
1
  6
Continuous
 62
     4
100
AcDbLine
 10
1206.25395790249
 20
-246.2471990486347
 30
0.0
 11
1206.25395790249
 21
-281.2471990486347
 31
0.0
  0
LINE
  5
E0
330
43
100
AcDbEntity
  8
1
  6
Continuous
 62
     2
100
AcDbLine
 10
1189.45395790249
 20
-261.2471990486347
 30
0.0
 11
1289.45395790249
 21
-261.2471990486347
 31
0.0
  0
LINE
  5
E1
330
43
100
AcDbEntity
  8
1
  6
Continuous
 62
     2
100
AcDbLine
 10
1289.45395790249
 20
-271.2471990486347
 30
0.0
 11
1189.45395790249
 21
-271.2471990486347
 31
0.0
  0
LINE
  5
E2
330
43
100
AcDbEntity
  8
1
  6
Continuous
 62
     4
100
AcDbLine
 10
1189.45395790249
 20
-281.2471990486347
 30
0.0
 11
1289.45395790249
 21
-281.2471990486347
 31
0.0
  0
LINE
  5
E3
330
43
100
AcDbEntity
  8
1
  6
Continuous
 62
     4
100
AcDbLine
 10
1189.45395790249
 20
-281.2471990486347
 30
0.0
 11
1189.45395790249
 21
-246.2471990486347
 31
0.0
  0
LINE
  5
E4
330
43
100
AcDbEntity
  8
1
  6
Continuous
 62
     4
100
AcDbLine
 10
1189.45395790249
 20
-246.2471990486347
 30
0.0
 11
1289.45395790249
 21
-246.2471990486347
 31
0.0
  0
LINE
  5
E5
330
43
100
AcDbEntity
  8
1
  6
Continuous
 62
     4
100
AcDbLine
 10
1273.45395790249
 20
-246.2471990486347
 30
0.0
 11
1273.45395790249
 21
-281.2471990486347
 31
0.0
  0
MTEXT
  5
E7
330
43
100
AcDbEntity
  8
1
 62
     2
100
AcDbMText
 10
1173.934206448915
 20
-391.0780292524823
 30
0.0
 40
2.0
 41
0.0
 71
     4
 72
     1
  1
 a)
  7
CONVERTER_11
 73
     1
 44
1.32052821128451
  0
MTEXT
  5
E8
330
43
100
AcDbEntity
  8
1
 62
     2
100
AcDbMText
 10
1181.934206448915
 20
-391.0780292524823
 30
0.0
 40
2.0
 41
0.0
 71
     4
 72
     1
  1
 3396
  7
CONVERTER_11
 73
     1
 44
1.32052821128451
  0
MTEXT
  5
E9
330
43
100
AcDbEntity
  8
1
 62
     2
100
AcDbMText
 10
1201.073648345207
 20
-390.9550923805218
 30
0.0
 40
2.0
 41
0.0
 71
     4
 72
     1
  1
 06.10.98
  7
CONVERTER_11
 73
     1
 44
1.32052821128451
  0
MTEXT
  5
EA
330
43
100
AcDbEntity
  8
1
 62
     2
100
AcDbMText
 10
1214.434206448915
 20
-391.0780292524823
 30
0.0
 40
2.0
 41
0.0
 71
     4
 72
     1
  1
 R.D.
  7
CONVERTER_11
 73
     1
 44
1.32052821128451
  0
MTEXT
  5
EB
330
43
100
AcDbEntity
  8
1
 62
     7
100
AcDbMText
 10
1318.934206448917
 20
-428.0780292524833
 30
0.0
 40
4.0
 41
0.0
 71
     5
 72
     1
  1
MB1-0295-3a
  7
CONVERTER_11
 73
     1
 44
1.32052821128451
  0
MTEXT
  5
EC
330
43
100
AcDbEntity
  8
1
 62
     7
100
AcDbMText
 10
1173.934206448915
 20
-409.5780292524823
 30
0.0
 40
4.0
 41
0.0
 71
     4
 72
     1
  1
 Typ SGG47/11
  7
CONVERTER_11
 73
     1
 44
1.32052821128451
  0
MTEXT
  5
ED
330
43
100
AcDbEntity
  8
1
 62
     2
100
AcDbMText
 10
1304.934206448915
 20
-401.3280292524823
 30
0.0
 40
2.0
 41
0.0
 71
     6
 72
     1
  1
 
  7
CONVERTER_11
 73
     1
 44
1.32052821128451
  0
MTEXT
  5
EE
330
43
100
AcDbEntity
  8
1
 62
     2
100
AcDbMText
 10
1291.934206448915
 20
-412.3280292524823
 30
0.0
 40
2.5
 41
0.0
 71
     5
 72
     1
  1
 % 
  7
CONVERTER_11
 73
     1
 44
1.32052821128451
  0
MTEXT
  5
EF
330
43
100
AcDbEntity
  8
1
 62
     2
100
AcDbMText
 10
1173.934206448915
 20
-417.0780292524823
 30
0.0
 40
2.5
 41
0.0
 71
     4
 72
     1
  1
  
  7
CONVERTER_11
 73
     1
 44
1.32052821128451
  0
MTEXT
  5
F0
330
43
100
AcDbEntity
  8
1
 62
     2
100
AcDbMText
 10
1173.934206448915
 20
-402.0780292524823
 30
0.0
 40
2.5
 41
0.0
 71
     4
 72
     1
  1
  Motoranbaum\U+00f6glichkeiten
  7
CONVERTER_11
 73
     1
 44
1.32052821128451
  0
MTEXT
  5
F1
330
43
100
AcDbEntity
  8
1
 62
     2
100
AcDbMText
 10
1304.934206448915
 20
-406.8280292524823
 30
0.0
 40
2.0
 41
0.0
 71
     4
 72
     1
  1
 Gepr\U+00fcft
  7
CONVERTER_11
 73
     1
 44
1.32052821128451
  0
MTEXT
  5
F2
330
43
100
AcDbEntity
  8
1
 62
     2
100
AcDbMText
 10
1304.934206448915
 20
-401.3280292524823
 30
0.0
 40
2.0
 41
0.0
 71
     4
 72
     1
  1
 Gezeichnet
  7
CONVERTER_11
 73
     1
 44
1.32052821128451
  0
MTEXT
  5
F3
330
43
100
AcDbEntity
  8
1
 62
     2
100
AcDbMText
 10
1291.934206448915
 20
-406.8280292524823
 30
0.0
 40
2.0
 41
0.0
 71
     5
 72
     1
  1
Massstab
  7
CONVERTER_11
 73
     1
 44
1.32052821128451
  0
MTEXT
  5
F4
330
43
100
AcDbEntity
  8
1
 62
     2
100
AcDbMText
 10
1278.934206448917
 20
-401.3280292524823
 30
0.0
 40
2.0
 41
0.0
 71
     4
 72
     1
  1
 Kd.-Nr.
  7
CONVERTER_11
 73
     1
 44
1.32052821128451
  0
MTEXT
  5
F5
330
43
100
AcDbEntity
  8
1
 62
     2
100
AcDbMText
 10
1214.434206448915
 20
-386.0780292524823
 30
0.0
 40
2.0
 41
0.0
 71
     4
 72
     1
  1
 Vis.
  7
CONVERTER_11
 73
     1
 44
1.32052821128451
  0
MTEXT
  5
F6
330
43
100
AcDbEntity
  8
1
 62
     2
100
AcDbMText
 10
1201.934206448915
 20
-386.0780292524823
 30
0.0
 40
2.0
 41
0.0
 71
     4
 72
     1
  1
 Dat.
  7
CONVERTER_11
 73
     1
 44
1.32052821128451
  0
MTEXT
  5
F7
330
43
100
AcDbEntity
  8
1
 62
     2
100
AcDbMText
 10
1181.934206448915
 20
-386.0780292524823
 30
0.0
 40
2.0
 41
0.0
 71
     4
 72
     1
  1
 \U+00c4nd.-Nr.
  7
CONVERTER_11
 73
     1
 44
1.32052821128451
  0
MTEXT
  5
F8
330
43
100
AcDbEntity
  8
1
 62
     2
100
AcDbMText
 10
1173.934206448915
 20
-386.0780292524823
 30
0.0
 40
2.0
 41
0.0
 71
     4
 72
     1
  1
 Ind.
  7
CONVERTER_11
 73
     1
 44
1.32052821128451
  0
MTEXT
  5
F9
330
43
100
AcDbEntity
  8
1
 62
     2
100
AcDbMText
 10
1331.434206448917
 20
-392.9530292524823
 30
0.0
 40
1.8
 41
0.0
 71
     4
 72
     1
  1
 Ersatz f\U+00fcr:
  7
CONVERTER_11
 73
     1
 44
1.32052821128451
  0
MTEXT
  5
FA
330
43
100
AcDbEntity
  8
1
 62
     2
100
AcDbMText
 10
1331.434206448917
 20
-385.4530292524823
 30
0.0
 40
1.8
 41
0.0
 71
     4
 72
     1
  1
 Ersetzt durch:
  7
CONVERTER_11
 73
     1
 44
1.32052821128451
  0
MTEXT
  5
FB
330
43
100
AcDbEntity
  8
1
 62
     7
100
AcDbMText
 10
1226.434206448915
 20
-428.0780292524833
 30
0.0
 40
4.0
 41
0.0
 71
     5
 72
     1
  1
TH. Z\U+00dcRRER AG  8055 Z\U+00dcRICH
  7
CONVERTER_11
 73
     1
 44
1.32052821128451
  0
MTEXT
  5
FC
330
43
100
AcDbEntity
  8
1
 62
     2
100
AcDbMText
 10
1326.005119228659
 20
-401.4403439693497
 30
0.0
 40
2.0
 41
0.0
 71
     4
 72
     1
  1
20.02.1996
  7
CONVERTER_11
 73
     1
 44
1.32052821128451
  0
MTEXT
  5
FD
330
43
100
AcDbEntity
  8
1
 62
     2
100
AcDbMText
 10
1346.461802974653
 20
-401.4403439693497
 30
0.0
 40
2.0
 41
0.0
 71
     4
 72
     1
  1
N.Frei
  7
CONVERTER_11
 73
     1
 44
1.32052821128451
  0
MTEXT
  5
FE
330
43
100
AcDbEntity
  8
1
 62
     2
100
AcDbMText
 10
1214.45395790249
 20
-317.8219541469398
 30
0.0
 40
2.5
 41
0.0
 71
     8
 72
     1
  1
19
  7
CONVERTER_11
 73
     1
 44
1.32052821128451
  0
MTEXT
  5
FF
330
43
100
AcDbEntity
  8
1
 62
     2
100
AcDbMText
 10
1224.45395790249
 20
-317.8219541469398
 30
0.0
 40
2.5
 41
0.0
 71
     8
 72
     1
  1
38
  7
CONVERTER_11
 73
     1
 44
1.32052821128451
  0
MTEXT
  5
100
330
43
100
AcDbEntity
  8
1
 62
     2
100
AcDbMText
 10
1234.45395790249
 20
-317.8219541469398
 30
0.0
 40
2.5
 41
0.0
 71
     8
 72
     1
  1
43
  7
CONVERTER_11
 73
     1
 44
1.32052821128451
  0
MTEXT
  5
101
330
43
100
AcDbEntity
  8
1
 62
     2
100
AcDbMText
 10
1306.453957902488
 20
-317.8219541469398
 30
0.0
 40
2.5
 41
0.0
 71
     8
 72
     1
  1
M6 x 14
  7
CONVERTER_11
 73
     1
 44
1.32052821128451
  0
MTEXT
  5
102
330
43
100
AcDbEntity
  8
1
 62
     2
100
AcDbMText
 10
1199.45395790249
 20
-317.8219541469398
 30
0.0
 40
2.5
 41
0.0
 71
     8
 72
     1
  1
2
  7
CONVERTER_11
 73
     1
 44
1.32052821128451
  0
MTEXT
  5
103
330
43
100
AcDbEntity
  8
1
 62
     2
100
AcDbMText
 10
1199.453957902491
 20
-312.8219541469398
 30
0.0
 40
2.5
 41
0.0
 71
     8
 72
     1
  1
1
  7
CONVERTER_11
 73
     1
 44
1.32052821128451
  0
MTEXT
  5
104
330
43
100
AcDbEntity
  8
1
 62
     2
100
AcDbMText
 10
1199.453957902491
 20
-307.8219541469398
 30
0.0
 40
2.5
 41
0.0
 71
     8
 72
     1
  1
Standard
  7
CONVERTER_11
 73
     1
 44
1.32052821128451
  0
MTEXT
  5
105
330
43
100
AcDbEntity
  8
1
 62
     2
100
AcDbMText
 10
1224.45395790249
 20
-312.8219541469398
 30
0.0
 40
2.5
 41
0.0
 71
     8
 72
     1
  1
60
  7
CONVERTER_11
 73
     1
 44
1.32052821128451
  0
MTEXT
  5
106
330
43
100
AcDbEntity
  8
1
 62
     2
100
AcDbMText
 10
1224.45395790249
 20
-307.8219541469398
 30
0.0
 40
2.5
 41
0.0
 71
     8
 72
     1
  1
M
  7
CONVERTER_11
 73
     1
 44
1.32052821128451
  0
MTEXT
  5
107
330
43
100
AcDbEntity
  8
1
 62
     2
100
AcDbMText
 10
1214.45395790249
 20
-312.8219541469398
 30
0.0
 40
2.5
 41
0.0
 71
     8
 72
     1
  1
30
  7
CONVERTER_11
 73
     1
 44
1.32052821128451
  0
MTEXT
  5
108
330
43
100
AcDbEntity
  8
1
 62
     2
100
AcDbMText
 10
1234.453957902491
 20
-312.8219541469398
 30
0.0
 40
2.5
 41
0.0
 71
     8
 72
     1
  1
65
  7
CONVERTER_11
 73
     1
 44
1.32052821128451
  0
MTEXT
  5
109
330
43
100
AcDbEntity
  8
1
 62
     2
100
AcDbMText
 10
1234.45395790249
 20
-307.8219541469398
 30
0.0
 40
2.5
 41
0.0
 71
     8
 72
     1
  1
N
  7
CONVERTER_11
 73
     1
 44
1.32052821128451
  0
MTEXT
  5
10A
330
43
100
AcDbEntity
  8
1
 62
     2
100
AcDbMText
 10
1214.45395790249
 20
-307.8219541469398
 30
0.0
 40
2.5
 41
0.0
 71
     8
 72
     1
  1
K
  7
CONVERTER_11
 73
     1
 44
1.32052821128451
  0
MTEXT
  5
10B
330
43
100
AcDbEntity
  8
1
 62
     2
100
AcDbMText
 10
1306.45395790249
 20
-312.8219541469398
 30
0.0
 40
2.5
 41
0.0
 71
     8
 72
     1
  1
M8 x 19
  7
CONVERTER_11
 73
     1
 44
1.32052821128451
  0
MTEXT
  5
10C
330
43
100
AcDbEntity
  8
1
 62
     2
100
AcDbMText
 10
1306.45395790249
 20
-307.8219541469398
 30
0.0
 40
2.5
 41
0.0
 71
     8
 72
     1
  1
Zentrumgewinde
  7
CONVERTER_11
 73
     1
 44
1.32052821128451
  0
MTEXT
  5
10D
330
43
100
AcDbEntity
  8
1
 62
     2
100
AcDbMText
 10
1244.45395790249
 20
-307.8219541469398
 30
0.0
 40
2.5
 41
0.0
 71
     8
 72
     1
  1
O
  7
CONVERTER_11
 73
     1
 44
1.32052821128451
  0
MTEXT
  5
10E
330
43
100
AcDbEntity
  8
1
 62
     2
100
AcDbMText
 10
1244.45395790249
 20
-312.8219541469398
 30
0.0
 40
2.5
 41
0.0
 71
     8
 72
     1
  1
62
  7
CONVERTER_11
 73
     1
 44
1.32052821128451
  0
MTEXT
  5
10F
330
43
100
AcDbEntity
  8
1
 62
     2
100
AcDbMText
 10
1244.453957902491
 20
-317.8219541469398
 30
0.0
 40
2.5
 41
0.0
 71
     8
 72
     1
  1
40
  7
CONVERTER_11
 73
     1
 44
1.32052821128451
  0
MTEXT
  5
110
330
43
100
AcDbEntity
  8
1
 62
     2
100
AcDbMText
 10
1255.453957902491
 20
-312.8219541469398
 30
0.0
 40
2.5
 41
0.0
 71
     8
 72
     1
  1
276
  7
CONVERTER_11
 73
     1
 44
1.32052821128451
  0
MTEXT
  5
111
330
43
100
AcDbEntity
  8
1
 62
     2
100
AcDbMText
 10
1255.453957902491
 20
-307.8219541469398
 30
0.0
 40
2.5
 41
0.0
 71
     8
 72
     1
  1
P
  7
CONVERTER_11
 73
     1
 44
1.32052821128451
  0
MTEXT
  5
112
330
43
100
AcDbEntity
  8
1
 62
     2
100
AcDbMText
 10
1255.453957902491
 20
-317.8219541469398
 30
0.0
 40
2.5
 41
0.0
 71
     8
 72
     1
  1
232
  7
CONVERTER_11
 73
     1
 44
1.32052821128451
  0
MTEXT
  5
113
330
43
100
AcDbEntity
  8
1
 62
     2
100
AcDbMText
 10
1266.45395790249
 20
-307.8219541469398
 30
0.0
 40
2.5
 41
0.0
 71
     8
 72
     1
  1
R
  7
CONVERTER_11
 73
     1
 44
1.32052821128451
  0
MTEXT
  5
114
330
43
100
AcDbEntity
  8
1
 62
     2
100
AcDbMText
 10
1276.45395790249
 20
-307.8219541469398
 30
0.0
 40
2.5
 41
0.0
 71
     8
 72
     1
  1
S
  7
CONVERTER_11
 73
     1
 44
1.32052821128451
  0
MTEXT
  5
115
330
43
100
AcDbEntity
  8
1
 62
     2
100
AcDbMText
 10
1286.45395790249
 20
-307.8219541469398
 30
0.0
 40
2.5
 41
0.0
 71
     8
 72
     1
  1
T
  7
CONVERTER_11
 73
     1
 44
1.32052821128451
  0
MTEXT
  5
116
330
43
100
AcDbEntity
  8
1
 62
     2
100
AcDbMText
 10
1266.45395790249
 20
-312.8219541469398
 30
0.0
 40
2.5
 41
0.0
 71
     8
 72
     1
  1
3
  7
CONVERTER_11
 73
     1
 44
1.32052821128451
  0
MTEXT
  5
117
330
43
100
AcDbEntity
  8
1
 62
     2
100
AcDbMText
 10
1266.45395790249
 20
-317.8219541469398
 30
0.0
 40
2.5
 41
0.0
 71
     8
 72
     1
  1
2
  7
CONVERTER_11
 73
     1
 44
1.32052821128451
  0
MTEXT
  5
118
330
43
100
AcDbEntity
  8
1
 62
     2
100
AcDbMText
 10
1276.45395790249
 20
-317.8219541469398
 30
0.0
 40
2.5
 41
0.0
 71
     8
 72
     1
  1
32
  7
CONVERTER_11
 73
     1
 44
1.32052821128451
  0
MTEXT
  5
119
330
43
100
AcDbEntity
  8
1
 62
     2
100
AcDbMText
 10
1276.45395790249
 20
-312.8219541469398
 30
0.0
 40
2.5
 41
0.0
 71
     8
 72
     1
  1
40
  7
CONVERTER_11
 73
     1
 44
1.32052821128451
  0
MTEXT
  5
11A
330
43
100
AcDbEntity
  8
1
 62
     2
100
AcDbMText
 10
1286.45395790249
 20
-312.8219541469398
 30
0.0
 40
2.5
 41
0.0
 71
     8
 72
     1
  1
8
  7
CONVERTER_11
 73
     1
 44
1.32052821128451
  0
MTEXT
  5
11B
330
43
100
AcDbEntity
  8
1
 62
     2
100
AcDbMText
 10
1286.45395790249
 20
-317.8219541469398
 30
0.0
 40
2.5
 41
0.0
 71
     8
 72
     1
  1
7
  7
CONVERTER_11
 73
     1
 44
1.32052821128451
  0
MTEXT
  5
11C
330
43
100
AcDbEntity
  8
1
 62
     2
100
AcDbMText
 10
1260.253957902489
 20
-254.1517513731978
 30
0.0
 40
2.5
 41
0.0
 71
     5
 72
     1
  1
--
  7
CONVERTER_11
 73
     1
 44
1.32052821128451
  0
MTEXT
  5
11D
330
43
100
AcDbEntity
  8
1
 62
     2
100
AcDbMText
 10
1268.87895790249
 20
-249.9971990486356
 30
0.0
 40
2.5
 41
0.0
 71
     8
 72
     1
  1
D
  7
CONVERTER_11
 73
     1
 44
1.32052821128451
  0
MTEXT
  5
11E
330
43
100
AcDbEntity
  8
1
 62
     2
100
AcDbMText
 10
1271.50395790249
 20
-254.9971990486356
 30
0.0
 40
2.5
 41
0.0
 71
     9
 72
     1
  1
140
  7
CONVERTER_11
 73
     1
 44
1.32052821128451
  0
MTEXT
  5
11F
330
43
100
AcDbEntity
  8
1
 62
     2
100
AcDbMText
 10
1271.50395790249
 20
-269.9971990486347
 30
0.0
 40
2.5
 41
0.0
 71
     9
 72
     1
  1
120
  7
CONVERTER_11
 73
     1
 44
1.32052821128451
  0
TEXT
  5
120
330
43
100
AcDbEntity
  8
1
 62
     2
100
AcDbText
 10
1191.45395790249
 20
-249.9971990486356
 30
0.0
 40
2.5
  1
El.Motor
 41
0.9
  7
CONVERTER_11
100
AcDbText
  0
MTEXT
  5
121
330
43
100
AcDbEntity
  8
1
 62
     2
100
AcDbMText
 10
1230.503957902489
 20
-249.9971990486356
 30
0.0
 40
2.5
 41
0.0
 71
     8
 72
     1
  1
L
  7
CONVERTER_11
 73
     1
 44
1.32052821128451
  0
MTEXT
  5
122
330
43
100
AcDbEntity
  8
1
 62
     2
100
AcDbMText
 10
1252.25395790249
 20
-249.9971990486356
 30
0.0
 40
2.5
 41
0.0
 71
     8
 72
     1
  1
B
  7
CONVERTER_11
 73
     1
 44
1.32052821128451
  0
MTEXT
  5
123
330
43
100
AcDbEntity
  8
1
 62
     2
100
AcDbMText
 10
1260.175260692196
 20
-249.9971990486356
 30
0.0
 40
2.5
 41
0.0
 71
     8
 72
     1
  1
C
  7
CONVERTER_11
 73
     1
 44
1.32052821128451
  0
MTEXT
  5
124
330
43
100
AcDbEntity
  8
1
 62
     2
100
AcDbMText
 10
1191.45395790249
 20
-256.2471990486356
 30
0.0
 40
2.5
 41
0.0
 71
     4
 72
     1
  1
IEC63
  7
CONVERTER_11
 73
     1
 44
1.32052821128451
  0
MTEXT
  5
125
330
43
100
AcDbEntity
  8
1
 62
     2
100
AcDbMText
 10
1254.253957902489
 20
-254.9971990486356
 30
0.0
 40
2.5
 41
0.0
 71
     9
 72
     1
  1
13
  7
CONVERTER_11
 73
     1
 44
1.32052821128451
  0
MTEXT
  5
126
330
43
100
AcDbEntity
  8
1
 62
     2
100
AcDbMText
 10
1191.45395790249
 20
-266.2471990486338
 30
0.0
 40
2.5
 41
0.0
 71
     4
 72
     1
  1
IEC71
  7
CONVERTER_11
 73
     1
 44
1.32052821128451
  0
MTEXT
  5
127
330
43
100
AcDbEntity
  8
1
 62
     2
100
AcDbMText
 10
1191.45395790249
 20
-276.2471990486347
 30
0.0
 40
2.5
 41
0.0
 71
     4
 72
     1
  1
IEC80
  7
CONVERTER_11
 73
     1
 44
1.32052821128451
  0
MTEXT
  5
128
330
43
100
AcDbEntity
  8
1
 62
     2
100
AcDbMText
 10
1254.253957902489
 20
-269.9971990486347
 30
0.0
 40
2.5
 41
0.0
 71
     9
 72
     1
  1
15
  7
CONVERTER_11
 73
     1
 44
1.32052821128451
  0
MTEXT
  5
129
330
43
100
AcDbEntity
  8
1
 62
     2
100
AcDbMText
 10
1235.051566307536
 20
-269.9971990486347
 30
0.0
 40
2.5
 41
0.0
 71
     9
 72
     1
  1
229,5
  7
CONVERTER_11
 73
     1
 44
1.32052821128451
  0
MTEXT
  5
12A
330
43
100
AcDbEntity
  8
1
 62
     2
100
AcDbMText
 10
1235.053957902492
 20
-254.9971990486356
 30
0.0
 40
2.5
 41
0.0
 71
     9
 72
     1
  1
229,5
  7
CONVERTER_11
 73
     1
 44
1.32052821128451
  0
MTEXT
  5
12B
330
43
100
AcDbEntity
  8
1
 62
     2
100
AcDbMText
 10
1242.753957902489
 20
-249.9971990486356
 30
0.0
 40
2.5
 41
0.0
 71
     8
 72
     1
  1
A
  7
CONVERTER_11
 73
     1
 44
1.32052821128451
  0
MTEXT
  5
12C
330
43
100
AcDbEntity
  8
1
 62
     2
100
AcDbMText
 10
1246.253957902489
 20
-254.9971990486356
 30
0.0
 40
2.5
 41
0.0
 71
     9
 72
     1
  1
74,5
  7
CONVERTER_11
 73
     1
 44
1.32052821128451
  0
MTEXT
  5
12D
330
43
100
AcDbEntity
  8
1
 62
     2
100
AcDbMText
 10
1246.252130121029
 20
-269.9971990486347
 30
0.0
 40
2.5
 41
0.0
 71
     9
 72
     1
  1
74,5
  7
CONVERTER_11
 73
     1
 44
1.32052821128451
  0
TEXT
  5
12E
330
43
100
AcDbEntity
  8
1
 62
     2
100
AcDbText
 10
1208.253957902489
 20
-249.9971990486356
 30
0.0
 40
2.5
  1
Flansch
 41
0.9
  7
CONVERTER_11
100
AcDbText
  0
TEXT
  5
12F
330
43
100
AcDbEntity
  8
1
 62
     2
100
AcDbText
 10
1212.615783235404
 20
-254.9971990486356
 30
0.0
 40
2.5
  1
B5
 41
0.9
  7
CONVERTER_11
100
AcDbText
  0
TEXT
  5
130
330
43
100
AcDbEntity
  8
1
 62
     2
100
AcDbText
 10
1212.615783235404
 20
-264.9971990486338
 30
0.0
 40
2.5
  1
B5
 41
0.9
  7
CONVERTER_11
100
AcDbText
  0
TEXT
  5
131
330
43
100
AcDbEntity
  8
1
 62
     2
100
AcDbText
 10
1212.615783235404
 20
-274.9971990486347
 30
0.0
 40
2.5
  1
B5
 41
0.9
  7
CONVERTER_11
100
AcDbText
  0
TEXT
  5
132
330
43
100
AcDbEntity
  8
1
 62
     2
100
AcDbText
 10
1212.615783235404
 20
-259.9971990486356
 30
0.0
 40
2.5
  1
B14
 41
0.9
  7
CONVERTER_11
100
AcDbText
  0
MTEXT
  5
133
330
43
100
AcDbEntity
  8
1
 62
     2
100
AcDbMText
 10
1235.053957902492
 20
-279.9971990486347
 30
0.0
 40
2.5
 41
0.0
 71
     9
 72
     1
  1
239,5
  7
CONVERTER_11
 73
     1
 44
1.32052821128451
  0
MTEXT
  5
134
330
43
100
AcDbEntity
  8
1
 62
     2
100
AcDbMText
 10
1246.252628606882
 20
-279.9971990486347
 30
0.0
 40
2.5
 41
0.0
 71
     9
 72
     1
  1
84,5
  7
CONVERTER_11
 73
     1
 44
1.32052821128451
  0
MTEXT
  5
135
330
43
100
AcDbEntity
  8
1
 62
     2
100
AcDbMText
 10
1254.253957902489
 20
-279.9971990486347
 30
0.0
 40
2.5
 41
0.0
 71
     9
 72
     1
  1
25
  7
CONVERTER_11
 73
     1
 44
1.32052821128451
  0
MTEXT
  5
136
330
43
100
AcDbEntity
  8
1
 62
     2
100
AcDbMText
 10
1271.50395790249
 20
-279.9971990486347
 30
0.0
 40
2.5
 41
0.0
 71
     9
 72
     1
  1
120
  7
CONVERTER_11
 73
     1
 44
1.32052821128451
  0
TEXT
  5
137
330
43
100
AcDbEntity
  8
1
 62
     2
100
AcDbText
 10
1212.615783235404
 20
-269.9971990486356
 30
0.0
 40
2.5
  1
B14
 41
0.9
  7
CONVERTER_11
100
AcDbText
  0
TEXT
  5
138
330
43
100
AcDbEntity
  8
1
 62
     2
100
AcDbText
 10
1212.615783235404
 20
-279.9971990486347
 30
0.0
 40
2.5
  1
B14
 41
0.9
  7
CONVERTER_11
100
AcDbText
  0
MTEXT
  5
139
330
43
100
AcDbEntity
  8
1
 62
     2
100
AcDbMText
 10
1235.053957902492
 20
-259.9971990486356
 30
0.0
 40
2.5
 41
0.0
 71
     9
 72
     1
  1
229,5
  7
CONVERTER_11
 73
     1
 44
1.32052821128451
  0
MTEXT
  5
13A
330
43
100
AcDbEntity
  8
1
 62
     2
100
AcDbMText
 10
1246.253957902489
 20
-259.9971990486356
 30
0.0
 40
2.5
 41
0.0
 71
     9
 72
     1
  1
74,5
  7
CONVERTER_11
 73
     1
 44
1.32052821128451
  0
MTEXT
  5
13B
330
43
100
AcDbEntity
  8
1
 62
     2
100
AcDbMText
 10
1254.253957902489
 20
-259.9971990486356
 30
0.0
 40
2.5
 41
0.0
 71
     9
 72
     1
  1
15
  7
CONVERTER_11
 73
     1
 44
1.32052821128451
  0
MTEXT
  5
13C
330
43
100
AcDbEntity
  8
1
 62
     2
100
AcDbMText
 10
1271.50395790249
 20
-259.9971990486356
 30
0.0
 40
2.5
 41
0.0
 71
     9
 72
     1
  1
120
  7
CONVERTER_11
 73
     1
 44
1.32052821128451
  0
MTEXT
  5
13D
330
43
100
AcDbEntity
  8
1
 62
     2
100
AcDbMText
 10
1262.25395790249
 20
-259.9971990486356
 30
0.0
 40
2.5
 41
0.0
 71
     9
 72
     1
  1
 10
  7
CONVERTER_11
 73
     1
 44
1.32052821128451
  0
MTEXT
  5
13E
330
43
100
AcDbEntity
  8
1
 62
     2
100
AcDbMText
 10
1271.50395790249
 20
-264.9971990486338
 30
0.0
 40
2.5
 41
0.0
 71
     9
 72
     1
  1
160
  7
CONVERTER_11
 73
     1
 44
1.32052821128451
  0
MTEXT
  5
13F
330
43
100
AcDbEntity
  8
1
 62
     2
100
AcDbMText
 10
1260.253957902489
 20
-264.1517513731978
 30
0.0
 40
2.5
 41
0.0
 71
     5
 72
     1
  1
13
  7
CONVERTER_11
 73
     1
 44
1.32052821128451
  0
MTEXT
  5
140
330
43
100
AcDbEntity
  8
1
 62
     2
100
AcDbMText
 10
1254.253957902489
 20
-264.9971990486338
 30
0.0
 40
2.5
 41
0.0
 71
     9
 72
     1
  1
14,5
  7
CONVERTER_11
 73
     1
 44
1.32052821128451
  0
MTEXT
  5
141
330
43
100
AcDbEntity
  8
1
 62
     2
100
AcDbMText
 10
1246.252130121029
 20
-264.9971990486347
 30
0.0
 40
2.5
 41
0.0
 71
     9
 72
     1
  1
74
  7
CONVERTER_11
 73
     1
 44
1.32052821128451
  0
MTEXT
  5
142
330
43
100
AcDbEntity
  8
1
 62
     2
100
AcDbMText
 10
1235.051566307536
 20
-264.9971990486338
 30
0.0
 40
2.5
 41
0.0
 71
     9
 72
     1
  1
229,5
  7
CONVERTER_11
 73
     1
 44
1.32052821128451
  0
MTEXT
  5
143
330
43
100
AcDbEntity
  8
1
 62
     2
100
AcDbMText
 10
1262.25395790249
 20
-279.9971990486347
 30
0.0
 40
2.5
 41
0.0
 71
     9
 72
     1
  1
 10
  7
CONVERTER_11
 73
     1
 44
1.32052821128451
  0
MTEXT
  5
144
330
43
100
AcDbEntity
  8
1
 62
     2
100
AcDbMText
 10
1262.25395790249
 20
-269.9971990486356
 30
0.0
 40
2.5
 41
0.0
 71
     9
 72
     1
  1
 10
  7
CONVERTER_11
 73
     1
 44
1.32052821128451
  0
MTEXT
  5
145
330
43
100
AcDbEntity
  8
1
 62
     2
100
AcDbMText
 10
1235.051566307536
 20
-274.9971990486338
 30
0.0
 40
2.5
 41
0.0
 71
     9
 72
     1
  1
239,5
  7
CONVERTER_11
 73
     1
 44
1.32052821128451
  0
MTEXT
  5
146
330
43
100
AcDbEntity
  8
1
 62
     2
100
AcDbMText
 10
1246.252130121029
 20
-274.9971990486347
 30
0.0
 40
2.5
 41
0.0
 71
     9
 72
     1
  1
84,5
  7
CONVERTER_11
 73
     1
 44
1.32052821128451
  0
MTEXT
  5
147
330
43
100
AcDbEntity
  8
1
 62
     2
100
AcDbMText
 10
1254.253957902489
 20
-274.9971990486338
 30
0.0
 40
2.5
 41
0.0
 71
     9
 72
     1
  1
13
  7
CONVERTER_11
 73
     1
 44
1.32052821128451
  0
MTEXT
  5
148
330
43
100
AcDbEntity
  8
1
 62
     2
100
AcDbMText
 10
1260.253957902489
 20
-274.1517513731978
 30
0.0
 40
2.5
 41
0.0
 71
     5
 72
     1
  1
--
  7
CONVERTER_11
 73
     1
 44
1.32052821128451
  0
MTEXT
  5
149
330
43
100
AcDbEntity
  8
1
 62
     2
100
AcDbMText
 10
1271.50395790249
 20
-274.9971990486338
 30
0.0
 40
2.5
 41
0.0
 71
     9
 72
     1
  1
200
  7
CONVERTER_11
 73
     1
 44
1.32052821128451
  0
MTEXT
  5
14A
330
43
100
AcDbEntity
  8
1
 62
     2
100
AcDbMText
 10
1281.453957902491
 20
-249.9971990486356
 30
0.0
 40
2.5
 41
0.0
 71
     8
 72
     1
  1
Rotex
  7
CONVERTER_11
 73
     1
 44
1.32052821128451
  0
MTEXT
  5
14B
330
43
100
AcDbEntity
  8
1
 62
     2
100
AcDbMText
 10
1281.453957902491
 20
-254.9971990486356
 30
0.0
 40
2.5
 41
0.0
 71
     8
 72
     1
  1
19
  7
CONVERTER_11
 73
     1
 44
1.32052821128451
  0
MTEXT
  5
14C
330
43
100
AcDbEntity
  8
1
 62
     2
100
AcDbMText
 10
1281.453957902491
 20
-259.9971990486356
 30
0.0
 40
2.5
 41
0.0
 71
     8
 72
     1
  1
19
  7
CONVERTER_11
 73
     1
 44
1.32052821128451
  0
MTEXT
  5
14D
330
43
100
AcDbEntity
  8
1
 62
     2
100
AcDbMText
 10
1281.453957902491
 20
-264.9971990486356
 30
0.0
 40
2.5
 41
0.0
 71
     8
 72
     1
  1
19
  7
CONVERTER_11
 73
     1
 44
1.32052821128451
  0
MTEXT
  5
14E
330
43
100
AcDbEntity
  8
1
 62
     2
100
AcDbMText
 10
1281.453957902491
 20
-269.9971990486356
 30
0.0
 40
2.5
 41
0.0
 71
     8
 72
     1
  1
19
  7
CONVERTER_11
 73
     1
 44
1.32052821128451
  0
MTEXT
  5
14F
330
43
100
AcDbEntity
  8
1
 62
     2
100
AcDbMText
 10
1281.453957902491
 20
-274.9971990486347
 30
0.0
 40
2.5
 41
0.0
 71
     8
 72
     1
  1
19
  7
CONVERTER_11
 73
     1
 44
1.32052821128451
  0
MTEXT
  5
150
330
43
100
AcDbEntity
  8
1
 62
     2
100
AcDbMText
 10
1281.453957902491
 20
-279.9971990486347
 30
0.0
 40
2.5
 41
0.0
 71
     8
 72
     1
  1
19
  7
CONVERTER_11
 73
     1
 44
1.32052821128451
  0
ENDBLK
  5
45
330
43
100
AcDbEntity
  8
0
100
AcDbBlockEnd
  0
BLOCK
  5
6A
330
46
100
AcDbEntity
  8
0
100
AcDbBlockBegin
  2
Top__2
 70
     0
 10
2884.835516122292
 20
-730.1950731312045
 30
0.0
  3
Top__2
  1

  0
INSERT
  5
69
330
46
100
AcDbEntity
  8
1
100
AcDbBlockReference
  2
Top__1
 10
12129.60071518947
 20
-6125.559710336782
 30
0.0
 41
2.5
 42
2.5
 43
2.5
  0
LINE
  5
151
330
46
100
AcDbEntity
  8
1
  6
Continuous
 62
     4
100
AcDbLine
 10
2588.16095990927
 20
-495.6946194561662
 30
0.0
 11
2596.16095990927
 21
-495.6946194561662
 31
0.0
  0
LINE
  5
152
330
46
100
AcDbEntity
  8
1
  6
Continuous
 62
     4
100
AcDbLine
 10
2588.16095990927
 20
-530.8074181224542
 30
0.0
 11
2588.16095990927
 21
-495.6946194561662
 31
0.0
  0
LINE
  5
153
330
46
100
AcDbEntity
  8
1
  6
DASH_CENTER
 62
     2
100
AcDbLine
 10
2822.394447306356
 20
-867.6946194561663
 30
0.0
 11
2812.662239480029
 21
-867.6946194561667
 31
0.0
  0
LINE
  5
154
330
46
100
AcDbEntity
  8
1
  6
Continuous
 62
     4
100
AcDbLine
 10
2812.662239480029
 20
-867.6946194561667
 30
0.0
 11
2786.16095990927
 21
-867.6946194561674
 31
0.0
  0
LINE
  5
155
330
46
100
AcDbEntity
  8
1
  6
Continuous
 62
     4
100
AcDbLine
 10
2746.16095990927
 20
-867.6946194561674
 30
0.0
 11
2742.16095990927
 21
-867.6946194561674
 31
0.0
  0
LINE
  5
156
330
46
100
AcDbEntity
  8
1
  6
DASH_CENTER
 62
     2
100
AcDbLine
 10
2786.16095990927
 20
-867.6946194561674
 30
0.0
 11
2746.16095990927
 21
-867.6946194561674
 31
0.0
  0
LINE
  5
157
330
46
100
AcDbEntity
  8
1
  6
DASH_CENTER
 62
     2
100
AcDbLine
 10
2582.544722113411
 20
-508.1946194561662
 30
0.0
 11
2733.16095990927
 21
-508.1946194561662
 31
0.0
  0
LINE
  5
158
330
46
100
AcDbEntity
  8
1
  6
Continuous
 62
     4
100
AcDbLine
 10
2733.16095990927
 20
-508.1946194561662
 30
0.0
 11
2812.662239480029
 21
-508.1946194561662
 31
0.0
  0
LINE
  5
159
330
46
100
AcDbEntity
  8
1
  6
DASH_CENTER
 62
     2
100
AcDbLine
 10
2580.592826661467
 20
-555.694619456166
 30
0.0
 11
2614.66095990927
 21
-555.694619456166
 31
0.0
  0
LINE
  5
15A
330
46
100
AcDbEntity
  8
1
  6
Continuous
 62
     4
100
AcDbLine
 10
2701.58360964008
 20
-609.6946194561663
 30
0.0
 11
2690.814353570514
 21
-609.6946194561663
 31
0.0
  0
LINE
  5
15B
330
46
100
AcDbEntity
  8
1
  6
Continuous
 62
     4
100
AcDbLine
 10
2716.66095990927
 20
-600.6946194561663
 30
0.0
 11
2704.347229575239
 21
-600.6946194561663
 31
0.0
  0
LINE
  5
15C
330
46
100
AcDbEntity
  8
1
  6
Continuous
 62
     4
100
AcDbLine
 10
2612.66095990927
 20
-600.6946194561663
 30
0.0
 11
2624.974690243302
 21
-600.6946194561663
 31
0.0
  0
LINE
  5
15D
330
46
100
AcDbEntity
  8
1
  6
Continuous
 62
     4
100
AcDbLine
 10
2719.66095990927
 20
-919.6946194561662
 30
0.0
 11
2719.66095990927
 21
-912.6946194561662
 31
0.0
  0
LINE
  5
15E
330
46
100
AcDbEntity
  8
1
  6
Continuous
 62
     4
100
AcDbLine
 10
2716.66095990927
 20
-921.6946194561662
 30
0.0
 11
2716.66095990927
 21
-919.6946194561662
 31
0.0
  0
LINE
  5
15F
330
46
100
AcDbEntity
  8
1
  6
Continuous
 62
     4
100
AcDbLine
 10
2716.66095990927
 20
-919.6946194561662
 30
0.0
 11
2719.66095990927
 21
-919.6946194561662
 31
0.0
  0
LINE
  5
160
330
46
100
AcDbEntity
  8
1
  6
Continuous
 62
     4
100
AcDbLine
 10
2702.16095990927
 20
-921.6946194561662
 30
0.0
 11
2702.16095990927
 21
-907.6946194561662
 31
0.0
  0
LINE
  5
161
330
46
100
AcDbEntity
  8
1
  6
Continuous
 62
     4
100
AcDbLine
 10
2702.16095990927
 20
-919.694619456166
 30
0.0
 11
2627.16095990927
 21
-919.694619456166
 31
0.0
  0
LINE
  5
162
330
46
100
AcDbEntity
  8
1
  6
Continuous
 62
     4
100
AcDbLine
 10
2612.66095990927
 20
-921.6946194561662
 30
0.0
 11
2612.66095990927
 21
-919.694619456166
 31
0.0
  0
LINE
  5
163
330
46
100
AcDbEntity
  8
1
  6
Continuous
 62
     4
100
AcDbLine
 10
2609.66095990927
 20
-919.7161245614143
 30
0.0
 11
2609.66095990927
 21
-919.6946194561662
 31
0.0
  0
LINE
  5
164
330
46
100
AcDbEntity
  8
1
  6
Continuous
 62
     4
100
AcDbLine
 10
2612.66095990927
 20
-919.694619456166
 30
0.0
 11
2609.66095990927
 21
-919.6946194561662
 31
0.0
  0
LINE
  5
165
330
46
100
AcDbEntity
  8
1
  6
Continuous
 62
     4
100
AcDbLine
 10
2609.66095990927
 20
-919.6946194561662
 30
0.0
 11
2609.66095990927
 21
-912.6946194561662
 31
0.0
  0
LINE
  5
166
330
46
100
AcDbEntity
  8
1
  6
Continuous
 62
     2
100
AcDbLine
 10
2497.40681931962
 20
-734.9128635731848
 30
0.0
 11
2600.614970185318
 21
-734.9128635731848
 31
0.0
  0
LINE
  5
167
330
46
100
AcDbEntity
  8
1
  6
Continuous
 62
     2
100
AcDbLine
 10
2600.614970185318
 20
-734.9128635731848
 30
0.0
 11
2600.614970185318
 21
-720.5027172425558
 31
0.0
  0
LINE
  5
168
330
46
100
AcDbEntity
  8
1
  6
Continuous
 62
     2
100
AcDbLine
 10
2600.614970185318
 20
-720.5027172425558
 30
0.0
 11
2497.40681931962
 21
-720.5027172425558
 31
0.0
  0
LINE
  5
169
330
46
100
AcDbEntity
  8
1
  6
Continuous
 62
     2
100
AcDbLine
 10
2497.40681931962
 20
-720.5027172425558
 30
0.0
 11
2497.40681931962
 21
-734.9128635731848
 31
0.0
  0
LINE
  5
16A
330
46
100
AcDbEntity
  8
1
  6
DASH_CENTER
 62
     2
100
AcDbLine
 10
2622.409956030928
 20
-597.9456233345078
 30
0.0
 11
2636.563549613114
 21
-583.7920297523223
 31
0.0
  0
LINE
  5
16B
330
46
100
AcDbEntity
  8
1
  6
DASH_CENTER
 62
     2
100
AcDbLine
 10
2706.911963787612
 20
-597.9456233345078
 30
0.0
 11
2692.758370205427
 21
-583.7920297523223
 31
0.0
  0
LINE
  5
16C
330
46
100
AcDbEntity
  8
1
  6
DASH_CENTER
 62
     2
100
AcDbLine
 10
2706.911963787612
 20
-513.4436155778243
 30
0.0
 11
2692.758370205426
 21
-527.5972091600099
 31
0.0
  0
LINE
  5
16D
330
46
100
AcDbEntity
  8
1
  6
DASH_CENTER
 62
     2
100
AcDbLine
 10
2622.409956030928
 20
-513.4436155778243
 30
0.0
 11
2636.563549613114
 21
-527.5972091600099
 31
0.0
  0
LINE
  5
16E
330
46
100
AcDbEntity
  8
1
  6
Continuous
 62
     4
100
AcDbLine
 10
2741.16095990927
 20
-552.9866445825287
 30
0.0
 11
2788.356832190696
 21
-561.308550243815
 31
0.0
  0
LINE
  5
16F
330
46
100
AcDbEntity
  8
1
  6
Continuous
 62
     4
100
AcDbLine
 10
2781.16095990927
 20
-862.6946194561674
 30
0.0
 11
2751.16095990927
 21
-862.6946194561674
 31
0.0
  0
LINE
  5
170
330
46
100
AcDbEntity
  8
1
  6
Continuous
 62
     4
100
AcDbLine
 10
2751.16095990927
 20
-872.6946194561674
 30
0.0
 11
2781.16095990927
 21
-872.6946194561674
 31
0.0
  0
LINE
  5
171
330
46
100
AcDbEntity
  8
1
  6
Continuous
 62
     4
100
AcDbLine
 10
2742.16095990927
 20
-912.6629715632375
 30
0.0
 11
2788.356832190696
 21
-920.8085502438153
 31
0.0
  0
LINE
  5
172
330
46
100
AcDbEntity
  8
1
  6
DASH_CENTER
 62
     2
100
AcDbLine
 10
2705.264958960905
 20
-770.0906204045305
 30
0.0
 11
2692.32240589564
 21
-783.0331734697957
 31
0.0
  0
LINE
  5
173
330
46
100
AcDbEntity
  8
1
  6
DASH_CENTER
 62
     2
100
AcDbLine
 10
2624.056960857636
 20
-770.0906204045305
 30
0.0
 11
2636.9995139229
 21
-783.0331734697957
 31
0.0
  0
LINE
  5
174
330
46
100
AcDbEntity
  8
1
  6
Continuous
 62
     4
100
AcDbLine
 10
2791.662239480027
 20
-586.1946194561673
 30
0.0
 11
2791.662239480027
 21
-464.1948027992622
 31
0.0
  0
LINE
  5
175
330
46
100
AcDbEntity
  8
1
  6
Continuous
 62
     4
100
AcDbLine
 10
2801.662239480027
 20
-588.1946194561673
 30
0.0
 11
2801.662239480027
 21
-448.1946194561662
 31
0.0
  0
LINE
  5
176
330
46
100
AcDbEntity
  8
1
  6
Continuous
 62
     4
100
AcDbLine
 10
2801.662239480027
 20
-588.1946194561673
 30
0.0
 11
2793.662239480027
 21
-588.1946194561673
 31
0.0
  0
LINE
  5
177
330
46
100
AcDbEntity
  8
1
  6
Continuous
 62
     4
100
AcDbLine
 10
2791.662239480027
 20
-450.1946194561662
 30
0.0
 11
2791.662239480027
 21
-464.1948027992622
 31
0.0
  0
LINE
  5
178
330
46
100
AcDbEntity
  8
1
  6
Continuous
 62
     4
100
AcDbLine
 10
2793.662239480027
 20
-448.1946194561662
 30
0.0
 11
2801.662239480027
 21
-448.1946194561662
 31
0.0
  0
LINE
  5
179
330
46
100
AcDbEntity
  8
1
  6
Continuous
 62
     4
100
AcDbLine
 10
2789.662239480027
 20
-466.1948027992622
 30
0.0
 11
2742.16095990927
 21
-466.1948027992622
 31
0.0
  0
LINE
  5
17A
330
46
100
AcDbEntity
  8
1
  6
Continuous
 62
     4
100
AcDbLine
 10
2791.662239480027
 20
-945.6946194561674
 30
0.0
 11
2791.662239480027
 21
-823.6948027992614
 31
0.0
  0
LINE
  5
17B
330
46
100
AcDbEntity
  8
1
  6
Continuous
 62
     4
100
AcDbLine
 10
2801.662239480027
 20
-947.6946194561674
 30
0.0
 11
2801.662239480027
 21
-807.6946194561663
 31
0.0
  0
LINE
  5
17C
330
46
100
AcDbEntity
  8
1
  6
Continuous
 62
     4
100
AcDbLine
 10
2791.662239480027
 20
-809.6946194561663
 30
0.0
 11
2791.662239480027
 21
-823.6948027992614
 31
0.0
  0
LINE
  5
17D
330
46
100
AcDbEntity
  8
1
  6
Continuous
 62
     4
100
AcDbLine
 10
2793.662239480027
 20
-807.6946194561663
 30
0.0
 11
2801.662239480027
 21
-807.6946194561663
 31
0.0
  0
LINE
  5
17E
330
46
100
AcDbEntity
  8
1
  6
Continuous
 62
     4
100
AcDbLine
 10
2789.662239480027
 20
-825.6948027992614
 30
0.0
 11
2742.16095990927
 21
-825.6948027992614
 31
0.0
  0
LINE
  5
17F
330
46
100
AcDbEntity
  8
1
  6
Continuous
 62
     4
100
AcDbLine
 10
2801.662239480027
 20
-947.6946194561674
 30
0.0
 11
2793.662239480027
 21
-947.6946194561674
 31
0.0
  0
LINE
  5
180
330
46
100
AcDbEntity
  8
1
  6
Continuous
 62
     4
100
AcDbLine
 10
2801.662239480027
 20
-947.6946194561674
 30
0.0
 11
2801.662239480027
 21
-957.6946194561663
 31
0.0
  0
LINE
  5
181
330
46
100
AcDbEntity
  8
1
  6
Continuous
 62
     4
100
AcDbLine
 10
2801.662239480027
 20
-807.6946194561663
 30
0.0
 11
2812.662239480029
 21
-807.6946194561673
 31
0.0
  0
LINE
  5
182
330
46
100
AcDbEntity
  8
1
  6
Continuous
 62
     4
100
AcDbLine
 10
2801.662239480027
 20
-957.6946194561663
 30
0.0
 11
2812.662239480029
 21
-957.6946194561663
 31
0.0
  0
LINE
  5
183
330
46
100
AcDbEntity
  8
1
  6
Continuous
 62
     4
100
AcDbLine
 10
2801.662239480029
 20
-598.194619456166
 30
0.0
 11
2801.662239480029
 21
-448.1946194561662
 31
0.0
  0
LINE
  5
184
330
46
100
AcDbEntity
  8
1
  6
Continuous
 62
     4
100
AcDbLine
 10
2812.662239480029
 20
-448.1946194561662
 30
0.0
 11
2801.662239480029
 21
-448.1946194561662
 31
0.0
  0
LINE
  5
185
330
46
100
AcDbEntity
  8
1
  6
Continuous
 62
     4
100
AcDbLine
 10
2812.662239480029
 20
-598.194619456166
 30
0.0
 11
2812.662239480029
 21
-448.1946194561662
 31
0.0
  0
LINE
  5
186
330
46
100
AcDbEntity
  8
1
  6
Continuous
 62
     4
100
AcDbLine
 10
2801.662239480029
 20
-598.194619456166
 30
0.0
 11
2812.662239480029
 21
-598.194619456166
 31
0.0
  0
LINE
  5
187
330
46
100
AcDbEntity
  8
1
  6
Continuous
 62
     4
100
AcDbLine
 10
2812.662239480029
 20
-957.6946194561663
 30
0.0
 11
2812.662239480029
 21
-807.6946194561673
 31
0.0
  0
LINE
  5
188
330
46
100
AcDbEntity
  8
1
  6
Continuous
 62
     4
100
AcDbLine
 10
2596.16095990927
 20
-530.8074181224542
 30
0.0
 11
2596.16095990927
 21
-495.6946194561662
 31
0.0
  0
LINE
  5
189
330
46
100
AcDbEntity
  8
1
  6
Continuous
 62
     4
100
AcDbLine
 10
2588.16095990927
 20
-530.8074181224542
 30
0.0
 11
2596.16095990927
 21
-530.8074181224542
 31
0.0
  0
LINE
  5
18A
330
46
100
AcDbEntity
  8
1
  6
Continuous
 62
     4
100
AcDbLine
 10
2733.16095990927
 20
-530.8074181224542
 30
0.0
 11
2733.16095990927
 21
-495.6946194561662
 31
0.0
  0
LINE
  5
18B
330
46
100
AcDbEntity
  8
1
  6
Continuous
 62
     4
100
AcDbLine
 10
2741.16095990927
 20
-530.8074181224542
 30
0.0
 11
2741.16095990927
 21
-570.1172691869765
 31
0.0
  0
LINE
  5
18C
330
46
100
AcDbEntity
  8
1
  6
Continuous
 62
     4
100
AcDbLine
 10
2741.16095990927
 20
-530.8074181224542
 30
0.0
 11
2733.16095990927
 21
-530.8074181224542
 31
0.0
  0
LINE
  5
18D
330
46
100
AcDbEntity
  8
1
  6
DASH_CENTER
 62
     2
100
AcDbLine
 10
2727.752447459246
 20
-477.6946194561662
 30
0.0
 11
2745.400183949826
 21
-477.6946194561662
 31
0.0
  0
LINE
  5
18E
330
46
100
AcDbEntity
  8
1
  6
Continuous
 62
     4
100
AcDbLine
 10
2723.66095990927
 20
-455.6946194561662
 30
0.0
 11
2739.16095990927
 21
-455.6946194561662
 31
0.0
  0
LINE
  5
18F
330
46
100
AcDbEntity
  8
1
  6
Continuous
 62
     4
100
AcDbLine
 10
2716.66095990927
 20
-455.6946194561662
 30
0.0
 11
2723.66095990927
 21
-455.6946194561662
 31
0.0
  0
LINE
  5
190
330
46
100
AcDbEntity
  8
1
  6
Continuous
 62
     4
100
AcDbLine
 10
2716.66095990927
 20
-465.6946194561662
 30
0.0
 11
2723.66095990927
 21
-465.6946194561662
 31
0.0
  0
LINE
  5
191
330
46
100
AcDbEntity
  8
1
  6
Continuous
 62
     4
100
AcDbLine
 10
2723.66095990927
 20
-465.6946194561662
 30
0.0
 11
2728.16095990927
 21
-465.6946194561662
 31
0.0
  0
LINE
  5
192
330
46
100
AcDbEntity
  8
1
  6
Continuous
 62
     4
100
AcDbLine
 10
2732.16095990927
 20
-474.1946194561662
 30
0.0
 11
2732.16095990927
 21
-481.1946194561662
 31
0.0
  0
LINE
  5
193
330
46
100
AcDbEntity
  8
1
  6
Continuous
 62
     4
100
AcDbLine
 10
2732.16095990927
 20
-481.1946194561662
 30
0.0
 11
2732.16095990927
 21
-494.6946194561662
 31
0.0
  0
LINE
  5
194
330
46
100
AcDbEntity
  8
1
  6
Continuous
 62
     4
100
AcDbLine
 10
2742.16095990927
 20
-481.1946194561662
 30
0.0
 11
2742.16095990927
 21
-495.6946194561662
 31
0.0
  0
LINE
  5
195
330
46
100
AcDbEntity
  8
1
  6
Continuous
 62
     4
100
AcDbLine
 10
2742.16095990927
 20
-474.1946194561662
 30
0.0
 11
2742.16095990927
 21
-481.1946194561662
 31
0.0
  0
LINE
  5
196
330
46
100
AcDbEntity
  8
1
  6
Continuous
 62
     4
100
AcDbLine
 10
2742.16095990927
 20
-585.1946194561663
 30
0.0
 11
2742.16095990927
 21
-570.694619456166
 31
0.0
  0
LINE
  5
197
330
46
100
AcDbEntity
  8
1
  6
Continuous
 62
     4
100
AcDbLine
 10
2742.16095990927
 20
-592.1946194561663
 30
0.0
 11
2742.16095990927
 21
-585.1946194561663
 31
0.0
  0
LINE
  5
198
330
46
100
AcDbEntity
  8
1
  6
Continuous
 62
     4
100
AcDbLine
 10
2732.16095990927
 20
-585.1946194561663
 30
0.0
 11
2732.16095990927
 21
-592.1946194561663
 31
0.0
  0
LINE
  5
199
330
46
100
AcDbEntity
  8
1
  6
Continuous
 62
     4
100
AcDbLine
 10
2732.16095990927
 20
-592.1946194561663
 30
0.0
 11
2732.16095990927
 21
-596.6946194561663
 31
0.0
  0
LINE
  5
19A
330
46
100
AcDbEntity
  8
1
  6
Continuous
 62
     4
100
AcDbLine
 10
2723.66095990927
 20
-600.6946194561663
 30
0.0
 11
2716.66095990927
 21
-600.6946194561663
 31
0.0
  0
LINE
  5
19B
330
46
100
AcDbEntity
  8
1
  6
Continuous
 62
     4
100
AcDbLine
 10
2716.66095990927
 20
-610.6946194561663
 30
0.0
 11
2723.66095990927
 21
-610.6946194561663
 31
0.0
  0
LINE
  5
19C
330
46
100
AcDbEntity
  8
1
  6
Continuous
 62
     4
100
AcDbLine
 10
2723.66095990927
 20
-610.6946194561663
 30
0.0
 11
2739.16095990927
 21
-610.6946194561663
 31
0.0
  0
LINE
  5
19D
330
46
100
AcDbEntity
  8
1
  6
Continuous
 62
     4
100
AcDbLine
 10
2612.66095990927
 20
-610.6946194561663
 30
0.0
 11
2627.16095990927
 21
-610.6946194561663
 31
0.0
  0
LINE
  5
19E
330
46
100
AcDbEntity
  8
1
  6
Continuous
 62
     4
100
AcDbLine
 10
2605.66095990927
 20
-610.6946194561663
 30
0.0
 11
2612.66095990927
 21
-610.6946194561663
 31
0.0
  0
LINE
  5
19F
330
46
100
AcDbEntity
  8
1
  6
Continuous
 62
     4
100
AcDbLine
 10
2605.66095990927
 20
-600.6946194561663
 30
0.0
 11
2612.66095990927
 21
-600.6946194561663
 31
0.0
  0
LINE
  5
1A0
330
46
100
AcDbEntity
  8
1
  6
Continuous
 62
     4
100
AcDbLine
 10
2597.16095990927
 20
-585.1946194561663
 30
0.0
 11
2597.16095990927
 21
-571.694619456166
 31
0.0
  0
LINE
  5
1A1
330
46
100
AcDbEntity
  8
1
  6
Continuous
 62
     4
100
AcDbLine
 10
2597.16095990927
 20
-592.1946194561663
 30
0.0
 11
2597.16095990927
 21
-585.1946194561663
 31
0.0
  0
LINE
  5
1A2
330
46
100
AcDbEntity
  8
1
  6
Continuous
 62
     4
100
AcDbLine
 10
2587.16095990927
 20
-592.1946194561665
 30
0.0
 11
2587.16095990927
 21
-585.1946194561663
 31
0.0
  0
LINE
  5
1A3
330
46
100
AcDbEntity
  8
1
  6
Continuous
 62
     4
100
AcDbLine
 10
2587.16095990927
 20
-585.1946194561663
 30
0.0
 11
2587.16095990927
 21
-570.694619456166
 31
0.0
  0
LINE
  5
1A4
330
46
100
AcDbEntity
  8
1
  6
Continuous
 62
     4
100
AcDbLine
 10
2587.16095990927
 20
-481.1946194561662
 30
0.0
 11
2587.16095990927
 21
-495.6946194561662
 31
0.0
  0
LINE
  5
1A5
330
46
100
AcDbEntity
  8
1
  6
Continuous
 62
     4
100
AcDbLine
 10
2587.16095990927
 20
-474.1946194561662
 30
0.0
 11
2587.16095990927
 21
-481.1946194561662
 31
0.0
  0
LINE
  5
1A6
330
46
100
AcDbEntity
  8
1
  6
Continuous
 62
     4
100
AcDbLine
 10
2605.66095990927
 20
-455.6946194561662
 30
0.0
 11
2612.66095990927
 21
-455.6946194561662
 31
0.0
  0
LINE
  5
1A7
330
46
100
AcDbEntity
  8
1
  6
Continuous
 62
     4
100
AcDbLine
 10
2612.66095990927
 20
-455.6946194561662
 30
0.0
 11
2627.16095990927
 21
-455.6946194561662
 31
0.0
  0
LINE
  5
1A8
330
46
100
AcDbEntity
  8
1
  6
Continuous
 62
     4
100
AcDbLine
 10
2612.66095990927
 20
-465.6946194561662
 30
0.0
 11
2605.66095990927
 21
-465.6946194561662
 31
0.0
  0
LINE
  5
1A9
330
46
100
AcDbEntity
  8
1
  6
Continuous
 62
     4
100
AcDbLine
 10
2605.66095990927
 20
-465.6946194561662
 30
0.0
 11
2601.16095990927
 21
-465.6946194561662
 31
0.0
  0
LINE
  5
1AA
330
46
100
AcDbEntity
  8
1
  6
Continuous
 62
     4
100
AcDbLine
 10
2597.16095990927
 20
-474.1946194561662
 30
0.0
 11
2597.16095990927
 21
-481.1946194561662
 31
0.0
  0
LINE
  5
1AB
330
46
100
AcDbEntity
  8
1
  6
Continuous
 62
     4
100
AcDbLine
 10
2597.16095990927
 20
-481.1946194561662
 30
0.0
 11
2597.16095990927
 21
-494.6946194561662
 31
0.0
  0
LINE
  5
1AC
330
46
100
AcDbEntity
  8
1
  6
DASH_CENTER
 62
     2
100
AcDbLine
 10
2614.66095990927
 20
-555.694619456166
 30
0.0
 11
2746.503940076693
 21
-555.694619456166
 31
0.0
  0
LINE
  5
1AD
330
46
100
AcDbEntity
  8
1
  6
Continuous
 62
     4
100
AcDbLine
 10
2597.16095990927
 20
-481.1946194561662
 30
0.0
 11
2587.16095990927
 21
-481.1946194561662
 31
0.0
  0
LINE
  5
1AE
330
46
100
AcDbEntity
  8
1
  6
Continuous
 62
     4
100
AcDbLine
 10
2587.16095990927
 20
-607.6946194561663
 30
0.0
 11
2590.16095990927
 21
-610.6946194561663
 31
0.0
  0
LINE
  5
1AF
330
46
100
AcDbEntity
  8
1
  6
Continuous
 62
     4
100
AcDbLine
 10
2587.16095990927
 20
-607.6946194561663
 30
0.0
 11
2587.16095990927
 21
-592.1946194561665
 31
0.0
  0
LINE
  5
1B0
330
46
100
AcDbEntity
  8
1
  6
Continuous
 62
     4
100
AcDbLine
 10
2742.16095990927
 20
-607.6946194561663
 30
0.0
 11
2739.16095990927
 21
-610.6946194561663
 31
0.0
  0
LINE
  5
1B1
330
46
100
AcDbEntity
  8
1
  6
Continuous
 62
     4
100
AcDbLine
 10
2742.16095990927
 20
-607.6946194561663
 30
0.0
 11
2742.16095990927
 21
-592.1946194561663
 31
0.0
  0
LINE
  5
1B2
330
46
100
AcDbEntity
  8
1
  6
Continuous
 62
     4
100
AcDbLine
 10
2597.16095990927
 20
-469.6946194561662
 30
0.0
 11
2597.16095990927
 21
-474.1946194561662
 31
0.0
  0
LINE
  5
1B3
330
46
100
AcDbEntity
  8
1
  6
DASH_CENTER
 62
     2
100
AcDbLine
 10
2583.921735868714
 20
-477.6946194561662
 30
0.0
 11
2601.569472359294
 21
-477.6946194561662
 31
0.0
  0
LINE
  5
1B4
330
46
100
AcDbEntity
  8
1
  6
DASH_CENTER
 62
     2
100
AcDbLine
 10
2812.662239480029
 20
-508.1946194561662
 30
0.0
 11
2822.394447306356
 21
-508.1946194561662
 31
0.0
  0
LINE
  5
1B5
330
46
100
AcDbEntity
  8
1
  6
DASH_CENTER
 62
     2
100
AcDbLine
 10
2664.66095990927
 20
-452.636812710865
 30
0.0
 11
2664.66095990927
 21
-498.0151275318548
 31
0.0
  0
LINE
  5
1B6
330
46
100
AcDbEntity
  8
1
  6
DASH_CENTER
 62
     2
100
AcDbLine
 10
2720.16095990927
 20
-453.4707724327517
 30
0.0
 11
2720.16095990927
 21
-468.6188536635167
 31
0.0
  0
LINE
  5
1B7
330
46
100
AcDbEntity
  8
1
  6
DASH_CENTER
 62
     2
100
AcDbLine
 10
2609.160959909271
 20
-452.6051677909937
 30
0.0
 11
2609.160959909271
 21
-469.4844583052749
 31
0.0
  0
LINE
  5
1B8
330
46
100
AcDbEntity
  8
1
  6
Continuous
 62
     4
100
AcDbLine
 10
2733.16095990927
 20
-495.6946194561662
 30
0.0
 11
2742.16095990927
 21
-495.6946194561662
 31
0.0
  0
LINE
  5
1B9
330
46
100
AcDbEntity
  8
1
  6
Continuous
 62
     4
100
AcDbLine
 10
2732.16095990927
 20
-469.6946194561662
 30
0.0
 11
2732.16095990927
 21
-474.1946194561662
 31
0.0
  0
LINE
  5
1BA
330
46
100
AcDbEntity
  8
1
  6
Continuous
 62
     4
100
AcDbLine
 10
2703.16095990927
 20
-465.6946194561662
 30
0.0
 11
2716.66095990927
 21
-465.6946194561662
 31
0.0
  0
LINE
  5
1BB
330
46
100
AcDbEntity
  8
1
  6
Continuous
 62
     4
100
AcDbLine
 10
2702.16095990927
 20
-455.6946194561662
 30
0.0
 11
2702.16095990927
 21
-464.6946194561662
 31
0.0
  0
LINE
  5
1BC
330
46
100
AcDbEntity
  8
1
  6
Continuous
 62
     4
100
AcDbLine
 10
2626.16095990927
 20
-465.6946194561662
 30
0.0
 11
2612.66095990927
 21
-465.6946194561662
 31
0.0
  0
LINE
  5
1BD
330
46
100
AcDbEntity
  8
1
  6
Continuous
 62
     4
100
AcDbLine
 10
2627.16095990927
 20
-455.6946194561662
 30
0.0
 11
2627.16095990927
 21
-464.6946194561662
 31
0.0
  0
LINE
  5
1BE
330
46
100
AcDbEntity
  8
1
  6
Continuous
 62
     4
100
AcDbLine
 10
2742.16095990927
 20
-481.1946194561662
 30
0.0
 11
2732.16095990927
 21
-481.1946194561662
 31
0.0
  0
LINE
  5
1BF
330
46
100
AcDbEntity
  8
1
  6
Continuous
 62
     4
100
AcDbLine
 10
2742.16095990927
 20
-474.1946194561662
 30
0.0
 11
2732.16095990927
 21
-474.1946194561662
 31
0.0
  0
LINE
  5
1C0
330
46
100
AcDbEntity
  8
1
  6
Continuous
 62
     4
100
AcDbLine
 10
2587.16095990927
 20
-474.1946194561662
 30
0.0
 11
2597.16095990927
 21
-474.1946194561662
 31
0.0
  0
LINE
  5
1C1
330
46
100
AcDbEntity
  8
1
  6
Continuous
 62
     4
100
AcDbLine
 10
2605.66095990927
 20
-455.6946194561662
 30
0.0
 11
2605.66095990927
 21
-465.6946194561662
 31
0.0
  0
LINE
  5
1C2
330
46
100
AcDbEntity
  8
1
  6
Continuous
 62
     4
100
AcDbLine
 10
2612.66095990927
 20
-465.6946194561662
 30
0.0
 11
2612.66095990927
 21
-455.6946194561662
 31
0.0
  0
LINE
  5
1C3
330
46
100
AcDbEntity
  8
1
  6
Continuous
 62
     4
100
AcDbLine
 10
2716.66095990927
 20
-455.6946194561662
 30
0.0
 11
2716.66095990927
 21
-465.6946194561662
 31
0.0
  0
LINE
  5
1C4
330
46
100
AcDbEntity
  8
1
  6
Continuous
 62
     4
100
AcDbLine
 10
2723.66095990927
 20
-455.6946194561662
 30
0.0
 11
2723.66095990927
 21
-465.6946194561662
 31
0.0
  0
LINE
  5
1C5
330
46
100
AcDbEntity
  8
1
  6
Continuous
 62
     4
100
AcDbLine
 10
2742.16095990927
 20
-458.6946194561662
 30
0.0
 11
2739.16095990927
 21
-455.6946194561662
 31
0.0
  0
LINE
  5
1C6
330
46
100
AcDbEntity
  8
1
  6
Continuous
 62
     4
100
AcDbLine
 10
2590.16095990927
 20
-455.6946194561662
 30
0.0
 11
2605.66095990927
 21
-455.6946194561662
 31
0.0
  0
LINE
  5
1C7
330
46
100
AcDbEntity
  8
1
  6
Continuous
 62
     4
100
AcDbLine
 10
2627.16095990927
 20
-455.6946194561662
 30
0.0
 11
2627.738310178459
 21
-456.6946194561662
 31
0.0
  0
LINE
  5
1C8
330
46
100
AcDbEntity
  8
1
  6
Continuous
 62
     4
100
AcDbLine
 10
2627.738310178459
 20
-456.6946194561662
 30
0.0
 11
2701.58360964008
 21
-456.6946194561662
 31
0.0
  0
LINE
  5
1C9
330
46
100
AcDbEntity
  8
1
  6
Continuous
 62
     4
100
AcDbLine
 10
2701.58360964008
 20
-456.6946194561662
 30
0.0
 11
2702.16095990927
 21
-455.6946194561662
 31
0.0
  0
LINE
  5
1CA
330
46
100
AcDbEntity
  8
1
  6
Continuous
 62
     4
100
AcDbLine
 10
2702.16095990927
 20
-455.6946194561662
 30
0.0
 11
2716.66095990927
 21
-455.6946194561662
 31
0.0
  0
LINE
  5
1CB
330
46
100
AcDbEntity
  8
1
  6
Continuous
 62
     4
100
AcDbLine
 10
2627.738310178459
 20
-609.6946194561663
 30
0.0
 11
2627.16095990927
 21
-610.6946194561663
 31
0.0
  0
LINE
  5
1CC
330
46
100
AcDbEntity
  8
1
  6
Continuous
 62
     4
100
AcDbLine
 10
2638.507566248027
 20
-609.6946194561663
 30
0.0
 11
2627.738310178459
 21
-609.6946194561663
 31
0.0
  0
LINE
  5
1CD
330
46
100
AcDbEntity
  8
1
  6
Continuous
 62
     4
100
AcDbLine
 10
2702.16095990927
 20
-610.6946194561663
 30
0.0
 11
2701.58360964008
 21
-609.6946194561663
 31
0.0
  0
LINE
  5
1CE
330
46
100
AcDbEntity
  8
1
  6
Continuous
 62
     4
100
AcDbLine
 10
2741.16095990927
 20
-570.1172691869765
 30
0.0
 11
2742.16095990927
 21
-570.694619456166
 31
0.0
  0
LINE
  5
1CF
330
46
100
AcDbEntity
  8
1
  6
Continuous
 62
     4
100
AcDbLine
 10
2587.16095990927
 20
-570.694619456166
 30
0.0
 11
2588.16095990927
 21
-570.1172691869765
 31
0.0
  0
LINE
  5
1D0
330
46
100
AcDbEntity
  8
1
  6
Continuous
 62
     4
100
AcDbLine
 10
2588.16095990927
 20
-570.1172691869765
 30
0.0
 11
2588.16095990927
 21
-530.8074181224542
 31
0.0
  0
LINE
  5
1D1
330
46
100
AcDbEntity
  8
1
  6
Continuous
 62
     4
100
AcDbLine
 10
2742.16095990927
 20
-458.6946194561662
 30
0.0
 11
2742.16095990927
 21
-474.1946194561662
 31
0.0
  0
LINE
  5
1D2
330
46
100
AcDbEntity
  8
1
  6
Continuous
 62
     4
100
AcDbLine
 10
2590.16095990927
 20
-455.6946194561662
 30
0.0
 11
2587.16095990927
 21
-458.6946194561662
 31
0.0
  0
LINE
  5
1D3
330
46
100
AcDbEntity
  8
1
  6
Continuous
 62
     4
100
AcDbLine
 10
2742.16095990927
 20
-570.694619456166
 30
0.0
 11
2733.16095990927
 21
-570.694619456166
 31
0.0
  0
LINE
  5
1D4
330
46
100
AcDbEntity
  8
1
  6
Continuous
 62
     4
100
AcDbLine
 10
2732.16095990927
 20
-571.694619456166
 30
0.0
 11
2732.16095990927
 21
-585.1946194561663
 31
0.0
  0
LINE
  5
1D5
330
46
100
AcDbEntity
  8
1
  6
Continuous
 62
     4
100
AcDbLine
 10
2728.16095990927
 20
-600.6946194561663
 30
0.0
 11
2723.66095990927
 21
-600.6946194561663
 31
0.0
  0
LINE
  5
1D6
330
46
100
AcDbEntity
  8
1
  6
Continuous
 62
     4
100
AcDbLine
 10
2702.16095990927
 20
-602.5321044441541
 30
0.0
 11
2702.16095990927
 21
-610.6946194561663
 31
0.0
  0
LINE
  5
1D7
330
46
100
AcDbEntity
  8
1
  6
Continuous
 62
     4
100
AcDbLine
 10
2587.16095990927
 20
-570.694619456166
 30
0.0
 11
2596.16095990927
 21
-570.694619456166
 31
0.0
  0
LINE
  5
1D8
330
46
100
AcDbEntity
  8
1
  6
Continuous
 62
     4
100
AcDbLine
 10
2601.16095990927
 20
-600.6946194561663
 30
0.0
 11
2605.66095990927
 21
-600.6946194561663
 31
0.0
  0
LINE
  5
1D9
330
46
100
AcDbEntity
  8
1
  6
Continuous
 62
     4
100
AcDbLine
 10
2627.16095990927
 20
-602.5321044441541
 30
0.0
 11
2627.16095990927
 21
-610.6946194561663
 31
0.0
  0
LINE
  5
1DA
330
46
100
AcDbEntity
  8
1
  6
Continuous
 62
     4
100
AcDbLine
 10
2732.16095990927
 20
-585.1946194561663
 30
0.0
 11
2742.16095990927
 21
-585.1946194561663
 31
0.0
  0
LINE
  5
1DB
330
46
100
AcDbEntity
  8
1
  6
Continuous
 62
     4
100
AcDbLine
 10
2732.16095990927
 20
-592.1946194561663
 30
0.0
 11
2742.16095990927
 21
-592.1946194561663
 31
0.0
  0
LINE
  5
1DC
330
46
100
AcDbEntity
  8
1
  6
Continuous
 62
     4
100
AcDbLine
 10
2587.16095990927
 20
-585.1946194561663
 30
0.0
 11
2597.16095990927
 21
-585.1946194561663
 31
0.0
  0
LINE
  5
1DD
330
46
100
AcDbEntity
  8
1
  6
Continuous
 62
     4
100
AcDbLine
 10
2597.16095990927
 20
-596.6946194561663
 30
0.0
 11
2597.16095990927
 21
-592.1946194561663
 31
0.0
  0
LINE
  5
1DE
330
46
100
AcDbEntity
  8
1
  6
Continuous
 62
     4
100
AcDbLine
 10
2597.16095990927
 20
-592.1946194561663
 30
0.0
 11
2587.16095990927
 21
-592.1946194561665
 31
0.0
  0
LINE
  5
1DF
330
46
100
AcDbEntity
  8
1
  6
Continuous
 62
     4
100
AcDbLine
 10
2605.66095990927
 20
-600.6946194561663
 30
0.0
 11
2605.66095990927
 21
-610.6946194561663
 31
0.0
  0
LINE
  5
1E0
330
46
100
AcDbEntity
  8
1
  6
Continuous
 62
     4
100
AcDbLine
 10
2590.16095990927
 20
-610.6946194561663
 30
0.0
 11
2605.66095990927
 21
-610.6946194561663
 31
0.0
  0
LINE
  5
1E1
330
46
100
AcDbEntity
  8
1
  6
Continuous
 62
     4
100
AcDbLine
 10
2612.66095990927
 20
-610.6946194561663
 30
0.0
 11
2612.66095990927
 21
-600.6946194561663
 31
0.0
  0
LINE
  5
1E2
330
46
100
AcDbEntity
  8
1
  6
Continuous
 62
     4
100
AcDbLine
 10
2716.66095990927
 20
-600.6946194561663
 30
0.0
 11
2716.66095990927
 21
-610.6946194561663
 31
0.0
  0
LINE
  5
1E3
330
46
100
AcDbEntity
  8
1
  6
Continuous
 62
     4
100
AcDbLine
 10
2702.16095990927
 20
-610.6946194561663
 30
0.0
 11
2716.66095990927
 21
-610.6946194561663
 31
0.0
  0
LINE
  5
1E4
330
46
100
AcDbEntity
  8
1
  6
Continuous
 62
     4
100
AcDbLine
 10
2723.66095990927
 20
-600.6946194561663
 30
0.0
 11
2723.66095990927
 21
-610.6946194561663
 31
0.0
  0
LINE
  5
1E5
330
46
100
AcDbEntity
  8
1
  6
DASH_CENTER
 62
     2
100
AcDbLine
 10
2728.685501814097
 20
-588.6946194561663
 30
0.0
 11
2745.629218318638
 21
-588.6946194561663
 31
0.0
  0
LINE
  5
1E6
330
46
100
AcDbEntity
  8
1
  6
DASH_CENTER
 62
     2
100
AcDbLine
 10
2720.16095990927
 20
-597.9684001013629
 30
0.0
 11
2720.16095990927
 21
-613.7188971337528
 31
0.0
  0
LINE
  5
1E7
330
46
100
AcDbEntity
  8
1
  6
DASH_CENTER
 62
     2
100
AcDbLine
 10
2609.16095990927
 20
-597.4911123125028
 30
0.0
 11
2609.16095990927
 21
-615.3894043947641
 31
0.0
  0
LINE
  5
1E8
330
46
100
AcDbEntity
  8
1
  6
DASH_CENTER
 62
     2
100
AcDbLine
 10
2600.30660839371
 20
-588.6946194561663
 30
0.0
 11
2583.6015357836
 21
-588.6946194561663
 31
0.0
  0
LINE
  5
1E9
330
46
100
AcDbEntity
  8
1
  6
Continuous
 62
     4
100
AcDbLine
 10
2587.16095990927
 20
-495.6946194561662
 30
0.0
 11
2588.16095990927
 21
-495.6946194561662
 31
0.0
  0
LINE
  5
1EA
330
46
100
AcDbEntity
  8
1
  6
Continuous
 62
     4
100
AcDbLine
 10
2587.16095990927
 20
-458.6946194561662
 30
0.0
 11
2587.16095990927
 21
-474.1946194561662
 31
0.0
  0
LINE
  5
1EB
330
46
100
AcDbEntity
  8
1
  6
Continuous
 62
     4
100
AcDbLine
 10
2590.16095990927
 20
-813.6946194561663
 30
0.0
 11
2588.16095990927
 21
-813.6946194561663
 31
0.0
  0
LINE
  5
1EC
330
46
100
AcDbEntity
  8
1
  6
Continuous
 62
     4
100
AcDbLine
 10
2627.16095990927
 20
-827.6946194561663
 30
0.0
 11
2627.16095990927
 21
-813.6946194561663
 31
0.0
  0
LINE
  5
1ED
330
46
100
AcDbEntity
  8
1
  6
Continuous
 62
     4
100
AcDbLine
 10
2612.66095990927
 20
-921.6946194561662
 30
0.0
 11
2627.16095990927
 21
-921.6946194561662
 31
0.0
  0
LINE
  5
1EE
330
46
100
AcDbEntity
  8
1
  6
Continuous
 62
     4
100
AcDbLine
 10
2587.16095990927
 20
-814.6946194561663
 30
0.0
 11
2587.16095990927
 21
-920.6946194561662
 31
0.0
  0
LINE
  5
1EF
330
46
100
AcDbEntity
  8
1
  6
Continuous
 62
     4
100
AcDbLine
 10
2739.16095990927
 20
-813.6946194561663
 30
0.0
 11
2741.16095990927
 21
-813.6946194561663
 31
0.0
  0
LINE
  5
1F0
330
46
100
AcDbEntity
  8
1
  6
Continuous
 62
     4
100
AcDbLine
 10
2716.66095990927
 20
-921.6946194561662
 30
0.0
 11
2702.16095990927
 21
-921.6946194561662
 31
0.0
  0
LINE
  5
1F1
330
46
100
AcDbEntity
  8
1
  6
Continuous
 62
     4
100
AcDbLine
 10
2605.66095990927
 20
-813.6946194561663
 30
0.0
 11
2605.66095990927
 21
-820.6946194561663
 31
0.0
  0
LINE
  5
1F2
330
46
100
AcDbEntity
  8
1
  6
Continuous
 62
     4
100
AcDbLine
 10
2612.66095990927
 20
-813.6946194561663
 30
0.0
 11
2612.66095990927
 21
-820.6946194561663
 31
0.0
  0
LINE
  5
1F3
330
46
100
AcDbEntity
  8
1
  6
Continuous
 62
     4
100
AcDbLine
 10
2627.16095990927
 20
-813.6946194561663
 30
0.0
 11
2612.66095990927
 21
-813.6946194561663
 31
0.0
  0
LINE
  5
1F4
330
46
100
AcDbEntity
  8
1
  6
Continuous
 62
     4
100
AcDbLine
 10
2716.66095990927
 20
-813.6946194561663
 30
0.0
 11
2716.66095990927
 21
-820.6946194561663
 31
0.0
  0
LINE
  5
1F5
330
46
100
AcDbEntity
  8
1
  6
Continuous
 62
     4
100
AcDbLine
 10
2702.16095990927
 20
-813.6946194561663
 30
0.0
 11
2716.66095990927
 21
-813.6946194561663
 31
0.0
  0
LINE
  5
1F6
330
46
100
AcDbEntity
  8
1
  6
Continuous
 62
     4
100
AcDbLine
 10
2723.66095990927
 20
-813.6946194561663
 30
0.0
 11
2723.66095990927
 21
-820.6946194561663
 31
0.0
  0
LINE
  5
1F7
330
46
100
AcDbEntity
  8
1
  6
Continuous
 62
     4
100
AcDbLine
 10
2723.66095990927
 20
-921.6946194561662
 30
0.0
 11
2723.66095990927
 21
-914.6946194561662
 31
0.0
  0
LINE
  5
1F8
330
46
100
AcDbEntity
  8
1
  6
Continuous
 62
     4
100
AcDbLine
 10
2716.66095990927
 20
-919.6946194561662
 30
0.0
 11
2716.66095990927
 21
-914.6946194561662
 31
0.0
  0
LINE
  5
1F9
330
46
100
AcDbEntity
  8
1
  6
Continuous
 62
     4
100
AcDbLine
 10
2612.66095990927
 20
-919.694619456166
 30
0.0
 11
2612.66095990927
 21
-914.6946194561662
 31
0.0
  0
LINE
  5
1FA
330
46
100
AcDbEntity
  8
1
  6
Continuous
 62
     4
100
AcDbLine
 10
2605.66095990927
 20
-921.6946194561662
 30
0.0
 11
2605.66095990927
 21
-914.6946194561662
 31
0.0
  0
LINE
  5
1FB
330
46
100
AcDbEntity
  8
1
  6
Continuous
 62
     4
100
AcDbLine
 10
2590.16095990927
 20
-921.6946194561662
 30
0.0
 11
2605.66095990927
 21
-921.6946194561662
 31
0.0
  0
LINE
  5
1FC
330
46
100
AcDbEntity
  8
1
  6
DASH_CENTER
 62
     2
100
AcDbLine
 10
2615.786080744963
 20
-820.6946194561663
 30
0.0
 11
2602.845513216896
 21
-820.6946194561663
 31
0.0
  0
LINE
  5
1FD
330
46
100
AcDbEntity
  8
1
  6
DASH_CENTER
 62
     2
100
AcDbLine
 10
2609.160959909271
 20
-810.567960144038
 30
0.0
 11
2609.160959909271
 21
-827.056747800769
 31
0.0
  0
LINE
  5
1FE
330
46
100
AcDbEntity
  8
1
  6
DASH_CENTER
 62
     2
100
AcDbLine
 10
2720.16095990927
 20
-826.8480289696712
 30
0.0
 11
2720.16095990927
 21
-811.4028354684299
 31
0.0
  0
LINE
  5
1FF
330
46
100
AcDbEntity
  8
1
  6
DASH_CENTER
 62
     2
100
AcDbLine
 10
2725.572185902436
 20
-820.6946194561663
 30
0.0
 11
2713.883931360956
 21
-820.6946194561663
 31
0.0
  0
LINE
  5
200
330
46
100
AcDbEntity
  8
1
  6
DASH_CENTER
 62
     2
100
AcDbLine
 10
2726.19834239573
 20
-914.6946194561662
 30
0.0
 11
2714.092650192054
 21
-914.6946194561662
 31
0.0
  0
LINE
  5
201
330
46
100
AcDbEntity
  8
1
  6
DASH_CENTER
 62
     2
100
AcDbLine
 10
2720.16095990927
 20
-924.1110042612729
 30
0.0
 11
2720.16095990927
 21
-908.2483730978349
 31
0.0
  0
LINE
  5
202
330
46
100
AcDbEntity
  8
1
  6
DASH_CENTER
 62
     2
100
AcDbLine
 10
2602.428075554701
 20
-930.5572506196042
 30
0.0
 11
2602.428075554701
 21
-914.6946194561662
 31
0.0
  0
LINE
  5
203
330
46
100
AcDbEntity
  8
1
  6
DASH_CENTER
 62
     2
100
AcDbLine
 10
2615.368643082768
 20
-914.6946194561662
 30
0.0
 11
2602.428075554701
 21
-914.6946194561662
 31
0.0
  0
LINE
  5
204
330
46
100
AcDbEntity
  8
1
  6
Continuous
 62
     4
100
AcDbLine
 10
2742.16095990927
 20
-920.6946194561662
 30
0.0
 11
2741.16095990927
 21
-921.6946194561662
 31
0.0
  0
LINE
  5
205
330
46
100
AcDbEntity
  8
1
  6
Continuous
 62
     4
100
AcDbLine
 10
2741.16095990927
 20
-813.6946194561663
 30
0.0
 11
2742.16095990927
 21
-814.6946194561663
 31
0.0
  0
LINE
  5
206
330
46
100
AcDbEntity
  8
1
  6
Continuous
 62
     4
100
AcDbLine
 10
2587.16095990927
 20
-814.6946194561663
 30
0.0
 11
2588.16095990927
 21
-813.6946194561663
 31
0.0
  0
LINE
  5
207
330
46
100
AcDbEntity
  8
1
  6
Continuous
 62
     4
100
AcDbLine
 10
2587.16095990927
 20
-920.6946194561662
 30
0.0
 11
2588.16095990927
 21
-921.6946194561662
 31
0.0
  0
LINE
  5
208
330
46
100
AcDbEntity
  8
1
  6
Continuous
 62
     4
100
AcDbLine
 10
2739.16095990927
 20
-813.6946194561663
 30
0.0
 11
2739.16095990927
 21
-921.6946194561662
 31
0.0
  0
LINE
  5
209
330
46
100
AcDbEntity
  8
1
  6
Continuous
 62
     4
100
AcDbLine
 10
2741.16095990927
 20
-921.6946194561662
 30
0.0
 11
2739.16095990927
 21
-921.6946194561662
 31
0.0
  0
LINE
  5
20A
330
46
100
AcDbEntity
  8
1
  6
Continuous
 62
     4
100
AcDbLine
 10
2723.66095990927
 20
-813.6946194561663
 30
0.0
 11
2739.16095990927
 21
-813.6946194561663
 31
0.0
  0
LINE
  5
20B
330
46
100
AcDbEntity
  8
1
  6
Continuous
 62
     4
100
AcDbLine
 10
2590.16095990927
 20
-921.6946194561662
 30
0.0
 11
2590.16095990927
 21
-813.6946194561663
 31
0.0
  0
LINE
  5
20C
330
46
100
AcDbEntity
  8
1
  6
Continuous
 62
     4
100
AcDbLine
 10
2588.16095990927
 20
-921.6946194561662
 30
0.0
 11
2590.16095990927
 21
-921.6946194561662
 31
0.0
  0
LINE
  5
20D
330
46
100
AcDbEntity
  8
1
  6
Continuous
 62
     4
100
AcDbLine
 10
2742.16095990927
 20
-920.6946194561662
 30
0.0
 11
2742.16095990927
 21
-814.6946194561663
 31
0.0
  0
LINE
  5
20E
330
46
100
AcDbEntity
  8
1
  6
Continuous
 62
     4
100
AcDbLine
 10
2702.16095990927
 20
-813.6946194561663
 30
0.0
 11
2702.16095990927
 21
-827.6946194561663
 31
0.0
  0
LINE
  5
20F
330
46
100
AcDbEntity
  8
1
  6
Continuous
 62
     4
100
AcDbLine
 10
2702.16095990927
 20
-827.6946194561663
 30
0.0
 11
2702.16095990927
 21
-907.6946194561662
 31
0.0
  0
LINE
  5
210
330
46
100
AcDbEntity
  8
1
  6
Continuous
 62
     4
100
AcDbLine
 10
2627.16095990927
 20
-907.6946194561662
 30
0.0
 11
2702.16095990927
 21
-907.6946194561662
 31
0.0
  0
LINE
  5
211
330
46
100
AcDbEntity
  8
1
  6
Continuous
 62
     4
100
AcDbLine
 10
2627.16095990927
 20
-921.6946194561662
 30
0.0
 11
2627.16095990927
 21
-907.6946194561662
 31
0.0
  0
LINE
  5
212
330
46
100
AcDbEntity
  8
1
  6
Continuous
 62
     4
100
AcDbLine
 10
2627.16095990927
 20
-907.6946194561662
 30
0.0
 11
2627.16095990927
 21
-827.6946194561663
 31
0.0
  0
LINE
  5
213
330
46
100
AcDbEntity
  8
1
  6
Continuous
 62
     4
100
AcDbLine
 10
2702.16095990927
 20
-827.6946194561663
 30
0.0
 11
2627.16095990927
 21
-827.6946194561663
 31
0.0
  0
LINE
  5
214
330
46
100
AcDbEntity
  8
1
  6
DASH_CENTER
 62
     2
100
AcDbLine
 10
2742.16095990927
 20
-867.6946194561674
 30
0.0
 11
2577.645023198457
 21
-867.6946194561663
 31
0.0
  0
LINE
  5
215
330
46
100
AcDbEntity
  8
1
  6
DASH_CENTER
 62
     2
100
AcDbLine
 10
2664.66095990927
 20
-740.745272360488
 30
0.0
 11
2664.66095990927
 21
-1027.270907835611
 31
0.0
  0
LINE
  5
216
330
46
100
AcDbEntity
  8
1
  6
Continuous
 62
     4
100
AcDbLine
 10
2609.66095990927
 20
-912.6946194561662
 30
0.0
 11
2609.259407183692
 21
-911.1960042823923
 31
0.0
  0
LINE
  5
217
330
46
100
AcDbEntity
  8
1
  6
Continuous
 62
     4
100
AcDbLine
 10
2627.16095990927
 20
-912.6946194561662
 30
0.0
 11
2702.16095990927
 21
-912.6946194561662
 31
0.0
  0
LINE
  5
218
330
46
100
AcDbEntity
  8
1
  6
Continuous
 62
     4
100
AcDbLine
 10
2720.062512634848
 20
-911.1960042823923
 30
0.0
 11
2719.66095990927
 21
-912.6946194561662
 31
0.0
  0
LINE
  5
219
330
46
100
AcDbEntity
  8
1
  6
Continuous
 62
     4
100
AcDbLine
 10
2719.66095990927
 20
-822.6946194561663
 30
0.0
 11
2720.062512634848
 21
-824.1932346299398
 31
0.0
  0
LINE
  5
21A
330
46
100
AcDbEntity
  8
1
  6
Continuous
 62
     4
100
AcDbLine
 10
2719.66095990927
 20
-822.6946194561663
 30
0.0
 11
2717.288678586001
 21
-822.6946194561663
 31
0.0
  0
LINE
  5
21B
330
46
100
AcDbEntity
  8
1
  6
Continuous
 62
     4
100
AcDbLine
 10
2702.16095990927
 20
-822.6946194561663
 30
0.0
 11
2627.16095990927
 21
-822.6946194561663
 31
0.0
  0
LINE
  5
21C
330
46
100
AcDbEntity
  8
1
  6
Continuous
 62
     4
100
AcDbLine
 10
2612.033241232539
 20
-822.6946194561663
 30
0.0
 11
2609.66095990927
 21
-822.6946194561663
 31
0.0
  0
LINE
  5
21D
330
46
100
AcDbEntity
  8
1
  6
Continuous
 62
     4
100
AcDbLine
 10
2609.259407183692
 20
-824.1932346299398
 30
0.0
 11
2609.66095990927
 21
-822.6946194561663
 31
0.0
  0
LINE
  5
21E
330
46
100
AcDbEntity
  8
1
  6
Continuous
 62
     4
100
AcDbLine
 10
2719.66095990927
 20
-912.6946194561662
 30
0.0
 11
2717.288678586001
 21
-912.6946194561662
 31
0.0
  0
LINE
  5
21F
330
46
100
AcDbEntity
  8
1
  6
Continuous
 62
     4
100
AcDbLine
 10
2612.033241232539
 20
-912.6946194561662
 30
0.0
 11
2609.66095990927
 21
-912.6946194561662
 31
0.0
  0
LINE
  5
220
330
46
100
AcDbEntity
  8
1
  6
Continuous
 62
     4
100
AcDbLine
 10
2718.66095990927
 20
-822.6946194561663
 30
0.0
 11
2718.66095990927
 21
-810.694619456166
 31
0.0
  0
LINE
  5
221
330
46
100
AcDbEntity
  8
1
  6
Continuous
 62
     4
100
AcDbLine
 10
2718.66095990927
 20
-810.694619456166
 30
0.0
 11
2610.66095990927
 21
-810.694619456166
 31
0.0
  0
LINE
  5
222
330
46
100
AcDbEntity
  8
1
  6
Continuous
 62
     4
100
AcDbLine
 10
2610.66095990927
 20
-810.694619456166
 30
0.0
 11
2610.66095990927
 21
-822.6946194561663
 31
0.0
  0
LINE
  5
223
330
46
100
AcDbEntity
  8
1
  6
DASH_CENTER
 62
     2
100
AcDbLine
 10
2664.66095990927
 20
-620.9315034370502
 30
0.0
 11
2664.66095990927
 21
-498.0151275318548
 31
0.0
  0
LINE
  5
224
330
46
100
AcDbEntity
  8
1
  6
Continuous
 62
     4
100
AcDbLine
 10
2723.66095990927
 20
-921.6946194561662
 30
0.0
 11
2739.16095990927
 21
-921.6946194561662
 31
0.0
  0
LINE
  5
225
330
46
100
AcDbEntity
  8
1
  6
Continuous
 62
     4
100
AcDbLine
 10
2590.16095990927
 20
-813.6946194561663
 30
0.0
 11
2605.66095990927
 21
-813.6946194561663
 31
0.0
  0
LINE
  5
226
330
46
100
AcDbEntity
  8
1
  6
Continuous
 62
     4
100
AcDbLine
 10
2660.66095990927
 20
-983.6946194561662
 30
0.0
 11
2660.66095990927
 21
-1015.694619456166
 31
0.0
  0
LINE
  5
227
330
46
100
AcDbEntity
  8
1
  6
Continuous
 62
     4
100
AcDbLine
 10
2668.66095990927
 20
-1015.694619456166
 30
0.0
 11
2668.66095990927
 21
-983.6946194561662
 31
0.0
  0
LINE
  5
228
330
46
100
AcDbEntity
  8
1
  6
DASH_CENTER
 62
     2
100
AcDbLine
 10
2660.66095990927
 20
-757.6946194561663
 30
0.0
 11
2660.66095990927
 21
-789.6946194561663
 31
0.0
  0
LINE
  5
229
330
46
100
AcDbEntity
  8
1
  6
DASH_CENTER
 62
     2
100
AcDbLine
 10
2668.66095990927
 20
-789.6946194561663
 30
0.0
 11
2668.66095990927
 21
-757.6946194561663
 31
0.0
  0
LINE
  5
22A
330
46
100
AcDbEntity
  8
1
  6
Continuous
 62
     4
100
AcDbLine
 10
2682.16095990927
 20
-964.6946194561662
 30
0.0
 11
2647.16095990927
 21
-964.6946194561662
 31
0.0
  0
LINE
  5
22B
330
46
100
AcDbEntity
  8
1
  6
Continuous
 62
     4
100
AcDbLine
 10
2647.16095990927
 20
-964.6946194561662
 30
0.0
 11
2647.16095990927
 21
-962.694619456166
 31
0.0
  0
LINE
  5
22C
330
46
100
AcDbEntity
  8
1
  6
Continuous
 62
     4
100
AcDbLine
 10
2649.66095990927
 20
-1022.694619456166
 30
0.0
 11
2649.66095990927
 21
-964.6946194561662
 31
0.0
  0
LINE
  5
22D
330
46
100
AcDbEntity
  8
1
  6
Continuous
 62
     4
100
AcDbLine
 10
2679.66095990927
 20
-1022.694619456166
 30
0.0
 11
2651.16095990927
 21
-1022.694619456166
 31
0.0
  0
LINE
  5
22E
330
46
100
AcDbEntity
  8
1
  6
Continuous
 62
     4
100
AcDbLine
 10
2649.66095990927
 20
-1022.694619456166
 30
0.0
 11
2651.16095990927
 21
-1022.694619456166
 31
0.0
  0
LINE
  5
22F
330
46
100
AcDbEntity
  8
1
  6
DASH_CENTER
 62
     2
100
AcDbLine
 10
2647.16095990927
 20
-808.6946194561663
 30
0.0
 11
2647.16095990927
 21
-810.694619456166
 31
0.0
  0
LINE
  5
230
330
46
100
AcDbEntity
  8
1
  6
DASH_CENTER
 62
     2
100
AcDbLine
 10
2679.66095990927
 20
-808.6946194561663
 30
0.0
 11
2649.66095990927
 21
-808.6946194561663
 31
0.0
  0
LINE
  5
231
330
46
100
AcDbEntity
  8
1
  6
DASH_CENTER
 62
     2
100
AcDbLine
 10
2649.66095990927
 20
-750.6946194561663
 30
0.0
 11
2649.66095990927
 21
-808.6946194561663
 31
0.0
  0
LINE
  5
232
330
46
100
AcDbEntity
  8
1
  6
DASH_CENTER
 62
     2
100
AcDbLine
 10
2649.66095990927
 20
-808.6946194561663
 30
0.0
 11
2647.16095990927
 21
-808.6946194561663
 31
0.0
  0
LINE
  5
233
330
46
100
AcDbEntity
  8
1
  6
DASH_CENTER
 62
     2
100
AcDbLine
 10
2679.66095990927
 20
-750.6946194561663
 30
0.0
 11
2651.16095990927
 21
-750.6946194561663
 31
0.0
  0
LINE
  5
234
330
46
100
AcDbEntity
  8
1
  6
DASH_CENTER
 62
     2
100
AcDbLine
 10
2649.66095990927
 20
-750.6946194561663
 30
0.0
 11
2651.16095990927
 21
-750.6946194561663
 31
0.0
  0
LINE
  5
235
330
46
100
AcDbEntity
  8
1
  6
DASH_CENTER
 62
     2
100
AcDbLine
 10
2682.16095990927
 20
-808.6946194561663
 30
0.0
 11
2682.16095990927
 21
-810.694619456166
 31
0.0
  0
LINE
  5
236
330
46
100
AcDbEntity
  8
1
  6
Continuous
 62
     4
100
AcDbLine
 10
2682.16095990927
 20
-964.6946194561662
 30
0.0
 11
2682.16095990927
 21
-962.694619456166
 31
0.0
  0
LINE
  5
237
330
46
100
AcDbEntity
  8
1
  6
DASH_CENTER
 62
     2
100
AcDbLine
 10
2679.66095990927
 20
-808.6946194561663
 30
0.0
 11
2679.66095990927
 21
-750.6946194561663
 31
0.0
  0
LINE
  5
238
330
46
100
AcDbEntity
  8
1
  6
DASH_CENTER
 62
     2
100
AcDbLine
 10
2682.16095990927
 20
-808.6946194561663
 30
0.0
 11
2679.66095990927
 21
-808.6946194561663
 31
0.0
  0
LINE
  5
239
330
46
100
AcDbEntity
  8
1
  6
Continuous
 62
     4
100
AcDbLine
 10
2679.66095990927
 20
-964.6946194561662
 30
0.0
 11
2679.66095990927
 21
-1022.694619456166
 31
0.0
  0
LINE
  5
23A
330
46
100
AcDbEntity
  8
1
  6
Continuous
 62
     4
100
AcDbLine
 10
2660.66095990927
 20
-541.2377871613652
 30
0.0
 11
2660.66095990927
 21
-538.657894418765
 31
0.0
  0
LINE
  5
23B
330
46
100
AcDbEntity
  8
1
  6
Continuous
 62
     4
100
AcDbLine
 10
2660.66095990927
 20
-538.657894418765
 30
0.0
 11
2660.66095990927
 21
-536.694619456166
 31
0.0
  0
LINE
  5
23C
330
46
100
AcDbEntity
  8
1
  6
Continuous
 62
     4
100
AcDbLine
 10
2660.66095990927
 20
-536.694619456166
 30
0.0
 11
2668.66095990927
 21
-536.694619456166
 31
0.0
  0
LINE
  5
23D
330
46
100
AcDbEntity
  8
1
  6
Continuous
 62
     4
100
AcDbLine
 10
2668.66095990927
 20
-536.694619456166
 30
0.0
 11
2668.66095990927
 21
-538.657894418765
 31
0.0
  0
LINE
  5
23E
330
46
100
AcDbEntity
  8
1
  6
Continuous
 62
     4
100
AcDbLine
 10
2668.66095990927
 20
-538.657894418765
 30
0.0
 11
2668.66095990927
 21
-541.2377871613652
 31
0.0
  0
LINE
  5
23F
330
46
100
AcDbEntity
  8
1
  6
Continuous
 62
     4
100
AcDbLine
 10
2612.66095990927
 20
-921.6946194561662
 30
0.0
 11
2605.66095990927
 21
-921.6946194561662
 31
0.0
  0
LINE
  5
240
330
46
100
AcDbEntity
  8
1
  6
Continuous
 62
     4
100
AcDbLine
 10
2716.66095990927
 20
-921.6946194561662
 30
0.0
 11
2723.66095990927
 21
-921.6946194561662
 31
0.0
  0
LINE
  5
241
330
46
100
AcDbEntity
  8
1
  6
Continuous
 62
     4
100
AcDbLine
 10
2724.66095990927
 20
-959.6946194561659
 30
0.0
 11
2705.66095990927
 21
-959.6946194561659
 31
0.0
  0
LINE
  5
242
330
46
100
AcDbEntity
  8
1
  6
Continuous
 62
     4
100
AcDbLine
 10
2623.66095990927
 20
-959.6946194561659
 30
0.0
 11
2705.66095990927
 21
-959.6946194561659
 31
0.0
  0
LINE
  5
243
330
46
100
AcDbEntity
  8
1
  6
Continuous
 62
     4
100
AcDbLine
 10
2706.66095990927
 20
-950.694619456166
 30
0.0
 11
2622.66095990927
 21
-950.694619456166
 31
0.0
  0
LINE
  5
244
330
46
100
AcDbEntity
  8
1
  6
Continuous
 62
     4
100
AcDbLine
 10
2622.66095990927
 20
-950.694619456166
 30
0.0
 11
2604.66095990927
 21
-950.694619456166
 31
0.0
  0
LINE
  5
245
330
46
100
AcDbEntity
  8
1
  6
Continuous
 62
     4
100
AcDbLine
 10
2623.66095990927
 20
-959.6946194561659
 30
0.0
 11
2604.66095990927
 21
-959.6946194561659
 31
0.0
  0
LINE
  5
246
330
46
100
AcDbEntity
  8
1
  6
Continuous
 62
     4
100
AcDbLine
 10
2706.66095990927
 20
-950.694619456166
 30
0.0
 11
2724.66095990927
 21
-950.694619456166
 31
0.0
  0
LINE
  5
247
330
46
100
AcDbEntity
  8
1
  6
Continuous
 62
     4
100
AcDbLine
 10
2705.66095990927
 20
-962.694619456166
 30
0.0
 11
2623.66095990927
 21
-962.694619456166
 31
0.0
  0
LINE
  5
248
330
46
100
AcDbEntity
  8
1
  6
Continuous
 62
     4
100
AcDbLine
 10
2624.66095990927
 20
-923.6946194561662
 30
0.0
 11
2624.66095990927
 21
-947.194619456166
 31
0.0
  0
LINE
  5
249
330
46
100
AcDbEntity
  8
1
  6
Continuous
 62
     4
100
AcDbLine
 10
2623.66095990927
 20
-962.694619456166
 30
0.0
 11
2623.66095990927
 21
-959.6946194561659
 31
0.0
  0
LINE
  5
24A
330
46
100
AcDbEntity
  8
1
  6
Continuous
 62
     4
100
AcDbLine
 10
2704.66095990927
 20
-947.194619456166
 30
0.0
 11
2704.66095990927
 21
-923.6946194561662
 31
0.0
  0
LINE
  5
24B
330
46
100
AcDbEntity
  8
1
  6
Continuous
 62
     4
100
AcDbLine
 10
2724.66095990927
 20
-950.694619456166
 30
0.0
 11
2724.66095990927
 21
-959.6946194561659
 31
0.0
  0
LINE
  5
24C
330
46
100
AcDbEntity
  8
1
  6
Continuous
 62
     4
100
AcDbLine
 10
2705.66095990927
 20
-959.6946194561659
 30
0.0
 11
2705.66095990927
 21
-962.694619456166
 31
0.0
  0
LINE
  5
24D
330
46
100
AcDbEntity
  8
1
  6
Continuous
 62
     4
100
AcDbLine
 10
2706.66095990927
 20
-950.694619456166
 30
0.0
 11
2706.66095990927
 21
-949.194619456166
 31
0.0
  0
LINE
  5
24E
330
46
100
AcDbEntity
  8
1
  6
Continuous
 62
     4
100
AcDbLine
 10
2604.66095990927
 20
-959.6946194561659
 30
0.0
 11
2604.66095990927
 21
-950.694619456166
 31
0.0
  0
LINE
  5
24F
330
46
100
AcDbEntity
  8
1
  6
Continuous
 62
     4
100
AcDbLine
 10
2622.66095990927
 20
-949.194619456166
 30
0.0
 11
2622.66095990927
 21
-950.694619456166
 31
0.0
  0
ARC
  5
250
330
46
100
AcDbEntity
  8
1
  6
DASH_CENTER
 62
     2
100
AcDbCircle
 10
2664.66095990927
 20
-810.694619456166
 30
0.0
 40
47.49999999999976
100
AcDbArc
 50
357.2662539097789
 51
0.00000000000055
  0
ARC
  5
251
330
46
100
AcDbEntity
  8
1
  6
Continuous
 62
     2
100
AcDbCircle
 10
2712.16095990927
 20
-810.6946194561656
 30
0.0
 40
5.0
100
AcDbArc
 50
359.9999999999948
 51
93.01696130981402
  0
ARC
  5
252
330
46
100
AcDbEntity
  8
1
  6
Continuous
 62
     4
100
AcDbCircle
 10
2712.16095990927
 20
-810.6946194561656
 30
0.0
 40
3.0
100
AcDbArc
 50
0.0
 51
180.0
  0
ARC
  5
253
330
46
100
AcDbEntity
  8
1
  6
DASH_CENTER
 62
     2
100
AcDbCircle
 10
2664.66095990927
 20
-810.694619456166
 30
0.0
 40
47.5
100
AcDbArc
 50
0.00000000000055
 51
182.7386576210565
  0
ARC
  5
254
330
46
100
AcDbEntity
  8
1
  6
Continuous
 62
     4
100
AcDbCircle
 10
2617.16095990927
 20
-810.694619456166
 30
0.0
 40
3.0
100
AcDbArc
 50
0.00000000000869
 51
179.9999999999913
  0
ARC
  5
255
330
46
100
AcDbEntity
  8
1
  6
Continuous
 62
     2
100
AcDbCircle
 10
2617.16095990927
 20
-810.694619456166
 30
0.0
 40
5.0
100
AcDbArc
 50
0.00000000000521
 51
86.98303869018105
  0
ARC
  5
256
330
46
100
AcDbEntity
  8
1
  6
Continuous
 62
     2
100
AcDbCircle
 10
2698.248532015632
 20
-777.1070473498048
 30
0.0
 40
5.000000000000201
100
AcDbArc
 50
225.0
 51
138.016961309817
  0
ARC
  5
257
330
46
100
AcDbEntity
  8
1
  6
Continuous
 62
     2
100
AcDbCircle
 10
2664.66095990927
 20
-763.194619456166
 30
0.0
 40
5.000000000000428
100
AcDbArc
 50
183.0169613098148
 51
90.0
  0
ARC
  5
258
330
46
100
AcDbEntity
  8
1
  6
Continuous
 62
     2
100
AcDbCircle
 10
2631.07338780291
 20
-777.1070473498048
 30
0.0
 40
4.999999999999973
100
AcDbArc
 50
228.0169613098114
 51
134.9999999999926
  0
ARC
  5
259
330
46
100
AcDbEntity
  8
1
  6
Continuous
 62
     4
100
AcDbCircle
 10
2609.16095990927
 20
-914.6946194561662
 30
0.0
 40
3.5
100
AcDbArc
 50
0.0
 51
180.0
  0
ARC
  5
25A
330
46
100
AcDbEntity
  8
1
  6
Continuous
 62
     4
100
AcDbCircle
 10
2720.16095990927
 20
-914.6946194561662
 30
0.0
 40
3.5
100
AcDbArc
 50
0.0
 51
180.0
  0
ARC
  5
25B
330
46
100
AcDbEntity
  8
1
  6
Continuous
 62
     4
100
AcDbCircle
 10
2609.16095990927
 20
-820.6946194561663
 30
0.0
 40
3.5
100
AcDbArc
 50
180.0
 51
0.0
  0
ARC
  5
25C
330
46
100
AcDbEntity
  8
1
  6
Continuous
 62
     4
100
AcDbCircle
 10
2720.16095990927
 20
-820.6946194561663
 30
0.0
 40
3.5
100
AcDbArc
 50
180.0
 51
0.0
  0
ARC
  5
25D
330
46
100
AcDbEntity
  8
1
  6
Continuous
 62
     4
100
AcDbCircle
 10
2664.66095990927
 20
-555.694619456166
 30
0.0
 40
17.50000000000026
100
AcDbArc
 50
103.2129803601584
 51
76.78701963984162
  0
ARC
  5
25E
330
46
100
AcDbEntity
  8
1
  6
Continuous
 62
     4
100
AcDbCircle
 10
2664.66095990927
 20
-555.694619456166
 30
0.0
 40
14.99999999999989
100
AcDbArc
 50
105.4660099534207
 51
74.53399004657933
  0
ARC
  5
25F
330
46
100
AcDbEntity
  8
1
  6
Continuous
 62
     4
100
AcDbCircle
 10
2664.66095990927
 20
-555.694619456166
 30
0.0
 40
14.99999999999989
100
AcDbArc
 50
74.53399004657933
 51
105.4660099534207
  0
CIRCLE
  5
260
330
46
100
AcDbEntity
  8
1
  6
DASH_CENTER
 62
     2
100
AcDbCircle
 10
2664.66095990927
 20
-555.694619456166
 30
0.0
 40
50.0
  0
CIRCLE
  5
261
330
46
100
AcDbEntity
  8
1
  6
Continuous
 62
     4
100
AcDbCircle
 10
2664.66095990927
 20
-555.694619456166
 30
0.0
 40
60.0
  0
CIRCLE
  5
262
330
46
100
AcDbEntity
  8
1
  6
Continuous
 62
     4
100
AcDbCircle
 10
2629.305620849942
 20
-591.0499585154934
 30
0.0
 40
3.999999999999773
  0
CIRCLE
  5
263
330
46
100
AcDbEntity
  8
1
  6
Continuous
 62
     4
100
AcDbCircle
 10
2700.016298968598
 20
-591.0499585154934
 30
0.0
 40
4.0
  0
CIRCLE
  5
264
330
46
100
AcDbEntity
  8
1
  6
Continuous
 62
     4
100
AcDbCircle
 10
2700.016298968597
 20
-520.3392803968388
 30
0.0
 40
3.999999999999773
  0
CIRCLE
  5
265
330
46
100
AcDbEntity
  8
1
  6
Continuous
 62
     4
100
AcDbCircle
 10
2629.305620849943
 20
-520.3392803968388
 30
0.0
 40
4.0
  0
CIRCLE
  5
266
330
46
100
AcDbEntity
  8
1
  6
Continuous
 62
     4
100
AcDbCircle
 10
2664.66095990927
 20
-555.694619456166
 30
0.0
 40
41.0
  0
CIRCLE
  5
267
330
46
100
AcDbEntity
  8
1
  6
Continuous
 62
     4
100
AcDbCircle
 10
2698.248532015632
 20
-777.1070473498048
 30
0.0
 40
3.000000000000426
  0
CIRCLE
  5
268
330
46
100
AcDbEntity
  8
1
  6
Continuous
 62
     4
100
AcDbCircle
 10
2664.66095990927
 20
-763.194619456166
 30
0.0
 40
3.0
  0
CIRCLE
  5
269
330
46
100
AcDbEntity
  8
1
  6
Continuous
 62
     4
100
AcDbCircle
 10
2631.07338780291
 20
-777.1070473498048
 30
0.0
 40
3.000000000000346
  0
ARC
  5
26A
330
46
100
AcDbEntity
  8
1
  6
Continuous
 62
     4
100
AcDbCircle
 10
2787.662239480028
 20
-565.2477812558639
 30
0.0
 40
4.0
100
AcDbArc
 50
359.9999999999951
 51
79.99999999999498
  0
ARC
  5
26B
330
46
100
AcDbEntity
  8
1
  6
Continuous
 62
     4
100
AcDbCircle
 10
2781.16095990927
 20
-867.6946194561674
 30
0.0
 40
5.0
100
AcDbArc
 50
0.0
 51
90.0
  0
ARC
  5
26C
330
46
100
AcDbEntity
  8
1
  6
Continuous
 62
     4
100
AcDbCircle
 10
2751.16095990927
 20
-867.6946194561674
 30
0.0
 40
5.0
100
AcDbArc
 50
180.0
 51
270.0
  0
ARC
  5
26D
330
46
100
AcDbEntity
  8
1
  6
Continuous
 62
     4
100
AcDbCircle
 10
2751.16095990927
 20
-867.6946194561674
 30
0.0
 40
5.0
100
AcDbArc
 50
90.0
 51
180.0
  0
ARC
  5
26E
330
46
100
AcDbEntity
  8
1
  6
Continuous
 62
     4
100
AcDbCircle
 10
2781.16095990927
 20
-867.6946194561674
 30
0.0
 40
5.0
100
AcDbArc
 50
270.0
 51
0.0
  0
ARC
  5
26F
330
46
100
AcDbEntity
  8
1
  6
Continuous
 62
     4
100
AcDbCircle
 10
2787.662239480028
 20
-924.7477812558641
 30
0.0
 40
4.0
100
AcDbArc
 50
359.9999999999935
 51
79.99999999999498
  0
ARC
  5
270
330
46
100
AcDbEntity
  8
1
  6
Continuous
 62
     4
100
AcDbCircle
 10
2793.662239480027
 20
-586.1946194561673
 30
0.0
 40
2.0
100
AcDbArc
 50
180.0
 51
270.0
  0
ARC
  5
271
330
46
100
AcDbEntity
  8
1
  6
Continuous
 62
     4
100
AcDbCircle
 10
2793.662239480027
 20
-450.1946194561662
 30
0.0
 40
2.0
100
AcDbArc
 50
90.0
 51
180.0
  0
ARC
  5
272
330
46
100
AcDbEntity
  8
1
  6
Continuous
 62
     4
100
AcDbCircle
 10
2789.662239480027
 20
-464.1948027992622
 30
0.0
 40
2.0
100
AcDbArc
 50
270.0
 51
0.0
  0
ARC
  5
273
330
46
100
AcDbEntity
  8
1
  6
Continuous
 62
     4
100
AcDbCircle
 10
2793.662239480027
 20
-809.6946194561663
 30
0.0
 40
2.0
100
AcDbArc
 50
90.0
 51
180.0
  0
ARC
  5
274
330
46
100
AcDbEntity
  8
1
  6
Continuous
 62
     4
100
AcDbCircle
 10
2789.662239480027
 20
-823.6948027992614
 30
0.0
 40
2.0
100
AcDbArc
 50
270.0
 51
0.0
  0
ARC
  5
275
330
46
100
AcDbEntity
  8
1
  6
Continuous
 62
     4
100
AcDbCircle
 10
2793.662239480027
 20
-945.6946194561674
 30
0.0
 40
2.0
100
AcDbArc
 50
180.0
 51
270.0
  0
ARC
  5
276
330
46
100
AcDbEntity
  8
1
  6
Continuous
 62
     4
100
AcDbCircle
 10
2733.16095990927
 20
-494.6946194561662
 30
0.0
 40
1.0
100
AcDbArc
 50
180.0
 51
270.0
  0
ARC
  5
277
330
46
100
AcDbEntity
  8
1
  6
Continuous
 62
     4
100
AcDbCircle
 10
2703.16095990927
 20
-464.6946194561662
 30
0.0
 40
1.0
100
AcDbArc
 50
180.0
 51
270.0
  0
ARC
  5
278
330
46
100
AcDbEntity
  8
1
  6
Continuous
 62
     4
100
AcDbCircle
 10
2626.16095990927
 20
-464.6946194561662
 30
0.0
 40
1.0
100
AcDbArc
 50
270.0
 51
0.0
  0
ARC
  5
279
330
46
100
AcDbEntity
  8
1
  6
Continuous
 62
     4
100
AcDbCircle
 10
2596.16095990927
 20
-494.6946194561662
 30
0.0
 40
1.0
100
AcDbArc
 50
270.0
 51
0.0
  0
ARC
  5
27A
330
46
100
AcDbEntity
  8
1
  6
Continuous
 62
     4
100
AcDbCircle
 10
2728.16095990927
 20
-469.6946194561662
 30
0.0
 40
4.0
100
AcDbArc
 50
0.0
 51
90.0
  0
ARC
  5
27B
330
46
100
AcDbEntity
  8
1
  6
Continuous
 62
     4
100
AcDbCircle
 10
2601.16095990927
 20
-469.6946194561662
 30
0.0
 40
4.0
100
AcDbArc
 50
90.0
 51
180.0
  0
ARC
  5
27C
330
46
100
AcDbEntity
  8
1
  6
Continuous
 62
     4
100
AcDbCircle
 10
2733.16095990927
 20
-571.694619456166
 30
0.0
 40
1.0
100
AcDbArc
 50
90.0
 51
180.0
  0
ARC
  5
27D
330
46
100
AcDbEntity
  8
1
  6
Continuous
 62
     4
100
AcDbCircle
 10
2596.16095990927
 20
-571.694619456166
 30
0.0
 40
1.0
100
AcDbArc
 50
0.0
 51
90.0
  0
ARC
  5
27E
330
46
100
AcDbEntity
  8
1
  6
Continuous
 62
     4
100
AcDbCircle
 10
2728.16095990927
 20
-596.6946194561663
 30
0.0
 40
4.0
100
AcDbArc
 50
270.0
 51
0.0
  0
ARC
  5
27F
330
46
100
AcDbEntity
  8
1
  6
Continuous
 62
     4
100
AcDbCircle
 10
2601.16095990927
 20
-596.6946194561663
 30
0.0
 40
4.0
100
AcDbArc
 50
180.0
 51
270.0
  0
ARC
  5
280
330
46
100
AcDbEntity
  8
1
  6
Continuous
 62
     4
100
AcDbCircle
 10
2664.66095990927
 20
-1015.694619456166
 30
0.0
 40
4.0
100
AcDbArc
 50
270.0
 51
0.0
  0
ARC
  5
281
330
46
100
AcDbEntity
  8
1
  6
Continuous
 62
     4
100
AcDbCircle
 10
2664.66095990927
 20
-983.6946194561662
 30
0.0
 40
4.0
100
AcDbArc
 50
90.0
 51
180.0
  0
ARC
  5
282
330
46
100
AcDbEntity
  8
1
  6
DASH_CENTER
 62
     2
100
AcDbCircle
 10
2664.66095990927
 20
-789.6946194561663
 30
0.0
 40
4.0
100
AcDbArc
 50
180.0
 51
0.0
  0
ARC
  5
283
330
46
100
AcDbEntity
  8
1
  6
DASH_CENTER
 62
     2
100
AcDbCircle
 10
2664.66095990927
 20
-757.6946194561663
 30
0.0
 40
4.0
100
AcDbArc
 50
0.0
 51
180.0
  0
ARC
  5
284
330
46
100
AcDbEntity
  8
1
  6
Continuous
 62
     4
100
AcDbCircle
 10
2706.66095990927
 20
-923.6946194561662
 30
0.0
 40
2.000000000000273
100
AcDbArc
 50
97.40886435642712
 51
180.0
  0
ARC
  5
285
330
46
100
AcDbEntity
  8
1
  6
Continuous
 62
     4
100
AcDbCircle
 10
2622.66095990927
 20
-923.6946194561662
 30
0.0
 40
2.0
100
AcDbArc
 50
0.0
 51
90.0
  0
ARC
  5
286
330
46
100
AcDbEntity
  8
1
  6
Continuous
 62
     4
100
AcDbCircle
 10
2622.66095990927
 20
-947.194619456166
 30
0.0
 40
2.0
100
AcDbArc
 50
270.0
 51
0.0
  0
ARC
  5
287
330
46
100
AcDbEntity
  8
1
  6
Continuous
 62
     4
100
AcDbCircle
 10
2706.66095990927
 20
-923.6946194561662
 30
0.0
 40
2.0
100
AcDbArc
 50
90.0
 51
97.40886435642712
  0
ARC
  5
288
330
46
100
AcDbEntity
  8
1
  6
Continuous
 62
     4
100
AcDbCircle
 10
2706.66095990927
 20
-947.194619456166
 30
0.0
 40
2.0
100
AcDbArc
 50
180.0
 51
270.0
  0
ARC
  5
289
330
46
100
AcDbEntity
  8
1
  6
Continuous
 62
     4
100
AcDbCircle
 10
2664.66095990927
 20
-983.6946194561662
 30
0.0
 40
4.0
100
AcDbArc
 50
0.0
 51
90.0
  0
ARC
  5
28A
330
46
100
AcDbEntity
  8
1
  6
Continuous
 62
     4
100
AcDbCircle
 10
2664.66095990927
 20
-1015.694619456166
 30
0.0
 40
4.0
100
AcDbArc
 50
180.0
 51
270.0
  0
SOLID
  5
28B
330
46
100
AcDbEntity
  8
1
 62
     2
100
AcDbTrace
 10
2707.310020564899
 20
-775.0997971560531
 30
0.0
 11
2707.914895239848
 21
-776.2691408350906
 31
0.0
 12
2703.171434372754
 22
-777.981708645536
 32
0.0
 13
2703.171434372754
 23
-777.981708645536
 33
0.0
  0
LEADER
  5
28C
330
46
100
AcDbEntity
  8
1
  6
Continuous
 62
     2
100
AcDbLeader
  3
Standard
 71
     0
 76
     2
 10
2703.171434372754
 20
-777.981708645536
 30
0.0
 10
2728.568712934734
 20
-764.8442787434822
 30
0.0
  0
SOLID
  5
28D
330
46
100
AcDbEntity
  8
1
 62
     2
100
AcDbTrace
 10
2659.648684149352
 20
-750.1374828395589
 30
0.0
 11
2659.963670871385
 21
-748.8591943834414
 31
0.0
 12
2664.66095990927
 22
-750.6946194561663
 32
0.0
 13
2664.66095990927
 23
-750.6946194561663
 33
0.0
  0
LEADER
  5
28E
330
46
100
AcDbEntity
  8
1
  6
Continuous
 62
     2
100
AcDbLeader
  3
Standard
 71
     0
 76
     2
 10
2664.66095990927
 20
-750.6946194561663
 30
0.0
 10
2600.614970185318
 20
-734.9128635731848
 30
0.0
  0
TEXT
  5
28F
330
46
100
AcDbEntity
  8
1
 62
     2
100
AcDbText
 10
2500.494891293348
 20
-729.8803863680038
 30
0.0
 40
6.25
  1
Zentrumgewinde
 41
0.9
  7
CONVERTER_11
100
AcDbText
  0
MTEXT
  5
290
330
46
100
AcDbEntity
  8
1
 62
     2
100
AcDbMText
 10
2747.224099694649
 20
-532.8608983016813
 30
0.0
 40
6.25
 41
0.0
 71
     4
 72
     1
  1
Flansch\P  B5
  7
CONVERTER_11
 73
     1
 44
1.32052821128451
  0
MTEXT
  5
291
330
46
100
AcDbEntity
  8
1
 62
     2
100
AcDbMText
 10
2747.224099694649
 20
-487.1947111277144
 30
0.0
 40
6.25
 41
0.0
 71
     4
 72
     1
  1
Flansch\P  B14
  7
CONVERTER_11
 73
     1
 44
1.32052821128451
  0
LWPOLYLINE
  5
292
330
46
100
AcDbEntity
  8
1
 62
     2
100
AcDbPolyline
 90
        4
 70
     1
 43
0.0
 10
2728.192860365682
 20
-752.7188250299068
 10
2728.192860365682
 20
-765.2188250299068
 10
2801.317860365682
 20
-765.2188250299068
 10
2801.317860365682
 20
-752.7188250299068
  0
MTEXT
  5
293
330
46
100
AcDbEntity
  8
1
 62
     2
100
AcDbMText
 10
2731.317860365682
 20
-762.0938250299068
 30
0.0
 40
6.25000000000001
 41
0.0
 71
     7
 72
     1
  1
Gewinde M5x12
  7
CONVERTER_11
 73
     1
 44
1.32052821128451
  0
DIMENSION
  5
29F
330
46
100
AcDbEntity
  8
1
100
AcDbDimension
  2
*D3
 10
2534.66095990927
 20
-813.6946194561663
 30
0.0
 11
2529.03595990927
 21
-867.4441716071298
 31
0.0
 70
    32
  1
<>
 71
     5
 42
-1.0
 53
90.0
  3
ME10_DIM_10
100
AcDbAlignedDimension
 13
2590.16095990927
 23
-921.6946194561662
 33
0.0
 14
2590.16095990927
 24
-813.6946194561663
 34
0.0
 50
90.0
100
AcDbRotatedDimension
  0
DIMENSION
  5
2AA
330
46
100
AcDbEntity
  8
1
100
AcDbDimension
  2
*D4
 10
2569.66095990927
 20
-919.694619456166
 30
0.0
 11
2564.03595990927
 21
-936.2435273719838
 31
0.0
 70
    32
  1
<>
 71
     5
 42
-1.0
 53
90.0
  3
ME10_DIM_11
100
AcDbAlignedDimension
 13
2604.66095990927
 23
-950.694619456166
 33
0.0
 14
2627.16095990927
 24
-919.694619456166
 34
0.0
 50
90.0
100
AcDbRotatedDimension
  0
DIMENSION
  5
2B8
330
46
100
AcDbEntity
  8
1
100
AcDbDimension
  2
*D5
 10
2517.16095990927
 20
-867.6946194561663
 30
0.0
 11
2511.53595990927
 21
-833.0444937247019
 31
0.0
 70
    32
  1
<>
 71
     5
 42
-1.0
 53
90.0
  3
ME10_DIM_12
100
AcDbAlignedDimension
 13
2610.66095990927
 23
-810.694619456166
 33
0.0
 14
2577.645023198457
 24
-867.6946194561663
 34
0.0
 50
90.0
100
AcDbRotatedDimension
  0
DIMENSION
  5
2C5
330
46
100
AcDbEntity
  8
1
100
AcDbDimension
  2
*D6
 10
2517.16095990927
 20
-959.6946194561659
 30
0.0
 11
2511.53595990927
 21
-914.0501868026759
 31
0.0
 70
    32
  1
<>
 71
     5
 42
-1.0
 53
90.0
  3
ME10_DIM_13
100
AcDbAlignedDimension
 13
2577.645023198457
 23
-867.6946194561663
 33
0.0
 14
2604.66095990927
 24
-959.6946194561659
 34
0.0
 50
90.0
100
AcDbRotatedDimension
  0
DIMENSION
  5
2D2
330
46
100
AcDbEntity
  8
1
100
AcDbDimension
  2
*D7
 10
2569.66095990927
 20
-950.694619456166
 30
0.0
 11
2564.03595990927
 21
-971.7528722828768
 31
0.0
 70
    32
  1
<>
 71
     5
 42
-1.0
 53
90.0
  3
ME10_DIM_14
100
AcDbAlignedDimension
 13
2604.66095990927
 23
-959.6946194561659
 33
0.0
 14
2604.66095990927
 24
-950.694619456166
 34
0.0
 50
90.0
100
AcDbRotatedDimension
  0
DIMENSION
  5
2E1
330
46
100
AcDbEntity
  8
1
100
AcDbDimension
  2
*D8
 10
2482.16095990927
 20
-808.6946194561663
 30
0.0
 11
2476.53595990927
 21
-886.3085110910408
 31
0.0
 70
    32
  1
<>
 71
     5
 42
-1.0
 53
90.0
  3
ME10_DIM_15
100
AcDbAlignedDimension
 13
2647.16095990927
 23
-964.6946194561662
 33
0.0
 14
2647.16095990927
 24
-808.6946194561663
 34
0.0
 50
90.0
100
AcDbRotatedDimension
  0
DIMENSION
  5
2EE
330
46
100
AcDbEntity
  8
1
100
AcDbDimension
  2
*D9
 10
2645.321168674104
 20
-455.6946194561661
 30
0.0
 11
2639.696168674104
 21
-448.6586101957092
 31
0.0
 70
    32
  1
<>
 71
     5
 42
-1.0
 53
90.0
  3
ME10_DIM_16
100
AcDbAlignedDimension
 13
2626.16095990927
 23
-465.6946194561662
 33
0.0
 14
2627.16095990927
 24
-455.6946194561662
 34
0.0
 50
90.0
100
AcDbRotatedDimension
  0
DIMENSION
  5
2FB
330
46
100
AcDbEntity
  8
1
100
AcDbDimension
  2
*D10
 10
2597.16095990927
 20
-520.0706593841653
 30
0.0
 11
2579.20766432714
 21
-514.4456593841653
 31
0.0
 70
    32
  1
<>
 71
     5
 42
-1.0
 53
0.00013888888889
  3
ME10_DIM_17
100
AcDbAlignedDimension
 13
2587.16095990927
 23
-495.6946194561662
 33
0.0
 14
2597.16095990927
 24
-494.6946194561662
 34
0.0
100
AcDbRotatedDimension
  0
DIMENSION
  5
308
330
46
100
AcDbEntity
  8
1
100
AcDbDimension
  2
*D11
 10
2587.16095990927
 20
-430.6946194561662
 30
0.0
 11
2608.38424516347
 21
-425.0696194561662
 31
0.0
 70
    32
  1
<>
 71
     5
 42
-1.0
 53
0.00013888888889
  3
ME10_DIM_18
100
AcDbAlignedDimension
 13
2590.16095990927
 23
-455.6946194561662
 33
0.0
 14
2587.16095990927
 24
-458.6946194561662
 34
0.0
100
AcDbRotatedDimension
  0
DIMENSION
  5
313
330
46
100
AcDbEntity
  8
1
100
AcDbDimension
  2
*D12
 10
2812.662239480029
 20
-413.1946194561662
 30
0.0
 11
2779.17896735778
 21
-407.5696194561662
 31
0.0
 70
    32
  1
A
 71
     5
 42
-1.0
 53
0.00013888888889
  3
ME10_DIM_19
100
AcDbAlignedDimension
 13
2742.16095990927
 23
-458.6946194561662
 33
0.0
 14
2812.662239480029
 24
-448.1946194561662
 34
0.0
100
AcDbRotatedDimension
  0
DIMENSION
  5
323
330
46
100
AcDbEntity
  8
1
100
AcDbDimension
  2
*D13
 10
2801.662239480029
 20
-430.6946194561662
 30
0.0
 11
2783.55031308122
 21
-425.0696194561662
 31
0.0
 70
    32
  1
C
 71
     5
 42
-1.0
 53
0.00013888888889
  3
ME10_DIM_20
100
AcDbAlignedDimension
 13
2791.662239480027
 23
-450.1946194561662
 33
0.0
 14
2801.662239480029
 24
-448.1946194561662
 34
0.0
100
AcDbRotatedDimension
  0
DIMENSION
  5
32F
330
46
100
AcDbEntity
  8
1
100
AcDbDimension
  2
*D15
 10
2812.662239480029
 20
-430.6946194561662
 30
0.0
 11
2822.58018561191
 21
-425.0696194561662
 31
0.0
 70
    32
  1
B
 71
     5
 42
-1.0
 53
0.00013888888889
  3
ME10_DIM_21
100
AcDbAlignedDimension
 13
2801.662239480029
 23
-448.1946194561662
 33
0.0
 14
2812.662239480029
 24
-448.1946194561662
 34
0.0
100
AcDbRotatedDimension
  0
DIMENSION
  5
33A
330
46
100
AcDbEntity
  8
1
100
AcDbDimension
  2
*D16
 10
2724.66095990927
 20
-1075.194619456166
 30
0.0
 11
2664.66095990927
 21
-1069.569619456166
 31
0.0
 70
    32
  1
<>
 71
     5
 42
-1.0
 53
0.00013888888889
  3
ME10_DIM_22
100
AcDbAlignedDimension
 13
2604.66095990927
 23
-959.6946194561659
 33
0.0
 14
2724.66095990927
 24
-959.6946194561659
 34
0.0
100
AcDbRotatedDimension
  0
DIMENSION
  5
346
330
46
100
AcDbEntity
  8
1
100
AcDbDimension
  2
*D17
 10
2623.66095990927
 20
-1057.694619456166
 30
0.0
 11
2664.66095990927
 21
-1051.132119456166
 31
0.0
 70
    32
  1
<>
 71
     5
 42
-1.0
 53
0.00013888888889
  3
ME10_DIM_23
100
AcDbAlignedDimension
 13
2705.66095990927
 23
-962.694619456166
 33
0.0
 14
2623.66095990927
 24
-962.694619456166
 34
0.0
100
AcDbRotatedDimension
  0
DIMENSION
  5
351
330
46
100
AcDbEntity
  8
1
100
AcDbDimension
  2
*D18
 10
2464.66095990927
 20
-750.6946194561663
 30
0.0
 11
2459.03595990927
 21
-889.6375121764378
 31
0.0
 70
    32
  1
P
 71
     5
 42
-1.0
 53
90.0
  3
ME10_DIM_24
100
AcDbAlignedDimension
 13
2651.16095990927
 23
-1022.694619456166
 33
0.0
 14
2651.16095990927
 24
-750.6946194561663
 34
0.0
 50
90.0
100
AcDbRotatedDimension
  0
DIMENSION
  5
35E
330
46
100
AcDbEntity
  8
1
100
AcDbDimension
  2
*D19
 10
2482.16095990927
 20
-808.6946194561663
 30
0.0
 11
2476.53595990927
 21
-774.7869747302688
 31
0.0
 70
    32
  1
M
 71
     5
 42
-1.0
 53
90.0
  3
ME10_DIM_25
100
AcDbAlignedDimension
 13
2651.16095990927
 23
-750.6946194561663
 33
0.0
 14
2647.16095990927
 24
-808.6946194561663
 34
0.0
 50
90.0
100
AcDbRotatedDimension
  0
DIMENSION
  5
36B
330
46
100
AcDbEntity
  8
1
100
AcDbDimension
  2
*D20
 10
2482.16095990927
 20
-1022.694619456166
 30
0.0
 11
2476.53595990927
 21
-994.5010463664177
 31
0.0
 70
    32
  1
M
 71
     5
 42
-1.0
 53
90.0
  3
ME10_DIM_26
100
AcDbAlignedDimension
 13
2649.66095990927
 23
-964.6946194561662
 33
0.0
 14
2651.16095990927
 24
-1022.694619456166
 34
0.0
 50
90.0
100
AcDbRotatedDimension
  0
DIMENSION
  5
379
330
46
100
AcDbEntity
  8
1
100
AcDbDimension
  2
*D21
 10
2552.16095990927
 20
-921.6946194561662
 30
0.0
 11
2546.53595990927
 21
-930.1403587154248
 31
0.0
 70
    32
  1
<>
 71
     5
 42
-1.0
 53
90.0
  3
ME10_DIM_27
100
AcDbAlignedDimension
 13
2602.428075554701
 23
-914.6946194561662
 33
0.0
 14
2590.16095990927
 24
-921.6946194561662
 34
0.0
 50
90.0
100
AcDbRotatedDimension
  0
DIMENSION
  5
384
330
46
100
AcDbEntity
  8
1
100
AcDbDimension
  2
*D22
 10
2517.16095990927
 20
-610.6946194561663
 30
0.0
 11
2511.53595990927
 21
-533.1946194561663
 31
0.0
 70
    32
  1
<>
 71
     5
 42
-1.0
 53
90.0
  3
ME10_DIM_28
100
AcDbAlignedDimension
 13
2590.16095990927
 23
-455.6946194561662
 33
0.0
 14
2590.16095990927
 24
-610.6946194561663
 34
0.0
 50
90.0
100
AcDbRotatedDimension
  0
DIMENSION
  5
391
330
46
100
AcDbEntity
  8
1
100
AcDbDimension
  2
*D23
 10
2569.66095990927
 20
-474.1946194561661
 30
0.0
 11
2564.03595990927
 21
-466.0743810646758
 31
0.0
 70
    32
  1
<>
 71
     5
 42
-1.0
 53
90.0
  3
ME10_DIM_29
100
AcDbAlignedDimension
 13
2587.16095990927
 23
-481.1946194561662
 33
0.0
 14
2587.16095990927
 24
-474.1946194561662
 34
0.0
 50
90.0
100
AcDbRotatedDimension
  0
DIMENSION
  5
39D
330
46
100
AcDbEntity
  8
1
100
AcDbDimension
  2
*D24
 10
2679.66095990927
 20
-733.1946194561663
 30
0.0
 11
2700.06775023691
 21
-726.6321194561663
 31
0.0
 70
    32
  1
ø K
 71
     5
 42
-1.0
 53
0.00013888888889
  3
ME10_DIM_30
100
AcDbAlignedDimension
 13
2649.66095990927
 23
-750.6946194561663
 33
0.0
 14
2679.66095990927
 24
-750.6946194561663
 34
0.0
100
AcDbRotatedDimension
  0
DIMENSION
  5
3A9
330
46
100
AcDbEntity
  8
1
100
AcDbDimension
  2
*D25
 10
2649.66095990927
 20
-1040.194619456166
 30
0.0
 11
2698.87235091616
 21
-1033.632119456166
 31
0.0
 70
    32
  1
ø K
 71
     5
 42
-1.0
 53
0.00013888888889
  3
ME10_DIM_31
100
AcDbAlignedDimension
 13
2679.66095990927
 23
-1022.694619456166
 33
0.0
 14
2649.66095990927
 24
-1022.694619456166
 34
0.0
100
AcDbRotatedDimension
  0
DIMENSION
  5
3B4
330
46
100
AcDbEntity
  8
1
100
AcDbDimension
  2
*D26
 10
2742.16095990927
 20
-680.6946194561663
 30
0.0
 11
2664.66095990927
 21
-675.0696194561663
 31
0.0
 70
    32
  1
<>
 71
     5
 42
-1.0
 53
0.00013888888889
  3
ME10_DIM_32
100
AcDbAlignedDimension
 13
2587.16095990927
 23
-607.6946194561663
 33
0.0
 14
2742.16095990927
 24
-607.6946194561663
 34
0.0
100
AcDbRotatedDimension
  0
DIMENSION
  5
3C1
330
46
100
AcDbEntity
  8
1
100
AcDbDimension
  2
*D27
 10
2605.66095990927
 20
-628.1946194561663
 30
0.0
 11
2597.45201012372
 21
-622.5696194561663
 31
0.0
 70
    32
  1
<>
 71
     5
 42
-1.0
 53
0.00013888888889
  3
ME10_DIM_33
100
AcDbAlignedDimension
 13
2612.66095990927
 23
-610.6946194561663
 33
0.0
 14
2605.66095990927
 24
-610.6946194561663
 34
0.0
100
AcDbRotatedDimension
  0
DIMENSION
  5
3CC
330
46
100
AcDbEntity
  8
1
100
AcDbDimension
  2
*D28
 10
2718.66095990927
 20
-715.6946194561663
 30
0.0
 11
2664.66095990927
 21
-710.0696194561663
 31
0.0
 70
    32
  1
<>
 71
     5
 42
-1.0
 53
0.00013888888889
  3
ME10_DIM_34
100
AcDbAlignedDimension
 13
2610.66095990927
 23
-810.694619456166
 33
0.0
 14
2718.66095990927
 24
-810.694619456166
 34
0.0
100
AcDbRotatedDimension
  0
DIMENSION
  5
3D9
330
46
100
AcDbEntity
  8
1
100
AcDbDimension
  2
*D29
 10
2668.66095990927
 20
-530.0354858408278
 30
0.0
 11
2651.19549086224
 21
-524.4104858408278
 31
0.0
 70
    32
  1
T
 71
     5
 42
-1.0
 53
0.00013888888889
  3
ME10_DIM_35
100
AcDbAlignedDimension
 13
2660.66095990927
 23
-536.694619456166
 33
0.0
 14
2668.66095990927
 24
-536.694619456166
 34
0.0
100
AcDbRotatedDimension
  0
DIMENSION
  5
3E6
330
46
100
AcDbEntity
  8
1
100
AcDbDimension
  2
*D30
 10
2742.16095990927
 20
-962.694619456166
 30
0.0
 11
2736.53595990927
 21
-952.546625947979
 31
0.0
 70
    32
  1
<>
 71
     5
 42
-1.0
 53
90.0
  3
ME10_DIM_36
100
AcDbAlignedDimension
 13
2724.66095990927
 23
-959.6946194561659
 33
0.0
 14
2705.66095990927
 24
-962.694619456166
 34
0.0
 50
90.0
100
AcDbRotatedDimension
  0
DIMENSION
  5
3F2
330
46
100
AcDbEntity
  8
1
100
AcDbDimension
  2
*D31
 10
2499.66095990927
 20
-750.6946194561663
 30
0.0
 11
2494.03595990927
 21
-780.50177373614
 31
0.0
 70
    32
  1
O
 71
     5
 42
-1.0
 53
90.0
  3
ME10_DIM_37
100
AcDbAlignedDimension
 13
2610.66095990927
 23
-810.694619456166
 33
0.0
 14
2651.16095990927
 24
-750.6946194561663
 34
0.0
 50
90.0
100
AcDbRotatedDimension
  0
DIMENSION
  5
3FD
330
46
100
AcDbEntity
  8
1
100
AcDbDimension
  2
*D32
 10
2499.66095990927
 20
-959.6946194561659
 30
0.0
 11
2494.03595990927
 21
-991.194619456166
 31
0.0
 70
    32
  1
N
 71
     5
 42
-1.0
 53
90.0
  3
ME10_DIM_38
100
AcDbAlignedDimension
 13
2649.66095990927
 23
-1022.694619456166
 33
0.0
 14
2604.66095990927
 24
-959.6946194561659
 34
0.0
 50
90.0
100
AcDbRotatedDimension
  0
DIMENSION
  5
409
330
46
100
AcDbEntity
  8
1
100
AcDbDimension
  2
*D33
 10
2499.66095990927
 20
-810.694619456166
 30
0.0
 11
2494.03595990927
 21
-885.194619456166
 31
0.0
 70
    32
  1
<>
 71
     5
 42
-1.0
 53
90.0
  3
ME10_DIM_39
100
AcDbAlignedDimension
 13
2604.66095990927
 23
-959.6946194561659
 33
0.0
 14
2610.66095990927
 24
-810.694619456166
 34
0.0
 50
90.0
100
AcDbRotatedDimension
  0
DIMENSION
  5
414
330
46
100
AcDbEntity
  8
1
100
AcDbDimension
  2
*D34
 10
2830.162239480029
 20
-455.6946194561662
 30
0.0
 11
2824.224739480029
 21
-480.0322457369578
 31
0.0
 70
    32
  1
<>
 71
     5
 42
-1.0
 53
90.0
  3
ME10_DIM_40
100
AcDbAlignedDimension
 13
2822.394447306356
 23
-508.1946194561662
 33
0.0
 14
2739.16095990927
 24
-455.6946194561662
 34
0.0
 50
90.0
100
AcDbRotatedDimension
  0
DIMENSION
  5
41F
330
46
100
AcDbEntity
  8
1
100
AcDbDimension
  2
*D35
 10
2830.162239480029
 20
-555.694619456166
 30
0.0
 11
2824.537239480029
 21
-582.7736413659148
 31
0.0
 70
    32
  1
<>
 71
     5
 42
-1.0
 53
90.0
  3
ME10_DIM_41
100
AcDbAlignedDimension
 13
2739.16095990927
 23
-610.6946194561663
 33
0.0
 14
2746.503940076693
 24
-555.694619456166
 34
0.0
 50
90.0
100
AcDbRotatedDimension
  0
DIMENSION
  5
42A
330
46
100
AcDbEntity
  8
1
100
AcDbDimension
  2
*D36
 10
2830.162239480029
 20
-508.1946194561661
 30
0.0
 11
2824.224739480029
 21
-528.6689288218138
 31
0.0
 70
    32
  1
<>
 71
     5
 42
-1.0
 53
90.0
  3
ME10_DIM_42
100
AcDbAlignedDimension
 13
2746.503940076693
 23
-555.694619456166
 33
0.0
 14
2822.394447306356
 24
-508.1946194561662
 34
0.0
 50
90.0
100
AcDbRotatedDimension
  0
DIMENSION
  5
435
330
46
100
AcDbEntity
  8
1
100
AcDbDimension
  2
*D37
 10
2812.662239480029
 20
-395.6946194561662
 30
0.0
 11
2702.99265617787
 21
-390.0696194561662
 31
0.0
 70
    32
  1
L
 71
     5
 42
-1.0
 53
0.00013888888889
  3
ME10_DIM_43
100
AcDbAlignedDimension
 13
2587.16095990927
 23
-458.6946194561662
 33
0.0
 14
2812.662239480029
 24
-448.1946194561662
 34
0.0
100
AcDbRotatedDimension
  0
DIMENSION
  5
440
330
46
100
AcDbEntity
  8
1
100
AcDbDimension
  2
*D38
 10
2587.16095990927
 20
-413.1946194561662
 30
0.0
 11
2623.37171621525
 21
-407.2571194561662
 31
0.0
 70
    32
  1
<>
 71
     5
 42
-1.0
 53
0.00013888888889
  3
ME10_DIM_44
100
AcDbAlignedDimension
 13
2664.66095990927
 23
-452.636812710865
 33
0.0
 14
2587.16095990927
 24
-458.6946194561662
 34
0.0
100
AcDbRotatedDimension
  0
DIMENSION
  5
44B
330
46
100
AcDbEntity
  8
1
100
AcDbDimension
  2
*D39
 10
2664.66095990927
 20
-413.1946194561662
 30
0.0
 11
2706.11504598032
 21
-407.2571194561662
 31
0.0
 70
    32
  1
<>
 71
     5
 42
-1.0
 53
0.00013888888889
  3
ME10_DIM_45
100
AcDbAlignedDimension
 13
2742.16095990927
 23
-458.6946194561662
 33
0.0
 14
2664.66095990927
 24
-452.636812710865
 34
0.0
100
AcDbRotatedDimension
  0
DIMENSION
  5
456
330
46
100
AcDbEntity
  8
1
100
AcDbDimension
  2
*D40
 10
2552.16095990927
 20
-914.6946194561662
 30
0.0
 11
2546.53595990927
 21
-867.9990051213618
 31
0.0
 70
    32
  1
<>
 71
     5
 42
-1.0
 53
90.0
  3
ME10_DIM_46
100
AcDbAlignedDimension
 13
2602.845513216896
 23
-820.6946194561663
 33
0.0
 14
2602.428075554701
 24
-914.6946194561662
 34
0.0
 50
90.0
100
AcDbRotatedDimension
  0
DIMENSION
  5
463
330
46
100
AcDbEntity
  8
1
100
AcDbDimension
  2
*D41
 10
2552.16095990927
 20
-820.6946194561663
 30
0.0
 11
2546.53595990927
 21
-799.7544828707398
 31
0.0
 70
    32
  1
<>
 71
     5
 42
-1.0
 53
90.0
  3
ME10_DIM_47
100
AcDbAlignedDimension
 13
2588.16095990927
 23
-813.6946194561663
 33
0.0
 14
2602.845513216896
 24
-820.6946194561663
 34
0.0
 50
90.0
100
AcDbRotatedDimension
  0
DIMENSION
  5
46F
330
46
100
AcDbEntity
  8
1
100
AcDbDimension
  2
*D42
 10
2534.66095990927
 20
-455.6946194561662
 30
0.0
 11
2529.03595990927
 21
-474.5748752045348
 31
0.0
 70
    32
  1
<>
 71
     5
 42
-1.0
 53
90.0
  3
ME10_DIM_48
100
AcDbAlignedDimension
 13
2587.16095990927
 23
-495.6946194561662
 33
0.0
 14
2590.16095990927
 24
-455.6946194561662
 34
0.0
 50
90.0
100
AcDbRotatedDimension
  0
DIMENSION
  5
47B
330
46
100
AcDbEntity
  8
1
100
AcDbDimension
  2
*D43
 10
2534.66095990927
 20
-570.694619456166
 30
0.0
 11
2529.03595990927
 21
-591.2368292618988
 31
0.0
 70
    32
  1
<>
 71
     5
 42
-1.0
 53
90.0
  3
ME10_DIM_49
100
AcDbAlignedDimension
 13
2590.16095990927
 23
-610.6946194561663
 33
0.0
 14
2587.16095990927
 24
-570.694619456166
 34
0.0
 50
90.0
100
AcDbRotatedDimension
  0
DIMENSION
  5
488
330
46
100
AcDbEntity
  8
1
100
AcDbDimension
  2
*D44
 10
2534.66095990927
 20
-495.6946194561662
 30
0.0
 11
2529.03595990927
 21
-533.1946194561663
 31
0.0
 70
    32
  1
<>
 71
     5
 42
-1.0
 53
90.0
  3
ME10_DIM_50
100
AcDbAlignedDimension
 13
2587.16095990927
 23
-570.694619456166
 33
0.0
 14
2587.16095990927
 24
-495.6946194561662
 34
0.0
 50
90.0
100
AcDbRotatedDimension
  0
DIMENSION
  5
493
330
46
100
AcDbEntity
  8
1
100
AcDbDimension
  2
*D45
 10
2552.16095990927
 20
-455.6946194561662
 30
0.0
 11
2546.53595990927
 21
-467.5399835025828
 31
0.0
 70
    32
  1
<>
 71
     5
 42
-1.0
 53
90.0
  3
ME10_DIM_51
100
AcDbAlignedDimension
 13
2583.921735868714
 23
-477.6946194561662
 33
0.0
 14
2590.16095990927
 24
-455.6946194561662
 34
0.0
 50
90.0
100
AcDbRotatedDimension
  0
DIMENSION
  5
49E
330
46
100
AcDbEntity
  8
1
100
AcDbDimension
  2
*D46
 10
2552.16095990927
 20
-588.6946194561663
 30
0.0
 11
2546.53595990927
 21
-598.8579619390129
 31
0.0
 70
    32
  1
<>
 71
     5
 42
-1.0
 53
90.0
  3
ME10_DIM_52
100
AcDbAlignedDimension
 13
2590.16095990927
 23
-610.6946194561663
 33
0.0
 14
2583.6015357836
 24
-588.6946194561663
 34
0.0
 50
90.0
100
AcDbRotatedDimension
  0
DIMENSION
  5
4A9
330
46
100
AcDbEntity
  8
1
100
AcDbDimension
  2
*D47
 10
2552.16095990927
 20
-477.6946194561662
 30
0.0
 11
2546.53595990927
 21
-533.1946194561663
 31
0.0
 70
    32
  1
<>
 71
     5
 42
-1.0
 53
90.0
  3
ME10_DIM_53
100
AcDbAlignedDimension
 13
2583.6015357836
 23
-588.6946194561663
 33
0.0
 14
2583.921735868714
 24
-477.6946194561662
 34
0.0
 50
90.0
100
AcDbRotatedDimension
  0
DIMENSION
  5
4B5
330
46
100
AcDbEntity
  8
1
100
AcDbDimension
  2
*D48
 10
2587.16095990927
 20
-663.1946194561663
 30
0.0
 11
2606.48436128574
 21
-657.5696194561663
 31
0.0
 70
    32
  1
<>
 71
     5
 42
-1.0
 53
0.00013888888889
  3
ME10_DIM_54
100
AcDbAlignedDimension
 13
2627.16095990927
 23
-610.6946194561663
 33
0.0
 14
2587.16095990927
 24
-607.6946194561663
 34
0.0
100
AcDbRotatedDimension
  0
DIMENSION
  5
4C1
330
46
100
AcDbEntity
  8
1
100
AcDbDimension
  2
*D49
 10
2702.16095990927
 20
-663.1946194561663
 30
0.0
 11
2722.74693265328
 21
-657.5696194561663
 31
0.0
 70
    32
  1
<>
 71
     5
 42
-1.0
 53
0.00013888888889
  3
ME10_DIM_55
100
AcDbAlignedDimension
 13
2742.16095990927
 23
-607.6946194561663
 33
0.0
 14
2702.16095990927
 24
-610.6946194561663
 34
0.0
100
AcDbRotatedDimension
  0
DIMENSION
  5
4CE
330
46
100
AcDbEntity
  8
1
100
AcDbDimension
  2
*D50
 10
2627.16095990927
 20
-663.1946194561663
 30
0.0
 11
2664.66095990927
 21
-657.5696194561663
 31
0.0
 70
    32
  1
<>
 71
     5
 42
-1.0
 53
0.00013888888889
  3
ME10_DIM_56
100
AcDbAlignedDimension
 13
2702.16095990927
 23
-610.6946194561663
 33
0.0
 14
2627.16095990927
 24
-610.6946194561663
 34
0.0
100
AcDbRotatedDimension
  0
DIMENSION
  5
4D9
330
46
100
AcDbEntity
  8
1
100
AcDbDimension
  2
*D51
 10
2587.16095990927
 20
-645.6946194561663
 30
0.0
 11
2598.3784051147
 21
-640.0696194561663
 31
0.0
 70
    32
  1
<>
 71
     5
 42
-1.0
 53
0.00013888888889
  3
ME10_DIM_57
100
AcDbAlignedDimension
 13
2609.16095990927
 23
-615.3894043947641
 33
0.0
 14
2587.16095990927
 24
-607.6946194561663
 34
0.0
100
AcDbRotatedDimension
  0
DIMENSION
  5
4E4
330
46
100
AcDbEntity
  8
1
100
AcDbDimension
  2
*D52
 10
2720.16095990927
 20
-645.6946194561663
 30
0.0
 11
2732.24248131079
 21
-640.0696194561663
 31
0.0
 70
    32
  1
<>
 71
     5
 42
-1.0
 53
0.00013888888889
  3
ME10_DIM_58
100
AcDbAlignedDimension
 13
2742.16095990927
 23
-607.6946194561663
 33
0.0
 14
2720.16095990927
 24
-613.7188971337528
 34
0.0
100
AcDbRotatedDimension
  0
DIMENSION
  5
4EF
330
46
100
AcDbEntity
  8
1
100
AcDbDimension
  2
*D53
 10
2609.16095990927
 20
-645.6946194561663
 30
0.0
 11
2664.66095990927
 21
-640.0696194561663
 31
0.0
 70
    32
  1
<>
 71
     5
 42
-1.0
 53
0.00013888888889
  3
ME10_DIM_59
100
AcDbAlignedDimension
 13
2720.16095990927
 23
-613.7188971337528
 33
0.0
 14
2609.16095990927
 24
-615.3894043947641
 34
0.0
100
AcDbRotatedDimension
  0
DIMENSION
  5
4FA
330
46
100
AcDbEntity
  8
1
100
AcDbDimension
  2
*D54
 10
2742.16095990927
 20
-979.6946194561664
 30
0.0
 11
2736.53595990927
 21
-1000.593153957754
 31
0.0
 70
    32
  1
S
 71
     5
 42
-1.0
 53
90.0
  3
ME10_DIM_60
100
AcDbAlignedDimension
 13
2664.66095990927
 23
-1019.694619456166
 33
0.0
 14
2664.66095990927
 24
-979.6946194561662
 34
0.0
 50
90.0
100
AcDbRotatedDimension
  0
DIMENSION
  5
507
330
46
100
AcDbEntity
  8
1
100
AcDbDimension
  2
*D55
 10
2742.16095990927
 20
-1019.694619456166
 30
0.0
 11
2736.53595990927
 21
-1028.694043184553
 31
0.0
 70
    32
  1
R
 71
     5
 42
-1.0
 53
90.0
  3
ME10_DIM_61
100
AcDbAlignedDimension
 13
2679.66095990927
 23
-1022.694619456166
 33
0.0
 14
2664.66095990927
 24
-1019.694619456166
 34
0.0
 50
90.0
100
AcDbRotatedDimension
  0
INSERT
  5
510
330
46
100
AcDbEntity
  8
1
100
AcDbBlockReference
  2
*D56
 10
0.0
 20
0.0
 30
0.0
  0
INSERT
  5
518
330
46
100
AcDbEntity
  8
1
100
AcDbBlockReference
  2
*D57
 10
0.0
 20
0.0
 30
0.0
  0
INSERT
  5
520
330
46
100
AcDbEntity
  8
1
100
AcDbBlockReference
  2
*D58
 10
0.0
 20
0.0
 30
0.0
  0
INSERT
  5
528
330
46
100
AcDbEntity
  8
1
100
AcDbBlockReference
  2
*D59
 10
0.0
 20
0.0
 30
0.0
  0
INSERT
  5
52F
330
46
100
AcDbEntity
  8
1
100
AcDbBlockReference
  2
*D60
 10
0.0
 20
0.0
 30
0.0
  0
ENDBLK
  5
6B
330
46
100
AcDbEntity
  8
0
100
AcDbBlockEnd
  0
BLOCK
  5
29C
330
294
100
AcDbEntity
  8
0
100
AcDbBlockBegin
  2
*D3
 70
     1
 10
0.0
 20
0.0
 30
0.0
  3
*D3
  1

  0
LINE
  5
295
330
294
100
AcDbEntity
  8
1
  6
Continuous
 62
     2
100
AcDbLine
 10
2534.66095990927
 20
-921.6946194561662
 30
0.0
 11
2534.66095990927
 21
-813.6946194561663
 31
0.0
  0
LINE
  5
296
330
294
100
AcDbEntity
  8
1
  6
Continuous
 62
     2
100
AcDbLine
 10
2567.16095990927
 20
-921.6946194561662
 30
0.0
 11
2532.16095990927
 21
-921.6946194561662
 31
0.0
  0
LINE
  5
297
330
294
100
AcDbEntity
  8
1
  6
Continuous
 62
     2
100
AcDbLine
 10
2590.16095990927
 20
-921.6946194561662
 30
0.0
 11
2572.16095990927
 21
-921.6946194561662
 31
0.0
  0
LINE
  5
298
330
294
100
AcDbEntity
  8
1
  6
Continuous
 62
     2
100
AcDbLine
 10
2590.16095990927
 20
-813.6946194561663
 30
0.0
 11
2532.16095990927
 21
-813.6946194561663
 31
0.0
  0
SOLID
  5
299
330
294
100
AcDbEntity
  8
1
 62
     2
100
AcDbTrace
 10
2535.236939586215
 20
-818.0696194561663
 30
0.0
 11
2534.084980232325
 21
-818.0696194561663
 31
0.0
 12
2534.66095990927
 22
-813.6946194561663
 32
0.0
 13
2534.66095990927
 23
-813.6946194561663
 33
0.0
  0
SOLID
  5
29A
330
294
100
AcDbEntity
  8
1
 62
     2
100
AcDbTrace
 10
2534.084980232325
 20
-917.3196194561662
 30
0.0
 11
2535.236939586215
 21
-917.3196194561662
 31
0.0
 12
2534.66095990927
 22
-921.6946194561662
 32
0.0
 13
2534.66095990927
 23
-921.6946194561662
 33
0.0
  0
MTEXT
  5
29B
330
294
100
AcDbEntity
  8
1
 62
     2
100
AcDbMText
 10
2532.16095990927
 20
-874.0066716071298
 30
0.0
 40
6.25
 41
0.0
 71
     7
 72
     1
  1
108
  7
CONVERTER_11
 11
0.0
 21
1.0
 31
0.0
 73
     1
 44
0.60024009603842
  0
ENDBLK
  5
29D
330
294
100
AcDbEntity
  8
0
100
AcDbBlockEnd
  0
BLOCK
  5
2A7
330
2A0
100
AcDbEntity
  8
0
100
AcDbBlockBegin
  2
*D4
 70
     1
 10
0.0
 20
0.0
 30
0.0
  3
*D4
  1

  0
LINE
  5
2A1
330
2A0
100
AcDbEntity
  8
1
  6
Continuous
 62
     2
100
AcDbLine
 10
2569.66095990927
 20
-950.694619456166
 30
0.0
 11
2569.66095990927
 21
-919.694619456166
 31
0.0
  0
LINE
  5
2A2
330
2A0
100
AcDbEntity
  8
1
  6
Continuous
 62
     2
100
AcDbLine
 10
2604.66095990927
 20
-950.694619456166
 30
0.0
 11
2567.16095990927
 21
-950.694619456166
 31
0.0
  0
LINE
  5
2A3
330
2A0
100
AcDbEntity
  8
1
  6
Continuous
 62
     2
100
AcDbLine
 10
2627.16095990927
 20
-919.694619456166
 30
0.0
 11
2567.16095990927
 21
-919.694619456166
 31
0.0
  0
SOLID
  5
2A4
330
2A0
100
AcDbEntity
  8
1
 62
     2
100
AcDbTrace
 10
2570.236939586215
 20
-924.069619456166
 30
0.0
 11
2569.084980232325
 21
-924.069619456166
 31
0.0
 12
2569.66095990927
 22
-919.694619456166
 32
0.0
 13
2569.66095990927
 23
-919.694619456166
 33
0.0
  0
SOLID
  5
2A5
330
2A0
100
AcDbEntity
  8
1
 62
     2
100
AcDbTrace
 10
2569.084980232325
 20
-946.319619456166
 30
0.0
 11
2570.236939586215
 21
-946.319619456166
 31
0.0
 12
2569.66095990927
 22
-950.694619456166
 32
0.0
 13
2569.66095990927
 23
-950.694619456166
 33
0.0
  0
MTEXT
  5
2A6
330
2A0
100
AcDbEntity
  8
1
 62
     2
100
AcDbMText
 10
2567.16095990927
 20
-939.9935273719838
 30
0.0
 40
6.25
 41
0.0
 71
     7
 72
     1
  1
31
  7
CONVERTER_11
 11
0.0
 21
1.0
 31
0.0
 73
     1
 44
0.60024009603842
  0
ENDBLK
  5
2A8
330
2A0
100
AcDbEntity
  8
0
100
AcDbBlockEnd
  0
BLOCK
  5
2B5
330
2AB
100
AcDbEntity
  8
0
100
AcDbBlockBegin
  2
*D5
 70
     1
 10
0.0
 20
0.0
 30
0.0
  3
*D5
  1

  0
LINE
  5
2AC
330
2AB
100
AcDbEntity
  8
1
  6
Continuous
 62
     2
100
AcDbLine
 10
2517.16095990927
 20
-867.6946194561663
 30
0.0
 11
2517.16095990927
 21
-810.694619456166
 31
0.0
  0
LINE
  5
2AD
330
2AB
100
AcDbEntity
  8
1
  6
Continuous
 62
     2
100
AcDbLine
 10
2522.42682987844
 20
-867.6946194561663
 30
0.0
 11
2514.66095990927
 21
-867.6946194561663
 31
0.0
  0
LINE
  5
2AE
330
2AB
100
AcDbEntity
  8
1
  6
Continuous
 62
     2
100
AcDbLine
 10
2541.54134400688
 20
-867.6946194561663
 30
0.0
 11
2537.16095990927
 21
-867.6946194561663
 31
0.0
  0
LINE
  5
2AF
330
2AB
100
AcDbEntity
  8
1
  6
Continuous
 62
     2
100
AcDbLine
 10
2577.645023198457
 20
-867.6946194561663
 30
0.0
 11
2554.66095990927
 21
-867.6946194561663
 31
0.0
  0
LINE
  5
2B0
330
2AB
100
AcDbEntity
  8
1
  6
Continuous
 62
     2
100
AcDbLine
 10
2549.66095990927
 20
-810.694619456166
 30
0.0
 11
2514.66095990927
 21
-810.694619456166
 31
0.0
  0
LINE
  5
2B1
330
2AB
100
AcDbEntity
  8
1
  6
Continuous
 62
     2
100
AcDbLine
 10
2610.66095990927
 20
-810.694619456166
 30
0.0
 11
2554.66095990927
 21
-810.694619456166
 31
0.0
  0
SOLID
  5
2B2
330
2AB
100
AcDbEntity
  8
1
 62
     2
100
AcDbTrace
 10
2516.584980232325
 20
-863.3196194561663
 30
0.0
 11
2517.736939586215
 21
-863.3196194561663
 31
0.0
 12
2517.16095990927
 22
-867.6946194561663
 32
0.0
 13
2517.16095990927
 23
-867.6946194561663
 33
0.0
  0
SOLID
  5
2B3
330
2AB
100
AcDbEntity
  8
1
 62
     2
100
AcDbTrace
 10
2517.736939586215
 20
-815.069619456166
 30
0.0
 11
2516.584980232325
 21
-815.069619456166
 31
0.0
 12
2517.16095990927
 22
-810.694619456166
 32
0.0
 13
2517.16095990927
 23
-810.694619456166
 33
0.0
  0
MTEXT
  5
2B4
330
2AB
100
AcDbEntity
  8
1
 62
     2
100
AcDbMText
 10
2514.66095990927
 20
-837.7319937247019
 30
0.0
 40
6.25
 41
0.0
 71
     7
 72
     1
  1
57
  7
CONVERTER_11
 11
0.0
 21
1.0
 31
0.0
 73
     1
 44
0.60024009603842
  0
ENDBLK
  5
2B6
330
2AB
100
AcDbEntity
  8
0
100
AcDbBlockEnd
  0
BLOCK
  5
2C2
330
2B9
100
AcDbEntity
  8
0
100
AcDbBlockBegin
  2
*D6
 70
     1
 10
0.0
 20
0.0
 30
0.0
  3
*D6
  1

  0
LINE
  5
2BA
330
2B9
100
AcDbEntity
  8
1
  6
Continuous
 62
     2
100
AcDbLine
 10
2517.16095990927
 20
-959.6946194561659
 30
0.0
 11
2517.16095990927
 21
-867.6946194561663
 31
0.0
  0
LINE
  5
2BB
330
2B9
100
AcDbEntity
  8
1
  6
Continuous
 62
     2
100
AcDbLine
 10
2604.66095990927
 20
-959.6946194561659
 30
0.0
 11
2514.66095990927
 21
-959.6946194561659
 31
0.0
  0
LINE
  5
2BC
330
2B9
100
AcDbEntity
  8
1
  6
Continuous
 62
     2
100
AcDbLine
 10
2522.42682987844
 20
-867.6946194561663
 30
0.0
 11
2514.66095990927
 21
-867.6946194561663
 31
0.0
  0
LINE
  5
2BD
330
2B9
100
AcDbEntity
  8
1
  6
Continuous
 62
     2
100
AcDbLine
 10
2541.8709045953
 20
-867.6946194561663
 30
0.0
 11
2537.16095990927
 21
-867.6946194561663
 31
0.0
  0
LINE
  5
2BE
330
2B9
100
AcDbEntity
  8
1
  6
Continuous
 62
     2
100
AcDbLine
 10
2577.645023198457
 20
-867.6946194561663
 30
0.0
 11
2554.66095990927
 21
-867.6946194561663
 31
0.0
  0
SOLID
  5
2BF
330
2B9
100
AcDbEntity
  8
1
 62
     2
100
AcDbTrace
 10
2516.584980232325
 20
-955.3196194561659
 30
0.0
 11
2517.736939586215
 21
-955.3196194561659
 31
0.0
 12
2517.16095990927
 22
-959.6946194561659
 32
0.0
 13
2517.16095990927
 23
-959.6946194561659
 33
0.0
  0
SOLID
  5
2C0
330
2B9
100
AcDbEntity
  8
1
 62
     2
100
AcDbTrace
 10
2517.736939586215
 20
-872.0696194561663
 30
0.0
 11
2516.584980232325
 21
-872.0696194561663
 31
0.0
 12
2517.16095990927
 22
-867.6946194561663
 32
0.0
 13
2517.16095990927
 23
-867.6946194561663
 33
0.0
  0
MTEXT
  5
2C1
330
2B9
100
AcDbEntity
  8
1
 62
     2
100
AcDbMText
 10
2514.66095990927
 20
-918.7376868026759
 30
0.0
 40
6.25
 41
0.0
 71
     7
 72
     1
  1
92
  7
CONVERTER_11
 11
0.0
 21
1.0
 31
0.0
 73
     1
 44
0.60024009603842
  0
ENDBLK
  5
2C3
330
2B9
100
AcDbEntity
  8
0
100
AcDbBlockEnd
  0
BLOCK
  5
2CF
330
2C6
100
AcDbEntity
  8
0
100
AcDbBlockBegin
  2
*D7
 70
     1
 10
0.0
 20
0.0
 30
0.0
  3
*D7
  1

  0
LINE
  5
2C7
330
2C6
100
AcDbEntity
  8
1
  6
Continuous
 62
     2
100
AcDbLine
 10
2569.66095990927
 20
-941.944619456166
 30
0.0
 11
2569.66095990927
 21
-950.694619456166
 31
0.0
  0
LINE
  5
2C8
330
2C6
100
AcDbEntity
  8
1
  6
Continuous
 62
     2
100
AcDbLine
 10
2569.66095990927
 20
-959.6946194561659
 30
0.0
 11
2569.66095990927
 21
-950.694619456166
 31
0.0
  0
LINE
  5
2C9
330
2C6
100
AcDbEntity
  8
1
  6
Continuous
 62
     2
100
AcDbLine
 10
2569.66095990927
 20
-959.6946194561659
 30
0.0
 11
2569.66095990927
 21
-973.6278722828768
 31
0.0
  0
LINE
  5
2CA
330
2C6
100
AcDbEntity
  8
1
  6
Continuous
 62
     2
100
AcDbLine
 10
2604.66095990927
 20
-959.6946194561659
 30
0.0
 11
2567.16095990927
 21
-959.6946194561659
 31
0.0
  0
LINE
  5
2CB
330
2C6
100
AcDbEntity
  8
1
  6
Continuous
 62
     2
100
AcDbLine
 10
2604.66095990927
 20
-950.694619456166
 30
0.0
 11
2567.16095990927
 21
-950.694619456166
 31
0.0
  0
SOLID
  5
2CC
330
2C6
100
AcDbEntity
  8
1
 62
     2
100
AcDbTrace
 10
2569.084980232325
 20
-946.319619456166
 30
0.0
 11
2570.236939586215
 21
-946.319619456166
 31
0.0
 12
2569.66095990927
 22
-950.694619456166
 32
0.0
 13
2569.66095990927
 23
-950.694619456166
 33
0.0
  0
SOLID
  5
2CD
330
2C6
100
AcDbEntity
  8
1
 62
     2
100
AcDbTrace
 10
2570.236939586215
 20
-964.0696194561659
 30
0.0
 11
2569.084980232325
 21
-964.0696194561659
 31
0.0
 12
2569.66095990927
 22
-959.6946194561659
 32
0.0
 13
2569.66095990927
 23
-959.6946194561659
 33
0.0
  0
MTEXT
  5
2CE
330
2C6
100
AcDbEntity
  8
1
 62
     2
100
AcDbMText
 10
2567.16095990927
 20
-973.6278722828768
 30
0.0
 40
6.25
 41
0.0
 71
     7
 72
     1
  1
9
  7
CONVERTER_11
 11
0.0
 21
1.0
 31
0.0
 73
     1
 44
0.60024009603842
  0
ENDBLK
  5
2D0
330
2C6
100
AcDbEntity
  8
0
100
AcDbBlockEnd
  0
BLOCK
  5
2DE
330
2D3
100
AcDbEntity
  8
0
100
AcDbBlockBegin
  2
*D8
 70
     1
 10
0.0
 20
0.0
 30
0.0
  3
*D8
  1

  0
LINE
  5
2D4
330
2D3
100
AcDbEntity
  8
1
  6
Continuous
 62
     2
100
AcDbLine
 10
2482.16095990927
 20
-964.6946194561662
 30
0.0
 11
2482.16095990927
 21
-808.6946194561663
 31
0.0
  0
LINE
  5
2D5
330
2D3
100
AcDbEntity
  8
1
  6
Continuous
 62
     2
100
AcDbLine
 10
2497.16095990927
 20
-964.6946194561662
 30
0.0
 11
2479.66095990927
 21
-964.6946194561662
 31
0.0
  0
LINE
  5
2D6
330
2D3
100
AcDbEntity
  8
1
  6
Continuous
 62
     2
100
AcDbLine
 10
2567.16095990927
 20
-964.6946194561662
 30
0.0
 11
2502.16095990927
 21
-964.6946194561662
 31
0.0
  0
LINE
  5
2D7
330
2D3
100
AcDbEntity
  8
1
  6
Continuous
 62
     2
100
AcDbLine
 10
2647.16095990927
 20
-964.6946194561662
 30
0.0
 11
2572.16095990927
 21
-964.6946194561662
 31
0.0
  0
LINE
  5
2D8
330
2D3
100
AcDbEntity
  8
1
  6
Continuous
 62
     2
100
AcDbLine
 10
2497.16095990927
 20
-808.6946194561663
 30
0.0
 11
2479.66095990927
 21
-808.6946194561663
 31
0.0
  0
LINE
  5
2D9
330
2D3
100
AcDbEntity
  8
1
  6
Continuous
 62
     2
100
AcDbLine
 10
2549.66095990927
 20
-808.6946194561663
 30
0.0
 11
2502.16095990927
 21
-808.6946194561663
 31
0.0
  0
LINE
  5
2DA
330
2D3
100
AcDbEntity
  8
1
  6
Continuous
 62
     2
100
AcDbLine
 10
2647.16095990927
 20
-808.6946194561663
 30
0.0
 11
2554.66095990927
 21
-808.6946194561663
 31
0.0
  0
SOLID
  5
2DB
330
2D3
100
AcDbEntity
  8
1
 62
     2
100
AcDbTrace
 10
2482.736939586215
 20
-813.0696194561663
 30
0.0
 11
2481.584980232325
 21
-813.0696194561663
 31
0.0
 12
2482.16095990927
 22
-808.6946194561663
 32
0.0
 13
2482.16095990927
 23
-808.6946194561663
 33
0.0
  0
SOLID
  5
2DC
330
2D3
100
AcDbEntity
  8
1
 62
     2
100
AcDbTrace
 10
2481.584980232325
 20
-960.3196194561662
 30
0.0
 11
2482.736939586215
 21
-960.3196194561662
 31
0.0
 12
2482.16095990927
 22
-964.6946194561662
 32
0.0
 13
2482.16095990927
 23
-964.6946194561662
 33
0.0
  0
MTEXT
  5
2DD
330
2D3
100
AcDbEntity
  8
1
 62
     2
100
AcDbMText
 10
2479.66095990927
 20
-892.8710110910408
 30
0.0
 40
6.25
 41
0.0
 71
     7
 72
     1
  1
156
  7
CONVERTER_11
 11
0.0
 21
1.0
 31
0.0
 73
     1
 44
0.60024009603842
  0
ENDBLK
  5
2DF
330
2D3
100
AcDbEntity
  8
0
100
AcDbBlockEnd
  0
BLOCK
  5
2EB
330
2E2
100
AcDbEntity
  8
0
100
AcDbBlockBegin
  2
*D9
 70
     1
 10
0.0
 20
0.0
 30
0.0
  3
*D9
  1

  0
LINE
  5
2E3
330
2E2
100
AcDbEntity
  8
1
  6
Continuous
 62
     2
100
AcDbLine
 10
2645.321168674104
 20
-474.4446194561661
 30
0.0
 11
2645.321168674104
 21
-465.6946194561661
 31
0.0
  0
LINE
  5
2E4
330
2E2
100
AcDbEntity
  8
1
  6
Continuous
 62
     2
100
AcDbLine
 10
2645.321168674104
 20
-465.6946194561661
 30
0.0
 11
2645.321168674104
 21
-455.6946194561661
 31
0.0
  0
LINE
  5
2E5
330
2E2
100
AcDbEntity
  8
1
  6
Continuous
 62
     2
100
AcDbLine
 10
2645.321168674104
 20
-455.6946194561661
 30
0.0
 11
2645.321168674104
 21
-444.9086101957092
 31
0.0
  0
LINE
  5
2E6
330
2E2
100
AcDbEntity
  8
1
  6
Continuous
 62
     2
100
AcDbLine
 10
2626.16095990927
 20
-465.6946194561661
 30
0.0
 11
2647.821168674104
 21
-465.6946194561661
 31
0.0
  0
LINE
  5
2E7
330
2E2
100
AcDbEntity
  8
1
  6
Continuous
 62
     2
100
AcDbLine
 10
2627.16095990927
 20
-455.6946194561661
 30
0.0
 11
2647.821168674104
 21
-455.6946194561661
 31
0.0
  0
SOLID
  5
2E8
330
2E2
100
AcDbEntity
  8
1
 62
     2
100
AcDbTrace
 10
2644.745188997159
 20
-451.3196194561661
 30
0.0
 11
2645.897148351049
 21
-451.3196194561661
 31
0.0
 12
2645.321168674104
 22
-455.6946194561661
 32
0.0
 13
2645.321168674104
 23
-455.6946194561661
 33
0.0
  0
SOLID
  5
2E9
330
2E2
100
AcDbEntity
  8
1
 62
     2
100
AcDbTrace
 10
2645.897148351049
 20
-470.0696194561661
 30
0.0
 11
2644.745188997159
 21
-470.0696194561661
 31
0.0
 12
2645.321168674104
 22
-465.6946194561661
 32
0.0
 13
2645.321168674104
 23
-465.6946194561661
 33
0.0
  0
MTEXT
  5
2EA
330
2E2
100
AcDbEntity
  8
1
 62
     2
100
AcDbMText
 10
2642.821168674104
 20
-452.4086101957092
 30
0.0
 40
6.25
 41
0.0
 71
     7
 72
     1
  1
10
  7
CONVERTER_11
 11
0.0
 21
1.0
 31
0.0
 73
     1
 44
0.60024009603842
  0
ENDBLK
  5
2EC
330
2E2
100
AcDbEntity
  8
0
100
AcDbBlockEnd
  0
BLOCK
  5
2F8
330
2EF
100
AcDbEntity
  8
0
100
AcDbBlockBegin
  2
*D10
 70
     1
 10
0.0
 20
0.0
 30
0.0
  3
*D10
  1

  0
LINE
  5
2F0
330
2EF
100
AcDbEntity
  8
1
  6
Continuous
 62
     2
100
AcDbLine
 10
2605.91095990927
 20
-520.0706593841653
 30
0.0
 11
2597.16095990927
 21
-520.0706593841653
 31
0.0
  0
LINE
  5
2F1
330
2EF
100
AcDbEntity
  8
1
  6
Continuous
 62
     2
100
AcDbLine
 10
2587.16095990927
 20
-520.0706593841653
 30
0.0
 11
2597.16095990927
 21
-520.0706593841653
 31
0.0
  0
LINE
  5
2F2
330
2EF
100
AcDbEntity
  8
1
  6
Continuous
 62
     2
100
AcDbLine
 10
2587.16095990927
 20
-520.0706593841653
 30
0.0
 11
2575.45766432714
 21
-520.0706593841653
 31
0.0
  0
LINE
  5
2F3
330
2EF
100
AcDbEntity
  8
1
  6
Continuous
 62
     2
100
AcDbLine
 10
2587.16095990927
 20
-495.6946194561662
 30
0.0
 11
2587.16095990927
 21
-522.5706593841653
 31
0.0
  0
LINE
  5
2F4
330
2EF
100
AcDbEntity
  8
1
  6
Continuous
 62
     2
100
AcDbLine
 10
2597.16095990927
 20
-494.6946194561662
 30
0.0
 11
2597.16095990927
 21
-522.5706593841653
 31
0.0
  0
SOLID
  5
2F5
330
2EF
100
AcDbEntity
  8
1
 62
     2
100
AcDbTrace
 10
2601.53595990927
 20
-519.4946797072205
 30
0.0
 11
2601.53595990927
 21
-520.6466390611101
 31
0.0
 12
2597.16095990927
 22
-520.0706593841653
 32
0.0
 13
2597.16095990927
 23
-520.0706593841653
 33
0.0
  0
SOLID
  5
2F6
330
2EF
100
AcDbEntity
  8
1
 62
     2
100
AcDbTrace
 10
2582.78595990927
 20
-520.6466390611101
 30
0.0
 11
2582.78595990927
 21
-519.4946797072205
 31
0.0
 12
2587.16095990927
 22
-520.0706593841653
 32
0.0
 13
2587.16095990927
 23
-520.0706593841653
 33
0.0
  0
MTEXT
  5
2F7
330
2EF
100
AcDbEntity
  8
1
 62
     2
100
AcDbMText
 10
2575.45766432714
 20
-517.5706593841653
 30
0.0
 40
6.25
 41
0.0
 71
     7
 72
     1
  1
10
  7
CONVERTER_11
 11
0.9999999999970619
 21
2.424068405545306E-6
 31
0.0
 73
     1
 44
0.60024009603842
  0
ENDBLK
  5
2F9
330
2EF
100
AcDbEntity
  8
0
100
AcDbBlockEnd
  0
BLOCK
  5
305
330
2FC
100
AcDbEntity
  8
0
100
AcDbBlockBegin
  2
*D11
 70
     1
 10
0.0
 20
0.0
 30
0.0
  3
*D11
  1

  0
LINE
  5
2FD
330
2FC
100
AcDbEntity
  8
1
  6
Continuous
 62
     2
100
AcDbLine
 10
2578.41095990927
 20
-430.6946194561662
 30
0.0
 11
2587.16095990927
 21
-430.6946194561662
 31
0.0
  0
LINE
  5
2FE
330
2FC
100
AcDbEntity
  8
1
  6
Continuous
 62
     2
100
AcDbLine
 10
2587.16095990927
 20
-430.6946194561662
 30
0.0
 11
2590.16095990927
 21
-430.6946194561662
 31
0.0
  0
LINE
  5
2FF
330
2FC
100
AcDbEntity
  8
1
  6
Continuous
 62
     2
100
AcDbLine
 10
2590.16095990927
 20
-430.6946194561662
 30
0.0
 11
2621.50924516347
 21
-430.6946194561662
 31
0.0
  0
LINE
  5
300
330
2FC
100
AcDbEntity
  8
1
  6
Continuous
 62
     2
100
AcDbLine
 10
2587.16095990927
 20
-458.6946194561662
 30
0.0
 11
2587.16095990927
 21
-428.1946194561662
 31
0.0
  0
LINE
  5
301
330
2FC
100
AcDbEntity
  8
1
  6
Continuous
 62
     2
100
AcDbLine
 10
2590.16095990927
 20
-455.6946194561662
 30
0.0
 11
2590.16095990927
 21
-428.1946194561662
 31
0.0
  0
SOLID
  5
302
330
2FC
100
AcDbEntity
  8
1
 62
     2
100
AcDbTrace
 10
2582.78595990927
 20
-431.2705991331111
 30
0.0
 11
2582.78595990927
 21
-430.1186397792213
 31
0.0
 12
2587.16095990927
 22
-430.6946194561662
 32
0.0
 13
2587.16095990927
 23
-430.6946194561662
 33
0.0
  0
SOLID
  5
303
330
2FC
100
AcDbEntity
  8
1
 62
     2
100
AcDbTrace
 10
2594.53595990927
 20
-430.1186397792213
 30
0.0
 11
2594.53595990927
 21
-431.2705991331111
 31
0.0
 12
2590.16095990927
 22
-430.6946194561662
 32
0.0
 13
2590.16095990927
 23
-430.6946194561662
 33
0.0
  0
MTEXT
  5
304
330
2FC
100
AcDbEntity
  8
1
 62
     2
100
AcDbMText
 10
2595.25924516347
 20
-428.1946194561662
 30
0.0
 40
6.25
 41
0.0
 71
     7
 72
     1
  1
\C2;3\C2;x45%%d
  7
CONVERTER_11
 11
0.9999999999970619
 21
2.424068405545306E-6
 31
0.0
 73
     1
 44
0.60024009603842
  0
ENDBLK
  5
306
330
2FC
100
AcDbEntity
  8
0
100
AcDbBlockEnd
  0
BLOCK
  5
310
330
309
100
AcDbEntity
  8
0
100
AcDbBlockBegin
  2
*D12
 70
     1
 10
0.0
 20
0.0
 30
0.0
  3
*D12
  1

  0
LINE
  5
30A
330
309
100
AcDbEntity
  8
1
  6
Continuous
 62
     2
100
AcDbLine
 10
2742.16095990927
 20
-413.1946194561662
 30
0.0
 11
2812.662239480029
 21
-413.1946194561662
 31
0.0
  0
LINE
  5
30B
330
309
100
AcDbEntity
  8
1
  6
Continuous
 62
     2
100
AcDbLine
 10
2742.16095990927
 20
-458.6946194561662
 30
0.0
 11
2742.16095990927
 21
-410.6946194561662
 31
0.0
  0
LINE
  5
30C
330
309
100
AcDbEntity
  8
1
  6
Continuous
 62
     2
100
AcDbLine
 10
2812.662239480029
 20
-448.1946194561662
 30
0.0
 11
2812.662239480029
 21
-410.6946194561662
 31
0.0
  0
SOLID
  5
30D
330
309
100
AcDbEntity
  8
1
 62
     2
100
AcDbTrace
 10
2808.287239480029
 20
-413.7705991331111
 30
0.0
 11
2808.287239480029
 21
-412.6186397792213
 31
0.0
 12
2812.662239480029
 22
-413.1946194561662
 32
0.0
 13
2812.662239480029
 23
-413.1946194561662
 33
0.0
  0
SOLID
  5
30E
330
309
100
AcDbEntity
  8
1
 62
     2
100
AcDbTrace
 10
2746.53595990927
 20
-412.6186397792213
 30
0.0
 11
2746.53595990927
 21
-413.7705991331111
 31
0.0
 12
2742.16095990927
 22
-413.1946194561662
 32
0.0
 13
2742.16095990927
 23
-413.1946194561662
 33
0.0
  0
MTEXT
  5
30F
330
309
100
AcDbEntity
  8
1
 62
     2
100
AcDbMText
 10
2776.67896735778
 20
-410.6946194561662
 30
0.0
 40
6.25
 41
0.0
 71
     7
 72
     1
  1
A
  7
CONVERTER_11
 11
0.9999999999970619
 21
2.424068405545306E-6
 31
0.0
 73
     1
 44
0.60024009603842
  0
ENDBLK
  5
311
330
309
100
AcDbEntity
  8
0
100
AcDbBlockEnd
  0
BLOCK
  5
31C
330
314
100
AcDbEntity
  8
0
100
AcDbBlockBegin
  2
*D13
 70
     1
 10
0.0
 20
0.0
 30
0.0
  3
*D13
  1

  0
LINE
  5
315
330
314
100
AcDbEntity
  8
1
  6
Continuous
 62
     2
100
AcDbLine
 10
2791.662239480027
 20
-430.6946194561662
 30
0.0
 11
2801.662239480029
 21
-430.6946194561662
 31
0.0
  0
LINE
  5
316
330
314
100
AcDbEntity
  8
1
  6
Continuous
 62
     2
100
AcDbLine
 10
2791.662239480027
 20
-430.6946194561662
 30
0.0
 11
2781.67531308122
 21
-430.6946194561662
 31
0.0
  0
LINE
  5
317
330
314
100
AcDbEntity
  8
1
  6
Continuous
 62
     2
100
AcDbLine
 10
2791.662239480027
 20
-450.1946194561662
 30
0.0
 11
2791.662239480027
 21
-428.1946194561662
 31
0.0
  0
LINE
  5
318
330
314
100
AcDbEntity
  8
1
  6
Continuous
 62
     2
100
AcDbLine
 10
2801.662239480029
 20
-448.1946194561662
 30
0.0
 11
2801.662239480029
 21
-428.1946194561662
 31
0.0
  0
LINE
  5
319
330
314
100
AcDbEntity
  8
1
 62
     2
100
AcDbLine
 10
2803.209035563874
 20
-429.1478233723207
 30
0.0
 11
2800.115443396183
 21
-432.2414155400118
 31
0.0
  0
SOLID
  5
31A
330
314
100
AcDbEntity
  8
1
 62
     2
100
AcDbTrace
 10
2787.287239480027
 20
-431.2705991331111
 30
0.0
 11
2787.287239480027
 21
-430.1186397792213
 31
0.0
 12
2791.662239480027
 22
-430.6946194561662
 32
0.0
 13
2791.662239480027
 23
-430.6946194561662
 33
0.0
  0
MTEXT
  5
31B
330
314
100
AcDbEntity
  8
1
 62
     2
100
AcDbMText
 10
2781.67531308122
 20
-428.1946194561662
 30
0.0
 40
6.25
 41
0.0
 71
     7
 72
     1
  1
C
  7
CONVERTER_11
 11
0.9999999999970619
 21
2.424068405545306E-6
 31
0.0
 73
     1
 44
0.60024009603842
  0
ENDBLK
  5
31D
330
314
100
AcDbEntity
  8
0
100
AcDbBlockEnd
  0
BLOCK
  5
31F
330
31E
100
AcDbEntity
  8
0
100
AcDbBlockBegin
  2
_OBLIQUE
 70
     0
 10
0.0
 20
0.0
 30
0.0
  3
_OBLIQUE
  1

  0
LINE
  5
321
330
31E
100
AcDbEntity
  8
0
  6
ByBlock
 62
     0
370
    -2
100
AcDbLine
 10
-0.5
 20
-0.5
 30
0.0
 11
0.5
 21
0.5
 31
0.0
  0
ENDBLK
  5
320
330
31E
100
AcDbEntity
  8
0
100
AcDbBlockEnd
  0
BLOCK
  5
32C
330
324
100
AcDbEntity
  8
0
100
AcDbBlockBegin
  2
*D15
 70
     1
 10
0.0
 20
0.0
 30
0.0
  3
*D15
  1

  0
LINE
  5
325
330
324
100
AcDbEntity
  8
1
  6
Continuous
 62
     2
100
AcDbLine
 10
2801.662239480029
 20
-430.6946194561662
 30
0.0
 11
2812.662239480029
 21
-430.6946194561662
 31
0.0
  0
LINE
  5
326
330
324
100
AcDbEntity
  8
1
  6
Continuous
 62
     2
100
AcDbLine
 10
2812.662239480029
 20
-430.6946194561662
 30
0.0
 11
2824.61143561191
 21
-430.6946194561662
 31
0.0
  0
LINE
  5
327
330
324
100
AcDbEntity
  8
1
  6
Continuous
 62
     2
100
AcDbLine
 10
2801.662239480029
 20
-448.1946194561662
 30
0.0
 11
2801.662239480029
 21
-428.1946194561662
 31
0.0
  0
LINE
  5
328
330
324
100
AcDbEntity
  8
1
  6
Continuous
 62
     2
100
AcDbLine
 10
2812.662239480029
 20
-448.1946194561662
 30
0.0
 11
2812.662239480029
 21
-428.1946194561662
 31
0.0
  0
SOLID
  5
329
330
324
100
AcDbEntity
  8
1
 62
     2
100
AcDbTrace
 10
2817.037239480029
 20
-430.1186397792213
 30
0.0
 11
2817.037239480029
 21
-431.2705991331111
 31
0.0
 12
2812.662239480029
 22
-430.6946194561662
 32
0.0
 13
2812.662239480029
 23
-430.6946194561662
 33
0.0
  0
LINE
  5
32A
330
324
100
AcDbEntity
  8
1
 62
     2
100
AcDbLine
 10
2800.115443396184
 20
-432.2414155400118
 30
0.0
 11
2803.209035563875
 21
-429.1478233723207
 31
0.0
  0
MTEXT
  5
32B
330
324
100
AcDbEntity
  8
1
 62
     2
100
AcDbMText
 10
2820.54893561191
 20
-428.1946194561662
 30
0.0
 40
6.25
 41
0.0
 71
     7
 72
     1
  1
B
  7
CONVERTER_11
 11
0.9999999999970619
 21
2.424068405545306E-6
 31
0.0
 73
     1
 44
0.60024009603842
  0
ENDBLK
  5
32D
330
324
100
AcDbEntity
  8
0
100
AcDbBlockEnd
  0
BLOCK
  5
337
330
330
100
AcDbEntity
  8
0
100
AcDbBlockBegin
  2
*D16
 70
     1
 10
0.0
 20
0.0
 30
0.0
  3
*D16
  1

  0
LINE
  5
331
330
330
100
AcDbEntity
  8
1
  6
Continuous
 62
     2
100
AcDbLine
 10
2604.66095990927
 20
-1075.194619456166
 30
0.0
 11
2724.66095990927
 21
-1075.194619456166
 31
0.0
  0
LINE
  5
332
330
330
100
AcDbEntity
  8
1
  6
Continuous
 62
     2
100
AcDbLine
 10
2604.66095990927
 20
-959.6946194561659
 30
0.0
 11
2604.66095990927
 21
-1077.694619456166
 31
0.0
  0
LINE
  5
333
330
330
100
AcDbEntity
  8
1
  6
Continuous
 62
     2
100
AcDbLine
 10
2724.66095990927
 20
-959.6946194561659
 30
0.0
 11
2724.66095990927
 21
-1077.694619456166
 31
0.0
  0
SOLID
  5
334
330
330
100
AcDbEntity
  8
1
 62
     2
100
AcDbTrace
 10
2720.28595990927
 20
-1075.770599133111
 30
0.0
 11
2720.28595990927
 21
-1074.618639779221
 31
0.0
 12
2724.66095990927
 22
-1075.194619456166
 32
0.0
 13
2724.66095990927
 23
-1075.194619456166
 33
0.0
  0
SOLID
  5
335
330
330
100
AcDbEntity
  8
1
 62
     2
100
AcDbTrace
 10
2609.03595990927
 20
-1074.618639779221
 30
0.0
 11
2609.03595990927
 21
-1075.770599133111
 31
0.0
 12
2604.66095990927
 22
-1075.194619456166
 32
0.0
 13
2604.66095990927
 23
-1075.194619456166
 33
0.0
  0
MTEXT
  5
336
330
330
100
AcDbEntity
  8
1
 62
     2
100
AcDbMText
 10
2651.2859599093
 20
-1072.694644302867
 30
0.0
 40
6.25
 41
0.0
 71
     7
 72
     1
  1
\C2;\U+00f8\C2;120
  7
CONVERTER_11
 11
0.9999999999970619
 21
2.424068405545306E-6
 31
0.0
 73
     1
 44
0.60024009603842
  0
ENDBLK
  5
338
330
330
100
AcDbEntity
  8
0
100
AcDbBlockEnd
  0
BLOCK
  5
343
330
33B
100
AcDbEntity
  8
0
100
AcDbBlockBegin
  2
*D17
 70
     1
 10
0.0
 20
0.0
 30
0.0
  3
*D17
  1

  0
LINE
  5
33C
330
33B
100
AcDbEntity
  8
1
  6
Continuous
 62
     2
100
AcDbLine
 10
2623.66095990927
 20
-1057.694619456166
 30
0.0
 11
2705.66095990927
 21
-1057.694619456166
 31
0.0
  0
LINE
  5
33D
330
33B
100
AcDbEntity
  8
1
  6
Continuous
 62
     2
100
AcDbLine
 10
2623.66095990927
 20
-962.694619456166
 30
0.0
 11
2623.66095990927
 21
-1060.194619456166
 31
0.0
  0
LINE
  5
33E
330
33B
100
AcDbEntity
  8
1
  6
Continuous
 62
     2
100
AcDbLine
 10
2705.66095990927
 20
-1043.312646100323
 30
0.0
 11
2705.66095990927
 21
-1060.194619456166
 31
0.0
  0
LINE
  5
33F
330
33B
100
AcDbEntity
  8
1
  6
Continuous
 62
     2
100
AcDbLine
 10
2705.66095990927
 20
-962.694619456166
 30
0.0
 11
2705.66095990927
 21
-1026.062661856073
 31
0.0
  0
SOLID
  5
340
330
33B
100
AcDbEntity
  8
1
 62
     2
100
AcDbTrace
 10
2628.03595990927
 20
-1057.118639779221
 30
0.0
 11
2628.03595990927
 21
-1058.270599133111
 31
0.0
 12
2623.66095990927
 22
-1057.694619456166
 32
0.0
 13
2623.66095990927
 23
-1057.694619456166
 33
0.0
  0
SOLID
  5
341
330
33B
100
AcDbEntity
  8
1
 62
     2
100
AcDbTrace
 10
2701.28595990927
 20
-1058.270599133111
 30
0.0
 11
2701.28595990927
 21
-1057.118639779221
 31
0.0
 12
2705.66095990927
 22
-1057.694619456166
 32
0.0
 13
2705.66095990927
 23
-1057.694619456166
 33
0.0
  0
MTEXT
  5
342
330
33B
100
AcDbEntity
  8
1
 62
     2
100
AcDbMText
 10
2645.6609599093
 20
-1053.319644302867
 30
0.0
 40
6.25
 41
0.0
 71
     7
 72
     1
  1
\C2;\U+00f8\C2;82\C2;-j7
  7
CONVERTER_11
 11
0.9999999999970619
 21
2.424068405545306E-6
 31
0.0
 73
     1
 44
0.60024009603842
  0
ENDBLK
  5
344
330
33B
100
AcDbEntity
  8
0
100
AcDbBlockEnd
  0
BLOCK
  5
34E
330
347
100
AcDbEntity
  8
0
100
AcDbBlockBegin
  2
*D18
 70
     1
 10
0.0
 20
0.0
 30
0.0
  3
*D18
  1

  0
LINE
  5
348
330
347
100
AcDbEntity
  8
1
  6
Continuous
 62
     2
100
AcDbLine
 10
2464.66095990927
 20
-1022.694619456166
 30
0.0
 11
2464.66095990927
 21
-750.6946194561663
 31
0.0
  0
LINE
  5
349
330
347
100
AcDbEntity
  8
1
  6
Continuous
 62
     2
100
AcDbLine
 10
2651.16095990927
 20
-1022.694619456166
 30
0.0
 11
2462.16095990927
 21
-1022.694619456166
 31
0.0
  0
LINE
  5
34A
330
347
100
AcDbEntity
  8
1
  6
Continuous
 62
     2
100
AcDbLine
 10
2651.16095990927
 20
-750.6946194561663
 30
0.0
 11
2462.16095990927
 21
-750.6946194561663
 31
0.0
  0
SOLID
  5
34B
330
347
100
AcDbEntity
  8
1
 62
     2
100
AcDbTrace
 10
2465.236939586215
 20
-755.0696194561663
 30
0.0
 11
2464.084980232325
 21
-755.0696194561663
 31
0.0
 12
2464.66095990927
 22
-750.6946194561663
 32
0.0
 13
2464.66095990927
 23
-750.6946194561663
 33
0.0
  0
SOLID
  5
34C
330
347
100
AcDbEntity
  8
1
 62
     2
100
AcDbTrace
 10
2464.084980232325
 20
-1018.319619456166
 30
0.0
 11
2465.236939586215
 21
-1018.319619456166
 31
0.0
 12
2464.66095990927
 22
-1022.694619456166
 32
0.0
 13
2464.66095990927
 23
-1022.694619456166
 33
0.0
  0
MTEXT
  5
34D
330
347
100
AcDbEntity
  8
1
 62
     2
100
AcDbMText
 10
2462.16095990927
 20
-891.8250121764378
 30
0.0
 40
6.25
 41
0.0
 71
     7
 72
     1
  1
P
  7
CONVERTER_11
 11
0.0
 21
1.0
 31
0.0
 73
     1
 44
0.60024009603842
  0
ENDBLK
  5
34F
330
347
100
AcDbEntity
  8
0
100
AcDbBlockEnd
  0
BLOCK
  5
35B
330
352
100
AcDbEntity
  8
0
100
AcDbBlockBegin
  2
*D19
 70
     1
 10
0.0
 20
0.0
 30
0.0
  3
*D19
  1

  0
LINE
  5
353
330
352
100
AcDbEntity
  8
1
  6
Continuous
 62
     2
100
AcDbLine
 10
2482.16095990927
 20
-808.6946194561663
 30
0.0
 11
2482.16095990927
 21
-750.6946194561663
 31
0.0
  0
LINE
  5
354
330
352
100
AcDbEntity
  8
1
  6
Continuous
 62
     2
100
AcDbLine
 10
2651.16095990927
 20
-750.6946194561663
 30
0.0
 11
2479.66095990927
 21
-750.6946194561663
 31
0.0
  0
LINE
  5
355
330
352
100
AcDbEntity
  8
1
  6
Continuous
 62
     2
100
AcDbLine
 10
2647.16095990927
 20
-808.6946194561663
 30
0.0
 11
2554.66095990927
 21
-808.6946194561663
 31
0.0
  0
LINE
  5
356
330
352
100
AcDbEntity
  8
1
  6
Continuous
 62
     2
100
AcDbLine
 10
2549.66095990927
 20
-808.6946194561663
 30
0.0
 11
2502.16095990927
 21
-808.6946194561663
 31
0.0
  0
LINE
  5
357
330
352
100
AcDbEntity
  8
1
  6
Continuous
 62
     2
100
AcDbLine
 10
2497.16095990927
 20
-808.6946194561663
 30
0.0
 11
2479.66095990927
 21
-808.6946194561663
 31
0.0
  0
SOLID
  5
358
330
352
100
AcDbEntity
  8
1
 62
     2
100
AcDbTrace
 10
2481.584980232325
 20
-804.3196194561663
 30
0.0
 11
2482.736939586215
 21
-804.3196194561663
 31
0.0
 12
2482.16095990927
 22
-808.6946194561663
 32
0.0
 13
2482.16095990927
 23
-808.6946194561663
 33
0.0
  0
SOLID
  5
359
330
352
100
AcDbEntity
  8
1
 62
     2
100
AcDbTrace
 10
2482.736939586215
 20
-755.0696194561663
 30
0.0
 11
2481.584980232325
 21
-755.0696194561663
 31
0.0
 12
2482.16095990927
 22
-750.6946194561663
 32
0.0
 13
2482.16095990927
 23
-750.6946194561663
 33
0.0
  0
MTEXT
  5
35A
330
352
100
AcDbEntity
  8
1
 62
     2
100
AcDbMText
 10
2479.66095990927
 20
-776.9744747302688
 30
0.0
 40
6.25
 41
0.0
 71
     7
 72
     1
  1
M
  7
CONVERTER_11
 11
0.0
 21
1.0
 31
0.0
 73
     1
 44
0.60024009603842
  0
ENDBLK
  5
35C
330
352
100
AcDbEntity
  8
0
100
AcDbBlockEnd
  0
BLOCK
  5
368
330
35F
100
AcDbEntity
  8
0
100
AcDbBlockBegin
  2
*D20
 70
     1
 10
0.0
 20
0.0
 30
0.0
  3
*D20
  1

  0
LINE
  5
360
330
35F
100
AcDbEntity
  8
1
  6
Continuous
 62
     2
100
AcDbLine
 10
2482.16095990927
 20
-1022.694619456166
 30
0.0
 11
2482.16095990927
 21
-964.6946194561662
 31
0.0
  0
LINE
  5
361
330
35F
100
AcDbEntity
  8
1
  6
Continuous
 62
     2
100
AcDbLine
 10
2649.66095990927
 20
-964.6946194561662
 30
0.0
 11
2572.16095990927
 21
-964.6946194561662
 31
0.0
  0
LINE
  5
362
330
35F
100
AcDbEntity
  8
1
  6
Continuous
 62
     2
100
AcDbLine
 10
2567.16095990927
 20
-964.6946194561662
 30
0.0
 11
2502.16095990927
 21
-964.6946194561662
 31
0.0
  0
LINE
  5
363
330
35F
100
AcDbEntity
  8
1
  6
Continuous
 62
     2
100
AcDbLine
 10
2497.16095990927
 20
-964.6946194561662
 30
0.0
 11
2479.66095990927
 21
-964.6946194561662
 31
0.0
  0
LINE
  5
364
330
35F
100
AcDbEntity
  8
1
  6
Continuous
 62
     2
100
AcDbLine
 10
2651.16095990927
 20
-1022.694619456166
 30
0.0
 11
2479.66095990927
 21
-1022.694619456166
 31
0.0
  0
SOLID
  5
365
330
35F
100
AcDbEntity
  8
1
 62
     2
100
AcDbTrace
 10
2481.584980232325
 20
-1018.319619456166
 30
0.0
 11
2482.736939586215
 21
-1018.319619456166
 31
0.0
 12
2482.16095990927
 22
-1022.694619456166
 32
0.0
 13
2482.16095990927
 23
-1022.694619456166
 33
0.0
  0
SOLID
  5
366
330
35F
100
AcDbEntity
  8
1
 62
     2
100
AcDbTrace
 10
2482.736939586215
 20
-969.0696194561662
 30
0.0
 11
2481.584980232325
 21
-969.0696194561662
 31
0.0
 12
2482.16095990927
 22
-964.6946194561662
 32
0.0
 13
2482.16095990927
 23
-964.6946194561662
 33
0.0
  0
MTEXT
  5
367
330
35F
100
AcDbEntity
  8
1
 62
     2
100
AcDbMText
 10
2479.66095990927
 20
-996.6885463664177
 30
0.0
 40
6.25
 41
0.0
 71
     7
 72
     1
  1
M
  7
CONVERTER_11
 11
0.0
 21
1.0
 31
0.0
 73
     1
 44
0.60024009603842
  0
ENDBLK
  5
369
330
35F
100
AcDbEntity
  8
0
100
AcDbBlockEnd
  0
BLOCK
  5
376
330
36C
100
AcDbEntity
  8
0
100
AcDbBlockBegin
  2
*D21
 70
     1
 10
0.0
 20
0.0
 30
0.0
  3
*D21
  1

  0
LINE
  5
36D
330
36C
100
AcDbEntity
  8
1
  6
Continuous
 62
     2
100
AcDbLine
 10
2552.16095990927
 20
-905.9446194561662
 30
0.0
 11
2552.16095990927
 21
-914.6946194561662
 31
0.0
  0
LINE
  5
36E
330
36C
100
AcDbEntity
  8
1
  6
Continuous
 62
     2
100
AcDbLine
 10
2552.16095990927
 20
-921.6946194561662
 30
0.0
 11
2552.16095990927
 21
-914.6946194561662
 31
0.0
  0
LINE
  5
36F
330
36C
100
AcDbEntity
  8
1
  6
Continuous
 62
     2
100
AcDbLine
 10
2552.16095990927
 20
-921.6946194561662
 30
0.0
 11
2552.16095990927
 21
-932.0153587154248
 31
0.0
  0
LINE
  5
370
330
36C
100
AcDbEntity
  8
1
  6
Continuous
 62
     2
100
AcDbLine
 10
2567.16095990927
 20
-921.6946194561662
 30
0.0
 11
2549.66095990927
 21
-921.6946194561662
 31
0.0
  0
LINE
  5
371
330
36C
100
AcDbEntity
  8
1
  6
Continuous
 62
     2
100
AcDbLine
 10
2590.16095990927
 20
-921.6946194561662
 30
0.0
 11
2572.16095990927
 21
-921.6946194561662
 31
0.0
  0
LINE
  5
372
330
36C
100
AcDbEntity
  8
1
  6
Continuous
 62
     2
100
AcDbLine
 10
2602.428075554701
 20
-914.6946194561662
 30
0.0
 11
2549.66095990927
 21
-914.6946194561662
 31
0.0
  0
SOLID
  5
373
330
36C
100
AcDbEntity
  8
1
 62
     2
100
AcDbTrace
 10
2552.736939586215
 20
-926.0696194561662
 30
0.0
 11
2551.584980232325
 21
-926.0696194561662
 31
0.0
 12
2552.16095990927
 22
-921.6946194561662
 32
0.0
 13
2552.16095990927
 23
-921.6946194561662
 33
0.0
  0
SOLID
  5
374
330
36C
100
AcDbEntity
  8
1
 62
     2
100
AcDbTrace
 10
2551.584980232325
 20
-910.3196194561662
 30
0.0
 11
2552.736939586215
 21
-910.3196194561662
 31
0.0
 12
2552.16095990927
 22
-914.6946194561662
 32
0.0
 13
2552.16095990927
 23
-914.6946194561662
 33
0.0
  0
MTEXT
  5
375
330
36C
100
AcDbEntity
  8
1
 62
     2
100
AcDbMText
 10
2549.66095990927
 20
-932.0153587154248
 30
0.0
 40
6.25
 41
0.0
 71
     7
 72
     1
  1
7
  7
CONVERTER_11
 11
0.0
 21
1.0
 31
0.0
 73
     1
 44
0.60024009603842
  0
ENDBLK
  5
377
330
36C
100
AcDbEntity
  8
0
100
AcDbBlockEnd
  0
BLOCK
  5
381
330
37A
100
AcDbEntity
  8
0
100
AcDbBlockBegin
  2
*D22
 70
     1
 10
0.0
 20
0.0
 30
0.0
  3
*D22
  1

  0
LINE
  5
37B
330
37A
100
AcDbEntity
  8
1
  6
Continuous
 62
     2
100
AcDbLine
 10
2517.16095990927
 20
-610.6946194561663
 30
0.0
 11
2517.16095990927
 21
-455.6946194561662
 31
0.0
  0
LINE
  5
37C
330
37A
100
AcDbEntity
  8
1
  6
Continuous
 62
     2
100
AcDbLine
 10
2590.16095990927
 20
-610.6946194561663
 30
0.0
 11
2514.66095990927
 21
-610.6946194561663
 31
0.0
  0
LINE
  5
37D
330
37A
100
AcDbEntity
  8
1
  6
Continuous
 62
     2
100
AcDbLine
 10
2590.16095990927
 20
-455.6946194561662
 30
0.0
 11
2514.66095990927
 21
-455.6946194561662
 31
0.0
  0
SOLID
  5
37E
330
37A
100
AcDbEntity
  8
1
 62
     2
100
AcDbTrace
 10
2516.584980232325
 20
-606.3196194561663
 30
0.0
 11
2517.736939586215
 21
-606.3196194561663
 31
0.0
 12
2517.16095990927
 22
-610.6946194561663
 32
0.0
 13
2517.16095990927
 23
-610.6946194561663
 33
0.0
  0
SOLID
  5
37F
330
37A
100
AcDbEntity
  8
1
 62
     2
100
AcDbTrace
 10
2517.736939586215
 20
-460.0696194561662
 30
0.0
 11
2516.584980232325
 21
-460.0696194561662
 31
0.0
 12
2517.16095990927
 22
-455.6946194561662
 32
0.0
 13
2517.16095990927
 23
-455.6946194561662
 33
0.0
  0
MTEXT
  5
380
330
37A
100
AcDbEntity
  8
1
 62
     2
100
AcDbMText
 10
2514.66095990927
 20
-539.7571194561663
 30
0.0
 40
6.25
 41
0.0
 71
     7
 72
     1
  1
155
  7
CONVERTER_11
 11
0.0
 21
1.0
 31
0.0
 73
     1
 44
0.60024009603842
  0
ENDBLK
  5
382
330
37A
100
AcDbEntity
  8
0
100
AcDbBlockEnd
  0
BLOCK
  5
38E
330
385
100
AcDbEntity
  8
0
100
AcDbBlockBegin
  2
*D23
 70
     1
 10
0.0
 20
0.0
 30
0.0
  3
*D23
  1

  0
LINE
  5
386
330
385
100
AcDbEntity
  8
1
  6
Continuous
 62
     2
100
AcDbLine
 10
2569.66095990927
 20
-489.9446194561661
 30
0.0
 11
2569.66095990927
 21
-481.1946194561661
 31
0.0
  0
LINE
  5
387
330
385
100
AcDbEntity
  8
1
  6
Continuous
 62
     2
100
AcDbLine
 10
2569.66095990927
 20
-481.1946194561661
 30
0.0
 11
2569.66095990927
 21
-474.1946194561661
 31
0.0
  0
LINE
  5
388
330
385
100
AcDbEntity
  8
1
  6
Continuous
 62
     2
100
AcDbLine
 10
2569.66095990927
 20
-474.1946194561661
 30
0.0
 11
2569.66095990927
 21
-464.1993810646758
 31
0.0
  0
LINE
  5
389
330
385
100
AcDbEntity
  8
1
  6
Continuous
 62
     2
100
AcDbLine
 10
2587.16095990927
 20
-481.1946194561661
 30
0.0
 11
2567.16095990927
 21
-481.1946194561661
 31
0.0
  0
LINE
  5
38A
330
385
100
AcDbEntity
  8
1
  6
Continuous
 62
     2
100
AcDbLine
 10
2587.16095990927
 20
-474.1946194561661
 30
0.0
 11
2567.16095990927
 21
-474.1946194561661
 31
0.0
  0
SOLID
  5
38B
330
385
100
AcDbEntity
  8
1
 62
     2
100
AcDbTrace
 10
2569.084980232325
 20
-469.8196194561661
 30
0.0
 11
2570.236939586215
 21
-469.8196194561661
 31
0.0
 12
2569.66095990927
 22
-474.1946194561661
 32
0.0
 13
2569.66095990927
 23
-474.1946194561661
 33
0.0
  0
SOLID
  5
38C
330
385
100
AcDbEntity
  8
1
 62
     2
100
AcDbTrace
 10
2570.236939586215
 20
-485.5696194561661
 30
0.0
 11
2569.084980232325
 21
-485.5696194561661
 31
0.0
 12
2569.66095990927
 22
-481.1946194561661
 32
0.0
 13
2569.66095990927
 23
-481.1946194561661
 33
0.0
  0
MTEXT
  5
38D
330
385
100
AcDbEntity
  8
1
 62
     2
100
AcDbMText
 10
2567.16095990927
 20
-467.9493810646758
 30
0.0
 40
6.25
 41
0.0
 71
     7
 72
     1
  1
7
  7
CONVERTER_11
 11
0.0
 21
1.0
 31
0.0
 73
     1
 44
0.60024009603842
  0
ENDBLK
  5
38F
330
385
100
AcDbEntity
  8
0
100
AcDbBlockEnd
  0
BLOCK
  5
39A
330
392
100
AcDbEntity
  8
0
100
AcDbBlockBegin
  2
*D24
 70
     1
 10
0.0
 20
0.0
 30
0.0
  3
*D24
  1

  0
LINE
  5
393
330
392
100
AcDbEntity
  8
1
  6
Continuous
 62
     2
100
AcDbLine
 10
2649.66095990927
 20
-733.1946194561663
 30
0.0
 11
2679.66095990927
 21
-733.1946194561663
 31
0.0
  0
LINE
  5
394
330
392
100
AcDbEntity
  8
1
  6
Continuous
 62
     2
100
AcDbLine
 10
2679.66095990927
 20
-733.1946194561663
 30
0.0
 11
2715.69275023691
 21
-733.1946194561663
 31
0.0
  0
LINE
  5
395
330
392
100
AcDbEntity
  8
1
  6
Continuous
 62
     2
100
AcDbLine
 10
2649.66095990927
 20
-750.6946194561663
 30
0.0
 11
2649.66095990927
 21
-730.6946194561663
 31
0.0
  0
LINE
  5
396
330
392
100
AcDbEntity
  8
1
  6
Continuous
 62
     2
100
AcDbLine
 10
2679.66095990927
 20
-750.6946194561663
 30
0.0
 11
2679.66095990927
 21
-730.6946194561663
 31
0.0
  0
SOLID
  5
397
330
392
100
AcDbEntity
  8
1
 62
     2
100
AcDbTrace
 10
2675.28595990927
 20
-733.7705991331111
 30
0.0
 11
2675.28595990927
 21
-732.6186397792214
 31
0.0
 12
2679.66095990927
 22
-733.1946194561663
 32
0.0
 13
2679.66095990927
 23
-733.1946194561663
 33
0.0
  0
SOLID
  5
398
330
392
100
AcDbEntity
  8
1
 62
     2
100
AcDbTrace
 10
2654.03595990927
 20
-732.6186397792214
 30
0.0
 11
2654.03595990927
 21
-733.7705991331111
 31
0.0
 12
2649.66095990927
 22
-733.1946194561663
 32
0.0
 13
2649.66095990927
 23
-733.1946194561663
 33
0.0
  0
MTEXT
  5
399
330
392
100
AcDbEntity
  8
1
 62
     2
100
AcDbMText
 10
2681.06775023694
 20
-728.8196443028675
 30
0.0
 40
6.25
 41
0.0
 71
     7
 72
     1
  1
\C2;\U+00f8\C2; K\C2;-j5
  7
CONVERTER_11
 11
0.9999999999970619
 21
2.424068405545306E-6
 31
0.0
 73
     1
 44
0.60024009603842
  0
ENDBLK
  5
39B
330
392
100
AcDbEntity
  8
0
100
AcDbBlockEnd
  0
BLOCK
  5
3A6
330
39E
100
AcDbEntity
  8
0
100
AcDbBlockBegin
  2
*D25
 70
     1
 10
0.0
 20
0.0
 30
0.0
  3
*D25
  1

  0
LINE
  5
39F
330
39E
100
AcDbEntity
  8
1
  6
Continuous
 62
     2
100
AcDbLine
 10
2649.66095990927
 20
-1040.194619456166
 30
0.0
 11
2679.66095990927
 21
-1040.194619456166
 31
0.0
  0
LINE
  5
3A0
330
39E
100
AcDbEntity
  8
1
  6
Continuous
 62
     2
100
AcDbLine
 10
2679.66095990927
 20
-1040.194619456166
 30
0.0
 11
2714.49735091616
 21
-1040.194619456166
 31
0.0
  0
LINE
  5
3A1
330
39E
100
AcDbEntity
  8
1
  6
Continuous
 62
     2
100
AcDbLine
 10
2649.66095990927
 20
-1022.694619456166
 30
0.0
 11
2649.66095990927
 21
-1042.694619456166
 31
0.0
  0
LINE
  5
3A2
330
39E
100
AcDbEntity
  8
1
  6
Continuous
 62
     2
100
AcDbLine
 10
2679.66095990927
 20
-1022.694619456166
 30
0.0
 11
2679.66095990927
 21
-1042.694619456166
 31
0.0
  0
SOLID
  5
3A3
330
39E
100
AcDbEntity
  8
1
 62
     2
100
AcDbTrace
 10
2654.03595990927
 20
-1039.618639779221
 30
0.0
 11
2654.03595990927
 21
-1040.770599133111
 31
0.0
 12
2649.66095990927
 22
-1040.194619456166
 32
0.0
 13
2649.66095990927
 23
-1040.194619456166
 33
0.0
  0
SOLID
  5
3A4
330
39E
100
AcDbEntity
  8
1
 62
     2
100
AcDbTrace
 10
2675.28595990927
 20
-1040.770599133111
 30
0.0
 11
2675.28595990927
 21
-1039.618639779221
 31
0.0
 12
2679.66095990927
 22
-1040.194619456166
 32
0.0
 13
2679.66095990927
 23
-1040.194619456166
 33
0.0
  0
MTEXT
  5
3A5
330
39E
100
AcDbEntity
  8
1
 62
     2
100
AcDbMText
 10
2679.87235091619
 20
-1035.819644302867
 30
0.0
 40
6.25
 41
0.0
 71
     7
 72
     1
  1
\C2;\U+00f8\C2; K\C2;-j5
  7
CONVERTER_11
 11
0.9999999999970619
 21
2.424068405545306E-6
 31
0.0
 73
     1
 44
0.60024009603842
  0
ENDBLK
  5
3A7
330
39E
100
AcDbEntity
  8
0
100
AcDbBlockEnd
  0
BLOCK
  5
3B1
330
3AA
100
AcDbEntity
  8
0
100
AcDbBlockBegin
  2
*D26
 70
     1
 10
0.0
 20
0.0
 30
0.0
  3
*D26
  1

  0
LINE
  5
3AB
330
3AA
100
AcDbEntity
  8
1
  6
Continuous
 62
     2
100
AcDbLine
 10
2587.16095990927
 20
-680.6946194561663
 30
0.0
 11
2742.16095990927
 21
-680.6946194561663
 31
0.0
  0
LINE
  5
3AC
330
3AA
100
AcDbEntity
  8
1
  6
Continuous
 62
     2
100
AcDbLine
 10
2587.16095990927
 20
-607.6946194561663
 30
0.0
 11
2587.16095990927
 21
-683.1946194561663
 31
0.0
  0
LINE
  5
3AD
330
3AA
100
AcDbEntity
  8
1
  6
Continuous
 62
     2
100
AcDbLine
 10
2742.16095990927
 20
-607.6946194561663
 30
0.0
 11
2742.16095990927
 21
-683.1946194561663
 31
0.0
  0
SOLID
  5
3AE
330
3AA
100
AcDbEntity
  8
1
 62
     2
100
AcDbTrace
 10
2737.78595990927
 20
-681.2705991331111
 30
0.0
 11
2737.78595990927
 21
-680.1186397792214
 31
0.0
 12
2742.16095990927
 22
-680.6946194561663
 32
0.0
 13
2742.16095990927
 23
-680.6946194561663
 33
0.0
  0
SOLID
  5
3AF
330
3AA
100
AcDbEntity
  8
1
 62
     2
100
AcDbTrace
 10
2591.53595990927
 20
-680.1186397792214
 30
0.0
 11
2591.53595990927
 21
-681.2705991331111
 31
0.0
 12
2587.16095990927
 22
-680.6946194561663
 32
0.0
 13
2587.16095990927
 23
-680.6946194561663
 33
0.0
  0
MTEXT
  5
3B0
330
3AA
100
AcDbEntity
  8
1
 62
     2
100
AcDbMText
 10
2658.09845990927
 20
-678.1946194561663
 30
0.0
 40
6.25
 41
0.0
 71
     7
 72
     1
  1
155
  7
CONVERTER_11
 11
0.9999999999970619
 21
2.424068405545306E-6
 31
0.0
 73
     1
 44
0.60024009603842
  0
ENDBLK
  5
3B2
330
3AA
100
AcDbEntity
  8
0
100
AcDbBlockEnd
  0
BLOCK
  5
3BE
330
3B5
100
AcDbEntity
  8
0
100
AcDbBlockBegin
  2
*D27
 70
     1
 10
0.0
 20
0.0
 30
0.0
  3
*D27
  1

  0
LINE
  5
3B6
330
3B5
100
AcDbEntity
  8
1
  6
Continuous
 62
     2
100
AcDbLine
 10
2621.41095990927
 20
-628.1946194561663
 30
0.0
 11
2612.66095990927
 21
-628.1946194561663
 31
0.0
  0
LINE
  5
3B7
330
3B5
100
AcDbEntity
  8
1
  6
Continuous
 62
     2
100
AcDbLine
 10
2605.66095990927
 20
-628.1946194561663
 30
0.0
 11
2612.66095990927
 21
-628.1946194561663
 31
0.0
  0
LINE
  5
3B8
330
3B5
100
AcDbEntity
  8
1
  6
Continuous
 62
     2
100
AcDbLine
 10
2605.66095990927
 20
-628.1946194561663
 30
0.0
 11
2595.57701012372
 21
-628.1946194561663
 31
0.0
  0
LINE
  5
3B9
330
3B5
100
AcDbEntity
  8
1
  6
Continuous
 62
     2
100
AcDbLine
 10
2605.66095990927
 20
-610.6946194561663
 30
0.0
 11
2605.66095990927
 21
-630.6946194561663
 31
0.0
  0
LINE
  5
3BA
330
3B5
100
AcDbEntity
  8
1
  6
Continuous
 62
     2
100
AcDbLine
 10
2612.66095990927
 20
-610.6946194561663
 30
0.0
 11
2612.66095990927
 21
-630.6946194561663
 31
0.0
  0
SOLID
  5
3BB
330
3B5
100
AcDbEntity
  8
1
 62
     2
100
AcDbTrace
 10
2601.28595990927
 20
-628.7705991331111
 30
0.0
 11
2601.28595990927
 21
-627.6186397792214
 31
0.0
 12
2605.66095990927
 22
-628.1946194561663
 32
0.0
 13
2605.66095990927
 23
-628.1946194561663
 33
0.0
  0
SOLID
  5
3BC
330
3B5
100
AcDbEntity
  8
1
 62
     2
100
AcDbTrace
 10
2617.03595990927
 20
-627.6186397792214
 30
0.0
 11
2617.03595990927
 21
-628.7705991331111
 31
0.0
 12
2612.66095990927
 22
-628.1946194561663
 32
0.0
 13
2612.66095990927
 23
-628.1946194561663
 33
0.0
  0
MTEXT
  5
3BD
330
3B5
100
AcDbEntity
  8
1
 62
     2
100
AcDbMText
 10
2595.57701012372
 20
-625.6946194561663
 30
0.0
 40
6.25
 41
0.0
 71
     7
 72
     1
  1
7
  7
CONVERTER_11
 11
0.9999999999970619
 21
2.424068405545306E-6
 31
0.0
 73
     1
 44
0.60024009603842
  0
ENDBLK
  5
3BF
330
3B5
100
AcDbEntity
  8
0
100
AcDbBlockEnd
  0
BLOCK
  5
3C9
330
3C2
100
AcDbEntity
  8
0
100
AcDbBlockBegin
  2
*D28
 70
     1
 10
0.0
 20
0.0
 30
0.0
  3
*D28
  1

  0
LINE
  5
3C3
330
3C2
100
AcDbEntity
  8
1
  6
Continuous
 62
     2
100
AcDbLine
 10
2610.66095990927
 20
-715.6946194561663
 30
0.0
 11
2718.66095990927
 21
-715.6946194561663
 31
0.0
  0
LINE
  5
3C4
330
3C2
100
AcDbEntity
  8
1
  6
Continuous
 62
     2
100
AcDbLine
 10
2610.66095990927
 20
-810.694619456166
 30
0.0
 11
2610.66095990927
 21
-713.1946194561663
 31
0.0
  0
LINE
  5
3C5
330
3C2
100
AcDbEntity
  8
1
  6
Continuous
 62
     2
100
AcDbLine
 10
2718.66095990927
 20
-810.694619456166
 30
0.0
 11
2718.66095990927
 21
-713.1946194561663
 31
0.0
  0
SOLID
  5
3C6
330
3C2
100
AcDbEntity
  8
1
 62
     2
100
AcDbTrace
 10
2714.28595990927
 20
-716.2705991331111
 30
0.0
 11
2714.28595990927
 21
-715.1186397792214
 31
0.0
 12
2718.66095990927
 22
-715.6946194561663
 32
0.0
 13
2718.66095990927
 23
-715.6946194561663
 33
0.0
  0
SOLID
  5
3C7
330
3C2
100
AcDbEntity
  8
1
 62
     2
100
AcDbTrace
 10
2615.03595990927
 20
-715.1186397792214
 30
0.0
 11
2615.03595990927
 21
-716.2705991331111
 31
0.0
 12
2610.66095990927
 22
-715.6946194561663
 32
0.0
 13
2610.66095990927
 23
-715.6946194561663
 33
0.0
  0
MTEXT
  5
3C8
330
3C2
100
AcDbEntity
  8
1
 62
     2
100
AcDbMText
 10
2651.2859599093
 20
-713.1946443028675
 30
0.0
 40
6.25
 41
0.0
 71
     7
 72
     1
  1
\C2;\U+00f8\C2;108
  7
CONVERTER_11
 11
0.9999999999970619
 21
2.424068405545306E-6
 31
0.0
 73
     1
 44
0.60024009603842
  0
ENDBLK
  5
3CA
330
3C2
100
AcDbEntity
  8
0
100
AcDbBlockEnd
  0
BLOCK
  5
3D6
330
3CD
100
AcDbEntity
  8
0
100
AcDbBlockBegin
  2
*D29
 70
     1
 10
0.0
 20
0.0
 30
0.0
  3
*D29
  1

  0
LINE
  5
3CE
330
3CD
100
AcDbEntity
  8
1
  6
Continuous
 62
     2
100
AcDbLine
 10
2677.41095990927
 20
-530.0354858408278
 30
0.0
 11
2668.66095990927
 21
-530.0354858408278
 31
0.0
  0
LINE
  5
3CF
330
3CD
100
AcDbEntity
  8
1
  6
Continuous
 62
     2
100
AcDbLine
 10
2660.66095990927
 20
-530.0354858408278
 30
0.0
 11
2668.66095990927
 21
-530.0354858408278
 31
0.0
  0
LINE
  5
3D0
330
3CD
100
AcDbEntity
  8
1
  6
Continuous
 62
     2
100
AcDbLine
 10
2660.66095990927
 20
-530.0354858408278
 30
0.0
 11
2649.00799086224
 21
-530.0354858408278
 31
0.0
  0
LINE
  5
3D1
330
3CD
100
AcDbEntity
  8
1
  6
Continuous
 62
     2
100
AcDbLine
 10
2660.66095990927
 20
-536.694619456166
 30
0.0
 11
2660.66095990927
 21
-527.5354858408278
 31
0.0
  0
LINE
  5
3D2
330
3CD
100
AcDbEntity
  8
1
  6
Continuous
 62
     2
100
AcDbLine
 10
2668.66095990927
 20
-536.694619456166
 30
0.0
 11
2668.66095990927
 21
-527.5354858408278
 31
0.0
  0
SOLID
  5
3D3
330
3CD
100
AcDbEntity
  8
1
 62
     2
100
AcDbTrace
 10
2673.03595990927
 20
-529.459506163883
 30
0.0
 11
2673.03595990927
 21
-530.6114655177727
 31
0.0
 12
2668.66095990927
 22
-530.0354858408278
 32
0.0
 13
2668.66095990927
 23
-530.0354858408278
 33
0.0
  0
SOLID
  5
3D4
330
3CD
100
AcDbEntity
  8
1
 62
     2
100
AcDbTrace
 10
2656.28595990927
 20
-530.6114655177727
 30
0.0
 11
2656.28595990927
 21
-529.459506163883
 31
0.0
 12
2660.66095990927
 22
-530.0354858408278
 32
0.0
 13
2660.66095990927
 23
-530.0354858408278
 33
0.0
  0
MTEXT
  5
3D5
330
3CD
100
AcDbEntity
  8
1
 62
     2
100
AcDbMText
 10
2649.00799086224
 20
-527.5354858408278
 30
0.0
 40
6.25
 41
0.0
 71
     7
 72
     1
  1
T
  7
CONVERTER_11
 11
0.9999999999970619
 21
2.424068405545306E-6
 31
0.0
 73
     1
 44
0.60024009603842
  0
ENDBLK
  5
3D7
330
3CD
100
AcDbEntity
  8
0
100
AcDbBlockEnd
  0
BLOCK
  5
3E3
330
3DA
100
AcDbEntity
  8
0
100
AcDbBlockBegin
  2
*D30
 70
     1
 10
0.0
 20
0.0
 30
0.0
  3
*D30
  1

  0
LINE
  5
3DB
330
3DA
100
AcDbEntity
  8
1
  6
Continuous
 62
     2
100
AcDbLine
 10
2742.16095990927
 20
-971.444619456166
 30
0.0
 11
2742.16095990927
 21
-962.694619456166
 31
0.0
  0
LINE
  5
3DC
330
3DA
100
AcDbEntity
  8
1
  6
Continuous
 62
     2
100
AcDbLine
 10
2742.16095990927
 20
-962.694619456166
 30
0.0
 11
2742.16095990927
 21
-959.6946194561659
 31
0.0
  0
LINE
  5
3DD
330
3DA
100
AcDbEntity
  8
1
  6
Continuous
 62
     2
100
AcDbLine
 10
2742.16095990927
 20
-959.6946194561659
 30
0.0
 11
2742.16095990927
 21
-950.671625947979
 31
0.0
  0
LINE
  5
3DE
330
3DA
100
AcDbEntity
  8
1
  6
Continuous
 62
     2
100
AcDbLine
 10
2705.66095990927
 20
-962.694619456166
 30
0.0
 11
2744.66095990927
 21
-962.694619456166
 31
0.0
  0
LINE
  5
3DF
330
3DA
100
AcDbEntity
  8
1
  6
Continuous
 62
     2
100
AcDbLine
 10
2724.66095990927
 20
-959.6946194561659
 30
0.0
 11
2744.66095990927
 21
-959.6946194561659
 31
0.0
  0
SOLID
  5
3E0
330
3DA
100
AcDbEntity
  8
1
 62
     2
100
AcDbTrace
 10
2742.736939586215
 20
-967.069619456166
 30
0.0
 11
2741.584980232325
 21
-967.069619456166
 31
0.0
 12
2742.16095990927
 22
-962.694619456166
 32
0.0
 13
2742.16095990927
 23
-962.694619456166
 33
0.0
  0
SOLID
  5
3E1
330
3DA
100
AcDbEntity
  8
1
 62
     2
100
AcDbTrace
 10
2741.584980232325
 20
-955.3196194561659
 30
0.0
 11
2742.736939586215
 21
-955.3196194561659
 31
0.0
 12
2742.16095990927
 22
-959.6946194561659
 32
0.0
 13
2742.16095990927
 23
-959.6946194561659
 33
0.0
  0
MTEXT
  5
3E2
330
3DA
100
AcDbEntity
  8
1
 62
     2
100
AcDbMText
 10
2739.66095990927
 20
-954.421625947979
 30
0.0
 40
6.25
 41
0.0
 71
     7
 72
     1
  1
3
  7
CONVERTER_11
 11
0.0
 21
1.0
 31
0.0
 73
     1
 44
0.60024009603842
  0
ENDBLK
  5
3E4
330
3DA
100
AcDbEntity
  8
0
100
AcDbBlockEnd
  0
BLOCK
  5
3EF
330
3E7
100
AcDbEntity
  8
0
100
AcDbBlockBegin
  2
*D31
 70
     1
 10
0.0
 20
0.0
 30
0.0
  3
*D31
  1

  0
LINE
  5
3E8
330
3E7
100
AcDbEntity
  8
1
  6
Continuous
 62
     2
100
AcDbLine
 10
2499.66095990927
 20
-810.694619456166
 30
0.0
 11
2499.66095990927
 21
-750.6946194561663
 31
0.0
  0
LINE
  5
3E9
330
3E7
100
AcDbEntity
  8
1
  6
Continuous
 62
     2
100
AcDbLine
 10
2651.16095990927
 20
-750.6946194561663
 30
0.0
 11
2497.16095990927
 21
-750.6946194561663
 31
0.0
  0
LINE
  5
3EA
330
3E7
100
AcDbEntity
  8
1
  6
Continuous
 62
     2
100
AcDbLine
 10
2610.66095990927
 20
-810.694619456166
 30
0.0
 11
2554.66095990927
 21
-810.694619456166
 31
0.0
  0
LINE
  5
3EB
330
3E7
100
AcDbEntity
  8
1
  6
Continuous
 62
     2
100
AcDbLine
 10
2549.66095990927
 20
-810.694619456166
 30
0.0
 11
2497.16095990927
 21
-810.694619456166
 31
0.0
  0
SOLID
  5
3EC
330
3E7
100
AcDbEntity
  8
1
 62
     2
100
AcDbTrace
 10
2500.236939586215
 20
-755.0696194561663
 30
0.0
 11
2499.084980232325
 21
-755.0696194561663
 31
0.0
 12
2499.66095990927
 22
-750.6946194561663
 32
0.0
 13
2499.66095990927
 23
-750.6946194561663
 33
0.0
  0
SOLID
  5
3ED
330
3E7
100
AcDbEntity
  8
1
 62
     2
100
AcDbTrace
 10
2499.084980232325
 20
-806.319619456166
 30
0.0
 11
2500.236939586215
 21
-806.319619456166
 31
0.0
 12
2499.66095990927
 22
-810.694619456166
 32
0.0
 13
2499.66095990927
 23
-810.694619456166
 33
0.0
  0
MTEXT
  5
3EE
330
3E7
100
AcDbEntity
  8
1
 62
     2
100
AcDbMText
 10
2497.16095990927
 20
-782.68927373614
 30
0.0
 40
6.25
 41
0.0
 71
     7
 72
     1
  1
O
  7
CONVERTER_11
 11
0.0
 21
1.0
 31
0.0
 73
     1
 44
0.60024009603842
  0
ENDBLK
  5
3F0
330
3E7
100
AcDbEntity
  8
0
100
AcDbBlockEnd
  0
BLOCK
  5
3FA
330
3F3
100
AcDbEntity
  8
0
100
AcDbBlockBegin
  2
*D32
 70
     1
 10
0.0
 20
0.0
 30
0.0
  3
*D32
  1

  0
LINE
  5
3F4
330
3F3
100
AcDbEntity
  8
1
  6
Continuous
 62
     2
100
AcDbLine
 10
2499.66095990927
 20
-1022.694619456166
 30
0.0
 11
2499.66095990927
 21
-959.6946194561659
 31
0.0
  0
LINE
  5
3F5
330
3F3
100
AcDbEntity
  8
1
  6
Continuous
 62
     2
100
AcDbLine
 10
2604.66095990927
 20
-959.6946194561659
 30
0.0
 11
2497.16095990927
 21
-959.6946194561659
 31
0.0
  0
LINE
  5
3F6
330
3F3
100
AcDbEntity
  8
1
  6
Continuous
 62
     2
100
AcDbLine
 10
2649.66095990927
 20
-1022.694619456166
 30
0.0
 11
2497.16095990927
 21
-1022.694619456166
 31
0.0
  0
SOLID
  5
3F7
330
3F3
100
AcDbEntity
  8
1
 62
     2
100
AcDbTrace
 10
2500.236939586215
 20
-964.0696194561659
 30
0.0
 11
2499.084980232325
 21
-964.0696194561659
 31
0.0
 12
2499.66095990927
 22
-959.6946194561659
 32
0.0
 13
2499.66095990927
 23
-959.6946194561659
 33
0.0
  0
SOLID
  5
3F8
330
3F3
100
AcDbEntity
  8
1
 62
     2
100
AcDbTrace
 10
2499.084980232325
 20
-1018.319619456166
 30
0.0
 11
2500.236939586215
 21
-1018.319619456166
 31
0.0
 12
2499.66095990927
 22
-1022.694619456166
 32
0.0
 13
2499.66095990927
 23
-1022.694619456166
 33
0.0
  0
MTEXT
  5
3F9
330
3F3
100
AcDbEntity
  8
1
 62
     2
100
AcDbMText
 10
2497.16095990927
 20
-993.382119456166
 30
0.0
 40
6.25
 41
0.0
 71
     7
 72
     1
  1
N
  7
CONVERTER_11
 11
0.0
 21
1.0
 31
0.0
 73
     1
 44
0.60024009603842
  0
ENDBLK
  5
3FB
330
3F3
100
AcDbEntity
  8
0
100
AcDbBlockEnd
  0
BLOCK
  5
406
330
3FE
100
AcDbEntity
  8
0
100
AcDbBlockBegin
  2
*D33
 70
     1
 10
0.0
 20
0.0
 30
0.0
  3
*D33
  1

  0
LINE
  5
3FF
330
3FE
100
AcDbEntity
  8
1
  6
Continuous
 62
     2
100
AcDbLine
 10
2499.66095990927
 20
-959.6946194561659
 30
0.0
 11
2499.66095990927
 21
-810.694619456166
 31
0.0
  0
LINE
  5
400
330
3FE
100
AcDbEntity
  8
1
  6
Continuous
 62
     2
100
AcDbLine
 10
2610.66095990927
 20
-810.694619456166
 30
0.0
 11
2554.66095990927
 21
-810.694619456166
 31
0.0
  0
LINE
  5
401
330
3FE
100
AcDbEntity
  8
1
  6
Continuous
 62
     2
100
AcDbLine
 10
2549.66095990927
 20
-810.694619456166
 30
0.0
 11
2497.16095990927
 21
-810.694619456166
 31
0.0
  0
LINE
  5
402
330
3FE
100
AcDbEntity
  8
1
  6
Continuous
 62
     2
100
AcDbLine
 10
2604.66095990927
 20
-959.6946194561659
 30
0.0
 11
2497.16095990927
 21
-959.6946194561659
 31
0.0
  0
SOLID
  5
403
330
3FE
100
AcDbEntity
  8
1
 62
     2
100
AcDbTrace
 10
2500.236939586215
 20
-815.069619456166
 30
0.0
 11
2499.084980232325
 21
-815.069619456166
 31
0.0
 12
2499.66095990927
 22
-810.694619456166
 32
0.0
 13
2499.66095990927
 23
-810.694619456166
 33
0.0
  0
SOLID
  5
404
330
3FE
100
AcDbEntity
  8
1
 62
     2
100
AcDbTrace
 10
2499.084980232325
 20
-955.3196194561659
 30
0.0
 11
2500.236939586215
 21
-955.3196194561659
 31
0.0
 12
2499.66095990927
 22
-959.6946194561659
 32
0.0
 13
2499.66095990927
 23
-959.6946194561659
 33
0.0
  0
MTEXT
  5
405
330
3FE
100
AcDbEntity
  8
1
 62
     2
100
AcDbMText
 10
2497.16095990927
 20
-891.757119456166
 30
0.0
 40
6.25
 41
0.0
 71
     7
 72
     1
  1
149
  7
CONVERTER_11
 11
0.0
 21
1.0
 31
0.0
 73
     1
 44
0.60024009603842
  0
ENDBLK
  5
407
330
3FE
100
AcDbEntity
  8
0
100
AcDbBlockEnd
  0
BLOCK
  5
411
330
40A
100
AcDbEntity
  8
0
100
AcDbBlockBegin
  2
*D34
 70
     1
 10
0.0
 20
0.0
 30
0.0
  3
*D34
  1

  0
LINE
  5
40B
330
40A
100
AcDbEntity
  8
1
  6
Continuous
 62
     2
100
AcDbLine
 10
2830.162239480029
 20
-508.1946194561662
 30
0.0
 11
2830.162239480029
 21
-455.6946194561662
 31
0.0
  0
LINE
  5
40C
330
40A
100
AcDbEntity
  8
1
  6
Continuous
 62
     2
100
AcDbLine
 10
2822.394447306356
 20
-508.1946194561662
 30
0.0
 11
2832.662239480029
 21
-508.1946194561662
 31
0.0
  0
LINE
  5
40D
330
40A
100
AcDbEntity
  8
1
  6
Continuous
 62
     2
100
AcDbLine
 10
2739.16095990927
 20
-455.6946194561662
 30
0.0
 11
2832.662239480029
 21
-455.6946194561662
 31
0.0
  0
SOLID
  5
40E
330
40A
100
AcDbEntity
  8
1
 62
     2
100
AcDbTrace
 10
2830.738219156974
 20
-460.0696194561662
 30
0.0
 11
2829.586259803084
 21
-460.0696194561662
 31
0.0
 12
2830.162239480029
 22
-455.6946194561662
 32
0.0
 13
2830.162239480029
 23
-455.6946194561662
 33
0.0
  0
SOLID
  5
40F
330
40A
100
AcDbEntity
  8
1
 62
     2
100
AcDbTrace
 10
2829.586259803084
 20
-503.8196194561662
 30
0.0
 11
2830.738219156974
 21
-503.8196194561662
 31
0.0
 12
2830.162239480029
 22
-508.1946194561662
 32
0.0
 13
2830.162239480029
 23
-508.1946194561662
 33
0.0
  0
MTEXT
  5
410
330
40A
100
AcDbEntity
  8
1
 62
     2
100
AcDbMText
 10
2827.037239480029
 20
-488.6259957369578
 30
0.0
 40
6.25
 41
0.0
 71
     7
 72
     1
  1
52,5
  7
CONVERTER_11
 11
0.0
 21
1.0
 31
0.0
 73
     1
 44
0.60024009603842
  0
ENDBLK
  5
412
330
40A
100
AcDbEntity
  8
0
100
AcDbBlockEnd
  0
BLOCK
  5
41C
330
415
100
AcDbEntity
  8
0
100
AcDbBlockBegin
  2
*D35
 70
     1
 10
0.0
 20
0.0
 30
0.0
  3
*D35
  1

  0
LINE
  5
416
330
415
100
AcDbEntity
  8
1
  6
Continuous
 62
     2
100
AcDbLine
 10
2830.162239480029
 20
-610.6946194561663
 30
0.0
 11
2830.162239480029
 21
-555.694619456166
 31
0.0
  0
LINE
  5
417
330
415
100
AcDbEntity
  8
1
  6
Continuous
 62
     2
100
AcDbLine
 10
2739.16095990927
 20
-610.6946194561663
 30
0.0
 11
2832.662239480029
 21
-610.6946194561663
 31
0.0
  0
LINE
  5
418
330
415
100
AcDbEntity
  8
1
  6
Continuous
 62
     2
100
AcDbLine
 10
2746.503940076693
 20
-555.694619456166
 30
0.0
 11
2832.662239480029
 21
-555.694619456166
 31
0.0
  0
SOLID
  5
419
330
415
100
AcDbEntity
  8
1
 62
     2
100
AcDbTrace
 10
2830.738219156974
 20
-560.069619456166
 30
0.0
 11
2829.586259803084
 21
-560.069619456166
 31
0.0
 12
2830.162239480029
 22
-555.694619456166
 32
0.0
 13
2830.162239480029
 23
-555.694619456166
 33
0.0
  0
SOLID
  5
41A
330
415
100
AcDbEntity
  8
1
 62
     2
100
AcDbTrace
 10
2829.586259803084
 20
-606.3196194561663
 30
0.0
 11
2830.738219156974
 21
-606.3196194561663
 31
0.0
 12
2830.162239480029
 22
-610.6946194561663
 32
0.0
 13
2830.162239480029
 23
-610.6946194561663
 33
0.0
  0
MTEXT
  5
41B
330
415
100
AcDbEntity
  8
1
 62
     2
100
AcDbMText
 10
2827.662239480029
 20
-587.4611413659148
 30
0.0
 40
6.25
 41
0.0
 71
     7
 72
     1
  1
55
  7
CONVERTER_11
 11
0.0
 21
1.0
 31
0.0
 73
     1
 44
0.60024009603842
  0
ENDBLK
  5
41D
330
415
100
AcDbEntity
  8
0
100
AcDbBlockEnd
  0
BLOCK
  5
427
330
420
100
AcDbEntity
  8
0
100
AcDbBlockBegin
  2
*D36
 70
     1
 10
0.0
 20
0.0
 30
0.0
  3
*D36
  1

  0
LINE
  5
421
330
420
100
AcDbEntity
  8
1
  6
Continuous
 62
     2
100
AcDbLine
 10
2830.162239480029
 20
-555.6946194561659
 30
0.0
 11
2830.162239480029
 21
-508.1946194561661
 31
0.0
  0
LINE
  5
422
330
420
100
AcDbEntity
  8
1
  6
Continuous
 62
     2
100
AcDbLine
 10
2746.503940076693
 20
-555.6946194561659
 30
0.0
 11
2832.662239480029
 21
-555.6946194561659
 31
0.0
  0
LINE
  5
423
330
420
100
AcDbEntity
  8
1
  6
Continuous
 62
     2
100
AcDbLine
 10
2822.394447306356
 20
-508.1946194561661
 30
0.0
 11
2832.662239480029
 21
-508.1946194561661
 31
0.0
  0
SOLID
  5
424
330
420
100
AcDbEntity
  8
1
 62
     2
100
AcDbTrace
 10
2830.738219156974
 20
-512.569619456166
 30
0.0
 11
2829.586259803084
 21
-512.569619456166
 31
0.0
 12
2830.162239480029
 22
-508.1946194561661
 32
0.0
 13
2830.162239480029
 23
-508.1946194561661
 33
0.0
  0
SOLID
  5
425
330
420
100
AcDbEntity
  8
1
 62
     2
100
AcDbTrace
 10
2829.586259803084
 20
-551.3196194561659
 30
0.0
 11
2830.738219156974
 21
-551.3196194561659
 31
0.0
 12
2830.162239480029
 22
-555.6946194561659
 32
0.0
 13
2830.162239480029
 23
-555.6946194561659
 33
0.0
  0
MTEXT
  5
426
330
420
100
AcDbEntity
  8
1
 62
     2
100
AcDbMText
 10
2827.037239480029
 20
-537.2626788218138
 30
0.0
 40
6.25
 41
0.0
 71
     7
 72
     1
  1
47,5
  7
CONVERTER_11
 11
0.0
 21
1.0
 31
0.0
 73
     1
 44
0.60024009603842
  0
ENDBLK
  5
428
330
420
100
AcDbEntity
  8
0
100
AcDbBlockEnd
  0
BLOCK
  5
432
330
42B
100
AcDbEntity
  8
0
100
AcDbBlockBegin
  2
*D37
 70
     1
 10
0.0
 20
0.0
 30
0.0
  3
*D37
  1

  0
LINE
  5
42C
330
42B
100
AcDbEntity
  8
1
  6
Continuous
 62
     2
100
AcDbLine
 10
2587.16095990927
 20
-395.6946194561662
 30
0.0
 11
2812.662239480029
 21
-395.6946194561662
 31
0.0
  0
LINE
  5
42D
330
42B
100
AcDbEntity
  8
1
  6
Continuous
 62
     2
100
AcDbLine
 10
2587.16095990927
 20
-458.6946194561662
 30
0.0
 11
2587.16095990927
 21
-393.1946194561662
 31
0.0
  0
LINE
  5
42E
330
42B
100
AcDbEntity
  8
1
  6
Continuous
 62
     2
100
AcDbLine
 10
2812.662239480029
 20
-448.1946194561662
 30
0.0
 11
2812.662239480029
 21
-393.1946194561662
 31
0.0
  0
SOLID
  5
42F
330
42B
100
AcDbEntity
  8
1
 62
     2
100
AcDbTrace
 10
2808.287239480029
 20
-396.2705991331111
 30
0.0
 11
2808.287239480029
 21
-395.1186397792213
 31
0.0
 12
2812.662239480029
 22
-395.6946194561662
 32
0.0
 13
2812.662239480029
 23
-395.6946194561662
 33
0.0
  0
SOLID
  5
430
330
42B
100
AcDbEntity
  8
1
 62
     2
100
AcDbTrace
 10
2591.53595990927
 20
-395.1186397792213
 30
0.0
 11
2591.53595990927
 21
-396.2705991331111
 31
0.0
 12
2587.16095990927
 22
-395.6946194561662
 32
0.0
 13
2587.16095990927
 23
-395.6946194561662
 33
0.0
  0
MTEXT
  5
431
330
42B
100
AcDbEntity
  8
1
 62
     2
100
AcDbMText
 10
2701.11765617787
 20
-393.1946194561662
 30
0.0
 40
6.25
 41
0.0
 71
     7
 72
     1
  1
L
  7
CONVERTER_11
 11
0.9999999999970619
 21
2.424068405545306E-6
 31
0.0
 73
     1
 44
0.60024009603842
  0
ENDBLK
  5
433
330
42B
100
AcDbEntity
  8
0
100
AcDbBlockEnd
  0
BLOCK
  5
43D
330
436
100
AcDbEntity
  8
0
100
AcDbBlockBegin
  2
*D38
 70
     1
 10
0.0
 20
0.0
 30
0.0
  3
*D38
  1

  0
LINE
  5
437
330
436
100
AcDbEntity
  8
1
  6
Continuous
 62
     2
100
AcDbLine
 10
2587.16095990927
 20
-413.1946194561662
 30
0.0
 11
2664.66095990927
 21
-413.1946194561662
 31
0.0
  0
LINE
  5
438
330
436
100
AcDbEntity
  8
1
  6
Continuous
 62
     2
100
AcDbLine
 10
2587.16095990927
 20
-458.6946194561662
 30
0.0
 11
2587.16095990927
 21
-410.6946194561662
 31
0.0
  0
LINE
  5
439
330
436
100
AcDbEntity
  8
1
  6
Continuous
 62
     2
100
AcDbLine
 10
2664.66095990927
 20
-452.6368127108651
 30
0.0
 11
2664.66095990927
 21
-410.6946194561662
 31
0.0
  0
SOLID
  5
43A
330
436
100
AcDbEntity
  8
1
 62
     2
100
AcDbTrace
 10
2591.53595990927
 20
-412.6186397792213
 30
0.0
 11
2591.53595990927
 21
-413.7705991331111
 31
0.0
 12
2587.16095990927
 22
-413.1946194561662
 32
0.0
 13
2587.16095990927
 23
-413.1946194561662
 33
0.0
  0
SOLID
  5
43B
330
436
100
AcDbEntity
  8
1
 62
     2
100
AcDbTrace
 10
2660.28595990927
 20
-413.7705991331111
 30
0.0
 11
2660.28595990927
 21
-412.6186397792213
 31
0.0
 12
2664.66095990927
 22
-413.1946194561662
 32
0.0
 13
2664.66095990927
 23
-413.1946194561662
 33
0.0
  0
MTEXT
  5
43C
330
436
100
AcDbEntity
  8
1
 62
     2
100
AcDbMText
 10
2614.77796621525
 20
-410.0696194561662
 30
0.0
 40
6.25
 41
0.0
 71
     7
 72
     1
  1
77,5
  7
CONVERTER_11
 11
0.9999999999970619
 21
2.424068405545306E-6
 31
0.0
 73
     1
 44
0.60024009603842
  0
ENDBLK
  5
43E
330
436
100
AcDbEntity
  8
0
100
AcDbBlockEnd
  0
BLOCK
  5
448
330
441
100
AcDbEntity
  8
0
100
AcDbBlockBegin
  2
*D39
 70
     1
 10
0.0
 20
0.0
 30
0.0
  3
*D39
  1

  0
LINE
  5
442
330
441
100
AcDbEntity
  8
1
  6
Continuous
 62
     2
100
AcDbLine
 10
2664.66095990927
 20
-413.1946194561662
 30
0.0
 11
2742.16095990927
 21
-413.1946194561662
 31
0.0
  0
LINE
  5
443
330
441
100
AcDbEntity
  8
1
  6
Continuous
 62
     2
100
AcDbLine
 10
2664.66095990927
 20
-452.6368127108651
 30
0.0
 11
2664.66095990927
 21
-410.6946194561662
 31
0.0
  0
LINE
  5
444
330
441
100
AcDbEntity
  8
1
  6
Continuous
 62
     2
100
AcDbLine
 10
2742.16095990927
 20
-458.6946194561662
 30
0.0
 11
2742.16095990927
 21
-410.6946194561662
 31
0.0
  0
SOLID
  5
445
330
441
100
AcDbEntity
  8
1
 62
     2
100
AcDbTrace
 10
2669.03595990927
 20
-412.6186397792213
 30
0.0
 11
2669.03595990927
 21
-413.7705991331111
 31
0.0
 12
2664.66095990927
 22
-413.1946194561662
 32
0.0
 13
2664.66095990927
 23
-413.1946194561662
 33
0.0
  0
SOLID
  5
446
330
441
100
AcDbEntity
  8
1
 62
     2
100
AcDbTrace
 10
2737.78595990927
 20
-413.7705991331111
 30
0.0
 11
2737.78595990927
 21
-412.6186397792213
 31
0.0
 12
2742.16095990927
 22
-413.1946194561662
 32
0.0
 13
2742.16095990927
 23
-413.1946194561662
 33
0.0
  0
MTEXT
  5
447
330
441
100
AcDbEntity
  8
1
 62
     2
100
AcDbMText
 10
2697.52129598032
 20
-410.0696194561662
 30
0.0
 40
6.25
 41
0.0
 71
     7
 72
     1
  1
77,5
  7
CONVERTER_11
 11
0.9999999999970619
 21
2.424068405545306E-6
 31
0.0
 73
     1
 44
0.60024009603842
  0
ENDBLK
  5
449
330
441
100
AcDbEntity
  8
0
100
AcDbBlockEnd
  0
BLOCK
  5
453
330
44C
100
AcDbEntity
  8
0
100
AcDbBlockBegin
  2
*D40
 70
     1
 10
0.0
 20
0.0
 30
0.0
  3
*D40
  1

  0
LINE
  5
44D
330
44C
100
AcDbEntity
  8
1
  6
Continuous
 62
     2
100
AcDbLine
 10
2552.16095990927
 20
-914.6946194561662
 30
0.0
 11
2552.16095990927
 21
-820.6946194561663
 31
0.0
  0
LINE
  5
44E
330
44C
100
AcDbEntity
  8
1
  6
Continuous
 62
     2
100
AcDbLine
 10
2602.428075554701
 20
-914.6946194561662
 30
0.0
 11
2549.66095990927
 21
-914.6946194561662
 31
0.0
  0
LINE
  5
44F
330
44C
100
AcDbEntity
  8
1
  6
Continuous
 62
     2
100
AcDbLine
 10
2602.845513216896
 20
-820.6946194561663
 30
0.0
 11
2549.66095990927
 21
-820.6946194561663
 31
0.0
  0
SOLID
  5
450
330
44C
100
AcDbEntity
  8
1
 62
     2
100
AcDbTrace
 10
2551.584980232325
 20
-910.3196194561662
 30
0.0
 11
2552.736939586215
 21
-910.3196194561662
 31
0.0
 12
2552.16095990927
 22
-914.6946194561662
 32
0.0
 13
2552.16095990927
 23
-914.6946194561662
 33
0.0
  0
SOLID
  5
451
330
44C
100
AcDbEntity
  8
1
 62
     2
100
AcDbTrace
 10
2552.736939586215
 20
-825.0696194561663
 30
0.0
 11
2551.584980232325
 21
-825.0696194561663
 31
0.0
 12
2552.16095990927
 22
-820.6946194561663
 32
0.0
 13
2552.16095990927
 23
-820.6946194561663
 33
0.0
  0
MTEXT
  5
452
330
44C
100
AcDbEntity
  8
1
 62
     2
100
AcDbMText
 10
2549.66095990927
 20
-872.6865051213618
 30
0.0
 40
6.25
 41
0.0
 71
     7
 72
     1
  1
94
  7
CONVERTER_11
 11
0.0
 21
1.0
 31
0.0
 73
     1
 44
0.60024009603842
  0
ENDBLK
  5
454
330
44C
100
AcDbEntity
  8
0
100
AcDbBlockEnd
  0
BLOCK
  5
460
330
457
100
AcDbEntity
  8
0
100
AcDbBlockBegin
  2
*D41
 70
     1
 10
0.0
 20
0.0
 30
0.0
  3
*D41
  1

  0
LINE
  5
458
330
457
100
AcDbEntity
  8
1
  6
Continuous
 62
     2
100
AcDbLine
 10
2552.16095990927
 20
-829.4446194561663
 30
0.0
 11
2552.16095990927
 21
-820.6946194561663
 31
0.0
  0
LINE
  5
459
330
457
100
AcDbEntity
  8
1
  6
Continuous
 62
     2
100
AcDbLine
 10
2552.16095990927
 20
-820.6946194561663
 30
0.0
 11
2552.16095990927
 21
-813.6946194561663
 31
0.0
  0
LINE
  5
45A
330
457
100
AcDbEntity
  8
1
  6
Continuous
 62
     2
100
AcDbLine
 10
2552.16095990927
 20
-813.6946194561663
 30
0.0
 11
2552.16095990927
 21
-797.8794828707398
 31
0.0
  0
LINE
  5
45B
330
457
100
AcDbEntity
  8
1
  6
Continuous
 62
     2
100
AcDbLine
 10
2602.845513216896
 20
-820.6946194561663
 30
0.0
 11
2549.66095990927
 21
-820.6946194561663
 31
0.0
  0
LINE
  5
45C
330
457
100
AcDbEntity
  8
1
  6
Continuous
 62
     2
100
AcDbLine
 10
2588.16095990927
 20
-813.6946194561663
 30
0.0
 11
2549.66095990927
 21
-813.6946194561663
 31
0.0
  0
SOLID
  5
45D
330
457
100
AcDbEntity
  8
1
 62
     2
100
AcDbTrace
 10
2552.736939586215
 20
-825.0696194561663
 30
0.0
 11
2551.584980232325
 21
-825.0696194561663
 31
0.0
 12
2552.16095990927
 22
-820.6946194561663
 32
0.0
 13
2552.16095990927
 23
-820.6946194561663
 33
0.0
  0
SOLID
  5
45E
330
457
100
AcDbEntity
  8
1
 62
     2
100
AcDbTrace
 10
2551.584980232325
 20
-809.3196194561663
 30
0.0
 11
2552.736939586215
 21
-809.3196194561663
 31
0.0
 12
2552.16095990927
 22
-813.6946194561663
 32
0.0
 13
2552.16095990927
 23
-813.6946194561663
 33
0.0
  0
MTEXT
  5
45F
330
457
100
AcDbEntity
  8
1
 62
     2
100
AcDbMText
 10
2549.66095990927
 20
-801.6294828707398
 30
0.0
 40
6.25
 41
0.0
 71
     7
 72
     1
  1
7
  7
CONVERTER_11
 11
0.0
 21
1.0
 31
0.0
 73
     1
 44
0.60024009603842
  0
ENDBLK
  5
461
330
457
100
AcDbEntity
  8
0
100
AcDbBlockEnd
  0
BLOCK
  5
46C
330
464
100
AcDbEntity
  8
0
100
AcDbBlockBegin
  2
*D42
 70
     1
 10
0.0
 20
0.0
 30
0.0
  3
*D42
  1

  0
LINE
  5
465
330
464
100
AcDbEntity
  8
1
  6
Continuous
 62
     2
100
AcDbLine
 10
2534.66095990927
 20
-495.6946194561662
 30
0.0
 11
2534.66095990927
 21
-455.6946194561662
 31
0.0
  0
LINE
  5
466
330
464
100
AcDbEntity
  8
1
  6
Continuous
 62
     2
100
AcDbLine
 10
2549.66095990927
 20
-495.6946194561662
 30
0.0
 11
2532.16095990927
 21
-495.6946194561662
 31
0.0
  0
LINE
  5
467
330
464
100
AcDbEntity
  8
1
  6
Continuous
 62
     2
100
AcDbLine
 10
2587.16095990927
 20
-495.6946194561662
 30
0.0
 11
2554.66095990927
 21
-495.6946194561662
 31
0.0
  0
LINE
  5
468
330
464
100
AcDbEntity
  8
1
  6
Continuous
 62
     2
100
AcDbLine
 10
2590.16095990927
 20
-455.6946194561662
 30
0.0
 11
2532.16095990927
 21
-455.6946194561662
 31
0.0
  0
SOLID
  5
469
330
464
100
AcDbEntity
  8
1
 62
     2
100
AcDbTrace
 10
2535.236939586215
 20
-460.0696194561662
 30
0.0
 11
2534.084980232325
 21
-460.0696194561662
 31
0.0
 12
2534.66095990927
 22
-455.6946194561662
 32
0.0
 13
2534.66095990927
 23
-455.6946194561662
 33
0.0
  0
SOLID
  5
46A
330
464
100
AcDbEntity
  8
1
 62
     2
100
AcDbTrace
 10
2534.084980232325
 20
-491.3196194561662
 30
0.0
 11
2535.236939586215
 21
-491.3196194561662
 31
0.0
 12
2534.66095990927
 22
-495.6946194561662
 32
0.0
 13
2534.66095990927
 23
-495.6946194561662
 33
0.0
  0
MTEXT
  5
46B
330
464
100
AcDbEntity
  8
1
 62
     2
100
AcDbMText
 10
2532.16095990927
 20
-479.2623752045348
 30
0.0
 40
6.25
 41
0.0
 71
     7
 72
     1
  1
40
  7
CONVERTER_11
 11
0.0
 21
1.0
 31
0.0
 73
     1
 44
0.60024009603842
  0
ENDBLK
  5
46D
330
464
100
AcDbEntity
  8
0
100
AcDbBlockEnd
  0
BLOCK
  5
478
330
470
100
AcDbEntity
  8
0
100
AcDbBlockBegin
  2
*D43
 70
     1
 10
0.0
 20
0.0
 30
0.0
  3
*D43
  1

  0
LINE
  5
471
330
470
100
AcDbEntity
  8
1
  6
Continuous
 62
     2
100
AcDbLine
 10
2534.66095990927
 20
-610.6946194561663
 30
0.0
 11
2534.66095990927
 21
-570.694619456166
 31
0.0
  0
LINE
  5
472
330
470
100
AcDbEntity
  8
1
  6
Continuous
 62
     2
100
AcDbLine
 10
2590.16095990927
 20
-610.6946194561663
 30
0.0
 11
2532.16095990927
 21
-610.6946194561663
 31
0.0
  0
LINE
  5
473
330
470
100
AcDbEntity
  8
1
  6
Continuous
 62
     2
100
AcDbLine
 10
2549.66095990927
 20
-570.694619456166
 30
0.0
 11
2532.16095990927
 21
-570.694619456166
 31
0.0
  0
LINE
  5
474
330
470
100
AcDbEntity
  8
1
  6
Continuous
 62
     2
100
AcDbLine
 10
2587.16095990927
 20
-570.694619456166
 30
0.0
 11
2554.66095990927
 21
-570.694619456166
 31
0.0
  0
SOLID
  5
475
330
470
100
AcDbEntity
  8
1
 62
     2
100
AcDbTrace
 10
2535.236939586215
 20
-575.069619456166
 30
0.0
 11
2534.084980232325
 21
-575.069619456166
 31
0.0
 12
2534.66095990927
 22
-570.694619456166
 32
0.0
 13
2534.66095990927
 23
-570.694619456166
 33
0.0
  0
SOLID
  5
476
330
470
100
AcDbEntity
  8
1
 62
     2
100
AcDbTrace
 10
2534.084980232325
 20
-606.3196194561663
 30
0.0
 11
2535.236939586215
 21
-606.3196194561663
 31
0.0
 12
2534.66095990927
 22
-610.6946194561663
 32
0.0
 13
2534.66095990927
 23
-610.6946194561663
 33
0.0
  0
MTEXT
  5
477
330
470
100
AcDbEntity
  8
1
 62
     2
100
AcDbMText
 10
2532.16095990927
 20
-595.9243292618988
 30
0.0
 40
6.25
 41
0.0
 71
     7
 72
     1
  1
40
  7
CONVERTER_11
 11
0.0
 21
1.0
 31
0.0
 73
     1
 44
0.60024009603842
  0
ENDBLK
  5
479
330
470
100
AcDbEntity
  8
0
100
AcDbBlockEnd
  0
BLOCK
  5
485
330
47C
100
AcDbEntity
  8
0
100
AcDbBlockBegin
  2
*D44
 70
     1
 10
0.0
 20
0.0
 30
0.0
  3
*D44
  1

  0
LINE
  5
47D
330
47C
100
AcDbEntity
  8
1
  6
Continuous
 62
     2
100
AcDbLine
 10
2534.66095990927
 20
-570.694619456166
 30
0.0
 11
2534.66095990927
 21
-495.6946194561662
 31
0.0
  0
LINE
  5
47E
330
47C
100
AcDbEntity
  8
1
  6
Continuous
 62
     2
100
AcDbLine
 10
2549.66095990927
 20
-570.694619456166
 30
0.0
 11
2532.16095990927
 21
-570.694619456166
 31
0.0
  0
LINE
  5
47F
330
47C
100
AcDbEntity
  8
1
  6
Continuous
 62
     2
100
AcDbLine
 10
2587.16095990927
 20
-570.694619456166
 30
0.0
 11
2554.66095990927
 21
-570.694619456166
 31
0.0
  0
LINE
  5
480
330
47C
100
AcDbEntity
  8
1
  6
Continuous
 62
     2
100
AcDbLine
 10
2549.66095990927
 20
-495.6946194561662
 30
0.0
 11
2532.16095990927
 21
-495.6946194561662
 31
0.0
  0
LINE
  5
481
330
47C
100
AcDbEntity
  8
1
  6
Continuous
 62
     2
100
AcDbLine
 10
2587.16095990927
 20
-495.6946194561662
 30
0.0
 11
2554.66095990927
 21
-495.6946194561662
 31
0.0
  0
SOLID
  5
482
330
47C
100
AcDbEntity
  8
1
 62
     2
100
AcDbTrace
 10
2535.236939586215
 20
-500.0696194561662
 30
0.0
 11
2534.084980232325
 21
-500.0696194561662
 31
0.0
 12
2534.66095990927
 22
-495.6946194561662
 32
0.0
 13
2534.66095990927
 23
-495.6946194561662
 33
0.0
  0
SOLID
  5
483
330
47C
100
AcDbEntity
  8
1
 62
     2
100
AcDbTrace
 10
2534.084980232325
 20
-566.319619456166
 30
0.0
 11
2535.236939586215
 21
-566.319619456166
 31
0.0
 12
2534.66095990927
 22
-570.694619456166
 32
0.0
 13
2534.66095990927
 23
-570.694619456166
 33
0.0
  0
MTEXT
  5
484
330
47C
100
AcDbEntity
  8
1
 62
     2
100
AcDbMText
 10
2532.16095990927
 20
-537.8821194561663
 30
0.0
 40
6.25
 41
0.0
 71
     7
 72
     1
  1
75
  7
CONVERTER_11
 11
0.0
 21
1.0
 31
0.0
 73
     1
 44
0.60024009603842
  0
ENDBLK
  5
486
330
47C
100
AcDbEntity
  8
0
100
AcDbBlockEnd
  0
BLOCK
  5
490
330
489
100
AcDbEntity
  8
0
100
AcDbBlockBegin
  2
*D45
 70
     1
 10
0.0
 20
0.0
 30
0.0
  3
*D45
  1

  0
LINE
  5
48A
330
489
100
AcDbEntity
  8
1
  6
Continuous
 62
     2
100
AcDbLine
 10
2552.16095990927
 20
-477.6946194561662
 30
0.0
 11
2552.16095990927
 21
-455.6946194561662
 31
0.0
  0
LINE
  5
48B
330
489
100
AcDbEntity
  8
1
  6
Continuous
 62
     2
100
AcDbLine
 10
2583.921735868714
 20
-477.6946194561662
 30
0.0
 11
2549.66095990927
 21
-477.6946194561662
 31
0.0
  0
LINE
  5
48C
330
489
100
AcDbEntity
  8
1
  6
Continuous
 62
     2
100
AcDbLine
 10
2590.16095990927
 20
-455.6946194561662
 30
0.0
 11
2549.66095990927
 21
-455.6946194561662
 31
0.0
  0
SOLID
  5
48D
330
489
100
AcDbEntity
  8
1
 62
     2
100
AcDbTrace
 10
2552.736939586215
 20
-460.0696194561662
 30
0.0
 11
2551.584980232325
 21
-460.0696194561662
 31
0.0
 12
2552.16095990927
 22
-455.6946194561662
 32
0.0
 13
2552.16095990927
 23
-455.6946194561662
 33
0.0
  0
SOLID
  5
48E
330
489
100
AcDbEntity
  8
1
 62
     2
100
AcDbTrace
 10
2551.584980232325
 20
-473.3196194561662
 30
0.0
 11
2552.736939586215
 21
-473.3196194561662
 31
0.0
 12
2552.16095990927
 22
-477.6946194561662
 32
0.0
 13
2552.16095990927
 23
-477.6946194561662
 33
0.0
  0
MTEXT
  5
48F
330
489
100
AcDbEntity
  8
1
 62
     2
100
AcDbMText
 10
2549.66095990927
 20
-472.2274835025828
 30
0.0
 40
6.25
 41
0.0
 71
     7
 72
     1
  1
22
  7
CONVERTER_11
 11
0.0
 21
1.0
 31
0.0
 73
     1
 44
0.60024009603842
  0
ENDBLK
  5
491
330
489
100
AcDbEntity
  8
0
100
AcDbBlockEnd
  0
BLOCK
  5
49B
330
494
100
AcDbEntity
  8
0
100
AcDbBlockBegin
  2
*D46
 70
     1
 10
0.0
 20
0.0
 30
0.0
  3
*D46
  1

  0
LINE
  5
495
330
494
100
AcDbEntity
  8
1
  6
Continuous
 62
     2
100
AcDbLine
 10
2552.16095990927
 20
-610.6946194561663
 30
0.0
 11
2552.16095990927
 21
-588.6946194561663
 31
0.0
  0
LINE
  5
496
330
494
100
AcDbEntity
  8
1
  6
Continuous
 62
     2
100
AcDbLine
 10
2590.16095990927
 20
-610.6946194561663
 30
0.0
 11
2549.66095990927
 21
-610.6946194561663
 31
0.0
  0
LINE
  5
497
330
494
100
AcDbEntity
  8
1
  6
Continuous
 62
     2
100
AcDbLine
 10
2583.6015357836
 20
-588.6946194561663
 30
0.0
 11
2549.66095990927
 21
-588.6946194561663
 31
0.0
  0
SOLID
  5
498
330
494
100
AcDbEntity
  8
1
 62
     2
100
AcDbTrace
 10
2552.736939586215
 20
-593.0696194561663
 30
0.0
 11
2551.584980232325
 21
-593.0696194561663
 31
0.0
 12
2552.16095990927
 22
-588.6946194561663
 32
0.0
 13
2552.16095990927
 23
-588.6946194561663
 33
0.0
  0
SOLID
  5
499
330
494
100
AcDbEntity
  8
1
 62
     2
100
AcDbTrace
 10
2551.584980232325
 20
-606.3196194561663
 30
0.0
 11
2552.736939586215
 21
-606.3196194561663
 31
0.0
 12
2552.16095990927
 22
-610.6946194561663
 32
0.0
 13
2552.16095990927
 23
-610.6946194561663
 33
0.0
  0
MTEXT
  5
49A
330
494
100
AcDbEntity
  8
1
 62
     2
100
AcDbMText
 10
2549.66095990927
 20
-603.5454619390129
 30
0.0
 40
6.25
 41
0.0
 71
     7
 72
     1
  1
22
  7
CONVERTER_11
 11
0.0
 21
1.0
 31
0.0
 73
     1
 44
0.60024009603842
  0
ENDBLK
  5
49C
330
494
100
AcDbEntity
  8
0
100
AcDbBlockEnd
  0
BLOCK
  5
4A6
330
49F
100
AcDbEntity
  8
0
100
AcDbBlockBegin
  2
*D47
 70
     1
 10
0.0
 20
0.0
 30
0.0
  3
*D47
  1

  0
LINE
  5
4A0
330
49F
100
AcDbEntity
  8
1
  6
Continuous
 62
     2
100
AcDbLine
 10
2552.16095990927
 20
-588.6946194561663
 30
0.0
 11
2552.16095990927
 21
-477.6946194561662
 31
0.0
  0
LINE
  5
4A1
330
49F
100
AcDbEntity
  8
1
  6
Continuous
 62
     2
100
AcDbLine
 10
2583.6015357836
 20
-588.6946194561663
 30
0.0
 11
2549.66095990927
 21
-588.6946194561663
 31
0.0
  0
LINE
  5
4A2
330
49F
100
AcDbEntity
  8
1
  6
Continuous
 62
     2
100
AcDbLine
 10
2583.921735868714
 20
-477.6946194561662
 30
0.0
 11
2549.66095990927
 21
-477.6946194561662
 31
0.0
  0
SOLID
  5
4A3
330
49F
100
AcDbEntity
  8
1
 62
     2
100
AcDbTrace
 10
2552.736939586215
 20
-482.0696194561662
 30
0.0
 11
2551.584980232325
 21
-482.0696194561662
 31
0.0
 12
2552.16095990927
 22
-477.6946194561662
 32
0.0
 13
2552.16095990927
 23
-477.6946194561662
 33
0.0
  0
SOLID
  5
4A4
330
49F
100
AcDbEntity
  8
1
 62
     2
100
AcDbTrace
 10
2551.584980232325
 20
-584.3196194561663
 30
0.0
 11
2552.736939586215
 21
-584.3196194561663
 31
0.0
 12
2552.16095990927
 22
-588.6946194561663
 32
0.0
 13
2552.16095990927
 23
-588.6946194561663
 33
0.0
  0
MTEXT
  5
4A5
330
49F
100
AcDbEntity
  8
1
 62
     2
100
AcDbMText
 10
2549.66095990927
 20
-537.8821194561663
 30
0.0
 40
6.25
 41
0.0
 71
     7
 72
     1
  1
111
  7
CONVERTER_11
 11
0.0
 21
1.0
 31
0.0
 73
     1
 44
0.60024009603842
  0
ENDBLK
  5
4A7
330
49F
100
AcDbEntity
  8
0
100
AcDbBlockEnd
  0
BLOCK
  5
4B2
330
4AA
100
AcDbEntity
  8
0
100
AcDbBlockBegin
  2
*D48
 70
     1
 10
0.0
 20
0.0
 30
0.0
  3
*D48
  1

  0
LINE
  5
4AB
330
4AA
100
AcDbEntity
  8
1
  6
Continuous
 62
     2
100
AcDbLine
 10
2587.16095990927
 20
-663.1946194561663
 30
0.0
 11
2627.16095990927
 21
-663.1946194561663
 31
0.0
  0
LINE
  5
4AC
330
4AA
100
AcDbEntity
  8
1
  6
Continuous
 62
     2
100
AcDbLine
 10
2587.16095990927
 20
-607.6946194561663
 30
0.0
 11
2587.16095990927
 21
-665.6946194561663
 31
0.0
  0
LINE
  5
4AD
330
4AA
100
AcDbEntity
  8
1
  6
Continuous
 62
     2
100
AcDbLine
 10
2627.16095990927
 20
-648.1946194561663
 30
0.0
 11
2627.16095990927
 21
-665.6946194561663
 31
0.0
  0
LINE
  5
4AE
330
4AA
100
AcDbEntity
  8
1
  6
Continuous
 62
     2
100
AcDbLine
 10
2627.16095990927
 20
-610.6946194561663
 30
0.0
 11
2627.16095990927
 21
-643.1946194561663
 31
0.0
  0
SOLID
  5
4AF
330
4AA
100
AcDbEntity
  8
1
 62
     2
100
AcDbTrace
 10
2591.53595990927
 20
-662.6186397792214
 30
0.0
 11
2591.53595990927
 21
-663.7705991331111
 31
0.0
 12
2587.16095990927
 22
-663.1946194561663
 32
0.0
 13
2587.16095990927
 23
-663.1946194561663
 33
0.0
  0
SOLID
  5
4B0
330
4AA
100
AcDbEntity
  8
1
 62
     2
100
AcDbTrace
 10
2622.78595990927
 20
-663.7705991331111
 30
0.0
 11
2622.78595990927
 21
-662.6186397792214
 31
0.0
 12
2627.16095990927
 22
-663.1946194561663
 32
0.0
 13
2627.16095990927
 23
-663.1946194561663
 33
0.0
  0
MTEXT
  5
4B1
330
4AA
100
AcDbEntity
  8
1
 62
     2
100
AcDbMText
 10
2601.79686128574
 20
-660.6946194561663
 30
0.0
 40
6.25
 41
0.0
 71
     7
 72
     1
  1
40
  7
CONVERTER_11
 11
0.9999999999970619
 21
2.424068405545306E-6
 31
0.0
 73
     1
 44
0.60024009603842
  0
ENDBLK
  5
4B3
330
4AA
100
AcDbEntity
  8
0
100
AcDbBlockEnd
  0
BLOCK
  5
4BE
330
4B6
100
AcDbEntity
  8
0
100
AcDbBlockBegin
  2
*D49
 70
     1
 10
0.0
 20
0.0
 30
0.0
  3
*D49
  1

  0
LINE
  5
4B7
330
4B6
100
AcDbEntity
  8
1
  6
Continuous
 62
     2
100
AcDbLine
 10
2702.16095990927
 20
-663.1946194561663
 30
0.0
 11
2742.16095990927
 21
-663.1946194561663
 31
0.0
  0
LINE
  5
4B8
330
4B6
100
AcDbEntity
  8
1
  6
Continuous
 62
     2
100
AcDbLine
 10
2702.16095990927
 20
-648.1946194561663
 30
0.0
 11
2702.16095990927
 21
-665.6946194561663
 31
0.0
  0
LINE
  5
4B9
330
4B6
100
AcDbEntity
  8
1
  6
Continuous
 62
     2
100
AcDbLine
 10
2702.16095990927
 20
-610.6946194561663
 30
0.0
 11
2702.16095990927
 21
-643.1946194561663
 31
0.0
  0
LINE
  5
4BA
330
4B6
100
AcDbEntity
  8
1
  6
Continuous
 62
     2
100
AcDbLine
 10
2742.16095990927
 20
-607.6946194561663
 30
0.0
 11
2742.16095990927
 21
-665.6946194561663
 31
0.0
  0
SOLID
  5
4BB
330
4B6
100
AcDbEntity
  8
1
 62
     2
100
AcDbTrace
 10
2706.53595990927
 20
-662.6186397792214
 30
0.0
 11
2706.53595990927
 21
-663.7705991331111
 31
0.0
 12
2702.16095990927
 22
-663.1946194561663
 32
0.0
 13
2702.16095990927
 23
-663.1946194561663
 33
0.0
  0
SOLID
  5
4BC
330
4B6
100
AcDbEntity
  8
1
 62
     2
100
AcDbTrace
 10
2737.78595990927
 20
-663.7705991331111
 30
0.0
 11
2737.78595990927
 21
-662.6186397792214
 31
0.0
 12
2742.16095990927
 22
-663.1946194561663
 32
0.0
 13
2742.16095990927
 23
-663.1946194561663
 33
0.0
  0
MTEXT
  5
4BD
330
4B6
100
AcDbEntity
  8
1
 62
     2
100
AcDbMText
 10
2718.05943265328
 20
-660.6946194561663
 30
0.0
 40
6.25
 41
0.0
 71
     7
 72
     1
  1
40
  7
CONVERTER_11
 11
0.9999999999970619
 21
2.424068405545306E-6
 31
0.0
 73
     1
 44
0.60024009603842
  0
ENDBLK
  5
4BF
330
4B6
100
AcDbEntity
  8
0
100
AcDbBlockEnd
  0
BLOCK
  5
4CB
330
4C2
100
AcDbEntity
  8
0
100
AcDbBlockBegin
  2
*D50
 70
     1
 10
0.0
 20
0.0
 30
0.0
  3
*D50
  1

  0
LINE
  5
4C3
330
4C2
100
AcDbEntity
  8
1
  6
Continuous
 62
     2
100
AcDbLine
 10
2627.16095990927
 20
-663.1946194561663
 30
0.0
 11
2702.16095990927
 21
-663.1946194561663
 31
0.0
  0
LINE
  5
4C4
330
4C2
100
AcDbEntity
  8
1
  6
Continuous
 62
     2
100
AcDbLine
 10
2627.16095990927
 20
-648.1946194561663
 30
0.0
 11
2627.16095990927
 21
-665.6946194561663
 31
0.0
  0
LINE
  5
4C5
330
4C2
100
AcDbEntity
  8
1
  6
Continuous
 62
     2
100
AcDbLine
 10
2627.16095990927
 20
-610.6946194561663
 30
0.0
 11
2627.16095990927
 21
-643.1946194561663
 31
0.0
  0
LINE
  5
4C6
330
4C2
100
AcDbEntity
  8
1
  6
Continuous
 62
     2
100
AcDbLine
 10
2702.16095990927
 20
-648.1946194561663
 30
0.0
 11
2702.16095990927
 21
-665.6946194561663
 31
0.0
  0
LINE
  5
4C7
330
4C2
100
AcDbEntity
  8
1
  6
Continuous
 62
     2
100
AcDbLine
 10
2702.16095990927
 20
-610.6946194561663
 30
0.0
 11
2702.16095990927
 21
-643.1946194561663
 31
0.0
  0
SOLID
  5
4C8
330
4C2
100
AcDbEntity
  8
1
 62
     2
100
AcDbTrace
 10
2631.53595990927
 20
-662.6186397792214
 30
0.0
 11
2631.53595990927
 21
-663.7705991331111
 31
0.0
 12
2627.16095990927
 22
-663.1946194561663
 32
0.0
 13
2627.16095990927
 23
-663.1946194561663
 33
0.0
  0
SOLID
  5
4C9
330
4C2
100
AcDbEntity
  8
1
 62
     2
100
AcDbTrace
 10
2697.78595990927
 20
-663.7705991331111
 30
0.0
 11
2697.78595990927
 21
-662.6186397792214
 31
0.0
 12
2702.16095990927
 22
-663.1946194561663
 32
0.0
 13
2702.16095990927
 23
-663.1946194561663
 33
0.0
  0
MTEXT
  5
4CA
330
4C2
100
AcDbEntity
  8
1
 62
     2
100
AcDbMText
 10
2659.97345990927
 20
-660.6946194561663
 30
0.0
 40
6.25
 41
0.0
 71
     7
 72
     1
  1
75
  7
CONVERTER_11
 11
0.9999999999970619
 21
2.424068405545306E-6
 31
0.0
 73
     1
 44
0.60024009603842
  0
ENDBLK
  5
4CC
330
4C2
100
AcDbEntity
  8
0
100
AcDbBlockEnd
  0
BLOCK
  5
4D6
330
4CF
100
AcDbEntity
  8
0
100
AcDbBlockBegin
  2
*D51
 70
     1
 10
0.0
 20
0.0
 30
0.0
  3
*D51
  1

  0
LINE
  5
4D0
330
4CF
100
AcDbEntity
  8
1
  6
Continuous
 62
     2
100
AcDbLine
 10
2587.16095990927
 20
-645.6946194561663
 30
0.0
 11
2609.16095990927
 21
-645.6946194561663
 31
0.0
  0
LINE
  5
4D1
330
4CF
100
AcDbEntity
  8
1
  6
Continuous
 62
     2
100
AcDbLine
 10
2587.16095990927
 20
-607.6946194561663
 30
0.0
 11
2587.16095990927
 21
-648.1946194561663
 31
0.0
  0
LINE
  5
4D2
330
4CF
100
AcDbEntity
  8
1
  6
Continuous
 62
     2
100
AcDbLine
 10
2609.16095990927
 20
-615.3894043947641
 30
0.0
 11
2609.16095990927
 21
-648.1946194561663
 31
0.0
  0
SOLID
  5
4D3
330
4CF
100
AcDbEntity
  8
1
 62
     2
100
AcDbTrace
 10
2591.53595990927
 20
-645.1186397792214
 30
0.0
 11
2591.53595990927
 21
-646.2705991331111
 31
0.0
 12
2587.16095990927
 22
-645.6946194561663
 32
0.0
 13
2587.16095990927
 23
-645.6946194561663
 33
0.0
  0
SOLID
  5
4D4
330
4CF
100
AcDbEntity
  8
1
 62
     2
100
AcDbTrace
 10
2604.78595990927
 20
-646.2705991331111
 30
0.0
 11
2604.78595990927
 21
-645.1186397792214
 31
0.0
 12
2609.16095990927
 22
-645.6946194561663
 32
0.0
 13
2609.16095990927
 23
-645.6946194561663
 33
0.0
  0
MTEXT
  5
4D5
330
4CF
100
AcDbEntity
  8
1
 62
     2
100
AcDbMText
 10
2593.6909051147
 20
-643.1946194561663
 30
0.0
 40
6.25
 41
0.0
 71
     7
 72
     1
  1
22
  7
CONVERTER_11
 11
0.9999999999970619
 21
2.424068405545306E-6
 31
0.0
 73
     1
 44
0.60024009603842
  0
ENDBLK
  5
4D7
330
4CF
100
AcDbEntity
  8
0
100
AcDbBlockEnd
  0
BLOCK
  5
4E1
330
4DA
100
AcDbEntity
  8
0
100
AcDbBlockBegin
  2
*D52
 70
     1
 10
0.0
 20
0.0
 30
0.0
  3
*D52
  1

  0
LINE
  5
4DB
330
4DA
100
AcDbEntity
  8
1
  6
Continuous
 62
     2
100
AcDbLine
 10
2720.16095990927
 20
-645.6946194561663
 30
0.0
 11
2742.16095990927
 21
-645.6946194561663
 31
0.0
  0
LINE
  5
4DC
330
4DA
100
AcDbEntity
  8
1
  6
Continuous
 62
     2
100
AcDbLine
 10
2720.16095990927
 20
-613.7188971337528
 30
0.0
 11
2720.16095990927
 21
-648.1946194561663
 31
0.0
  0
LINE
  5
4DD
330
4DA
100
AcDbEntity
  8
1
  6
Continuous
 62
     2
100
AcDbLine
 10
2742.16095990927
 20
-607.6946194561663
 30
0.0
 11
2742.16095990927
 21
-648.1946194561663
 31
0.0
  0
SOLID
  5
4DE
330
4DA
100
AcDbEntity
  8
1
 62
     2
100
AcDbTrace
 10
2724.53595990927
 20
-645.1186397792214
 30
0.0
 11
2724.53595990927
 21
-646.2705991331111
 31
0.0
 12
2720.16095990927
 22
-645.6946194561663
 32
0.0
 13
2720.16095990927
 23
-645.6946194561663
 33
0.0
  0
SOLID
  5
4DF
330
4DA
100
AcDbEntity
  8
1
 62
     2
100
AcDbTrace
 10
2737.78595990927
 20
-646.2705991331111
 30
0.0
 11
2737.78595990927
 21
-645.1186397792214
 31
0.0
 12
2742.16095990927
 22
-645.6946194561663
 32
0.0
 13
2742.16095990927
 23
-645.6946194561663
 33
0.0
  0
MTEXT
  5
4E0
330
4DA
100
AcDbEntity
  8
1
 62
     2
100
AcDbMText
 10
2727.55498131079
 20
-643.1946194561663
 30
0.0
 40
6.25
 41
0.0
 71
     7
 72
     1
  1
22
  7
CONVERTER_11
 11
0.9999999999970619
 21
2.424068405545306E-6
 31
0.0
 73
     1
 44
0.60024009603842
  0
ENDBLK
  5
4E2
330
4DA
100
AcDbEntity
  8
0
100
AcDbBlockEnd
  0
BLOCK
  5
4EC
330
4E5
100
AcDbEntity
  8
0
100
AcDbBlockBegin
  2
*D53
 70
     1
 10
0.0
 20
0.0
 30
0.0
  3
*D53
  1

  0
LINE
  5
4E6
330
4E5
100
AcDbEntity
  8
1
  6
Continuous
 62
     2
100
AcDbLine
 10
2609.16095990927
 20
-645.6946194561663
 30
0.0
 11
2720.16095990927
 21
-645.6946194561663
 31
0.0
  0
LINE
  5
4E7
330
4E5
100
AcDbEntity
  8
1
  6
Continuous
 62
     2
100
AcDbLine
 10
2609.16095990927
 20
-615.3894043947641
 30
0.0
 11
2609.16095990927
 21
-648.1946194561663
 31
0.0
  0
LINE
  5
4E8
330
4E5
100
AcDbEntity
  8
1
  6
Continuous
 62
     2
100
AcDbLine
 10
2720.16095990927
 20
-613.7188971337528
 30
0.0
 11
2720.16095990927
 21
-648.1946194561663
 31
0.0
  0
SOLID
  5
4E9
330
4E5
100
AcDbEntity
  8
1
 62
     2
100
AcDbTrace
 10
2613.53595990927
 20
-645.1186397792214
 30
0.0
 11
2613.53595990927
 21
-646.2705991331111
 31
0.0
 12
2609.16095990927
 22
-645.6946194561663
 32
0.0
 13
2609.16095990927
 23
-645.6946194561663
 33
0.0
  0
SOLID
  5
4EA
330
4E5
100
AcDbEntity
  8
1
 62
     2
100
AcDbTrace
 10
2715.78595990927
 20
-646.2705991331111
 30
0.0
 11
2715.78595990927
 21
-645.1186397792214
 31
0.0
 12
2720.16095990927
 22
-645.6946194561663
 32
0.0
 13
2720.16095990927
 23
-645.6946194561663
 33
0.0
  0
MTEXT
  5
4EB
330
4E5
100
AcDbEntity
  8
1
 62
     2
100
AcDbMText
 10
2659.97345990927
 20
-643.1946194561663
 30
0.0
 40
6.25
 41
0.0
 71
     7
 72
     1
  1
111
  7
CONVERTER_11
 11
0.9999999999970619
 21
2.424068405545306E-6
 31
0.0
 73
     1
 44
0.60024009603842
  0
ENDBLK
  5
4ED
330
4E5
100
AcDbEntity
  8
0
100
AcDbBlockEnd
  0
BLOCK
  5
4F7
330
4F0
100
AcDbEntity
  8
0
100
AcDbBlockBegin
  2
*D54
 70
     1
 10
0.0
 20
0.0
 30
0.0
  3
*D54
  1

  0
LINE
  5
4F1
330
4F0
100
AcDbEntity
  8
1
  6
Continuous
 62
     2
100
AcDbLine
 10
2742.16095990927
 20
-1019.694619456166
 30
0.0
 11
2742.16095990927
 21
-979.6946194561664
 31
0.0
  0
LINE
  5
4F2
330
4F0
100
AcDbEntity
  8
1
  6
Continuous
 62
     2
100
AcDbLine
 10
2664.66095990927
 20
-1019.694619456166
 30
0.0
 11
2744.66095990927
 21
-1019.694619456166
 31
0.0
  0
LINE
  5
4F3
330
4F0
100
AcDbEntity
  8
1
  6
Continuous
 62
     2
100
AcDbLine
 10
2664.66095990927
 20
-979.6946194561664
 30
0.0
 11
2744.66095990927
 21
-979.6946194561664
 31
0.0
  0
SOLID
  5
4F4
330
4F0
100
AcDbEntity
  8
1
 62
     2
100
AcDbTrace
 10
2742.736939586215
 20
-984.0696194561664
 30
0.0
 11
2741.584980232325
 21
-984.0696194561664
 31
0.0
 12
2742.16095990927
 22
-979.6946194561664
 32
0.0
 13
2742.16095990927
 23
-979.6946194561664
 33
0.0
  0
SOLID
  5
4F5
330
4F0
100
AcDbEntity
  8
1
 62
     2
100
AcDbTrace
 10
2741.584980232325
 20
-1015.319619456166
 30
0.0
 11
2742.736939586215
 21
-1015.319619456166
 31
0.0
 12
2742.16095990927
 22
-1019.694619456166
 32
0.0
 13
2742.16095990927
 23
-1019.694619456166
 33
0.0
  0
MTEXT
  5
4F6
330
4F0
100
AcDbEntity
  8
1
 62
     2
100
AcDbMText
 10
2739.66095990927
 20
-1002.780653957754
 30
0.0
 40
6.25
 41
0.0
 71
     7
 72
     1
  1
S
  7
CONVERTER_11
 11
0.0
 21
1.0
 31
0.0
 73
     1
 44
0.60024009603842
  0
ENDBLK
  5
4F8
330
4F0
100
AcDbEntity
  8
0
100
AcDbBlockEnd
  0
BLOCK
  5
504
330
4FB
100
AcDbEntity
  8
0
100
AcDbBlockBegin
  2
*D55
 70
     1
 10
0.0
 20
0.0
 30
0.0
  3
*D55
  1

  0
LINE
  5
4FC
330
4FB
100
AcDbEntity
  8
1
  6
Continuous
 62
     2
100
AcDbLine
 10
2742.16095990927
 20
-1010.944619456166
 30
0.0
 11
2742.16095990927
 21
-1019.694619456166
 31
0.0
  0
LINE
  5
4FD
330
4FB
100
AcDbEntity
  8
1
  6
Continuous
 62
     2
100
AcDbLine
 10
2742.16095990927
 20
-1022.694619456166
 30
0.0
 11
2742.16095990927
 21
-1019.694619456166
 31
0.0
  0
LINE
  5
4FE
330
4FB
100
AcDbEntity
  8
1
  6
Continuous
 62
     2
100
AcDbLine
 10
2742.16095990927
 20
-1022.694619456166
 30
0.0
 11
2742.16095990927
 21
-1031.444619456166
 31
0.0
  0
LINE
  5
4FF
330
4FB
100
AcDbEntity
  8
1
  6
Continuous
 62
     2
100
AcDbLine
 10
2679.66095990927
 20
-1022.694619456166
 30
0.0
 11
2744.66095990927
 21
-1022.694619456166
 31
0.0
  0
LINE
  5
500
330
4FB
100
AcDbEntity
  8
1
  6
Continuous
 62
     2
100
AcDbLine
 10
2664.66095990927
 20
-1019.694619456166
 30
0.0
 11
2744.66095990927
 21
-1019.694619456166
 31
0.0
  0
SOLID
  5
501
330
4FB
100
AcDbEntity
  8
1
 62
     2
100
AcDbTrace
 10
2741.584980232325
 20
-1015.319619456166
 30
0.0
 11
2742.736939586215
 21
-1015.319619456166
 31
0.0
 12
2742.16095990927
 22
-1019.694619456166
 32
0.0
 13
2742.16095990927
 23
-1019.694619456166
 33
0.0
  0
SOLID
  5
502
330
4FB
100
AcDbEntity
  8
1
 62
     2
100
AcDbTrace
 10
2742.736939586215
 20
-1027.069619456166
 30
0.0
 11
2741.584980232325
 21
-1027.069619456166
 31
0.0
 12
2742.16095990927
 22
-1022.694619456166
 32
0.0
 13
2742.16095990927
 23
-1022.694619456166
 33
0.0
  0
MTEXT
  5
503
330
4FB
100
AcDbEntity
  8
1
 62
     2
100
AcDbMText
 10
2739.66095990927
 20
-1030.881543184553
 30
0.0
 40
6.25
 41
0.0
 71
     7
 72
     1
  1
R
  7
CONVERTER_11
 11
0.0
 21
1.0
 31
0.0
 73
     1
 44
0.60024009603842
  0
ENDBLK
  5
505
330
4FB
100
AcDbEntity
  8
0
100
AcDbBlockEnd
  0
BLOCK
  5
50E
330
508
100
AcDbEntity
  8
0
100
AcDbBlockBegin
  2
*D56
 70
     1
 10
0.0
 20
0.0
 30
0.0
  3
*D56
  1

  0
LINE
  5
509
330
508
100
AcDbEntity
  8
1
  6
Continuous
 62
     2
100
AcDbLine
 10
2847.662239480029
 20
-598.194619456166
 30
0.0
 11
2847.662239480029
 21
-518.2416006284478
 31
0.0
  0
LINE
  5
50A
330
508
100
AcDbEntity
  8
1
  6
Continuous
 62
     2
100
AcDbLine
 10
2832.662239480029
 20
-598.194619456166
 30
0.0
 11
2850.162239480029
 21
-598.194619456166
 31
0.0
  0
LINE
  5
50B
330
508
100
AcDbEntity
  8
1
  6
Continuous
 62
     2
100
AcDbLine
 10
2812.662239480029
 20
-598.194619456166
 30
0.0
 11
2827.662239480029
 21
-598.194619456166
 31
0.0
  0
SOLID
  5
50C
330
508
100
AcDbEntity
  8
1
 62
     2
100
AcDbTrace
 10
2847.086259803084
 20
-593.819619456166
 30
0.0
 11
2848.238219156974
 21
-593.819619456166
 31
0.0
 12
2847.662239480029
 22
-598.194619456166
 32
0.0
 13
2847.662239480029
 23
-598.194619456166
 33
0.0
  0
MTEXT
  5
50D
330
508
100
AcDbEntity
  8
1
 62
     2
100
AcDbMText
 10
2845.162239480029
 20
-537.8666006284478
 30
0.0
 40
6.25
 41
0.0
 71
     7
 72
     1
  1
\C2;\U+00f8\C2; D
  7
CONVERTER_11
 11
0.0
 21
1.0
 31
0.0
 73
     1
 44
0.60024009603842
  0
ENDBLK
  5
50F
330
508
100
AcDbEntity
  8
0
100
AcDbBlockEnd
  0
BLOCK
  5
516
330
511
100
AcDbEntity
  8
0
100
AcDbBlockBegin
  2
*D57
 70
     1
 10
0.0
 20
0.0
 30
0.0
  3
*D57
  1

  0
LINE
  5
512
330
511
100
AcDbEntity
  8
1
  6
Continuous
 62
     2
100
AcDbLine
 10
2847.662239480029
 20
-448.1946194561661
 30
0.0
 11
2847.662239480029
 21
-499.6688867037878
 31
0.0
  0
LINE
  5
513
330
511
100
AcDbEntity
  8
1
  6
Continuous
 62
     2
100
AcDbLine
 10
2812.662239480029
 20
-448.1946194561661
 30
0.0
 11
2850.162239480029
 21
-448.1946194561661
 31
0.0
  0
SOLID
  5
514
330
511
100
AcDbEntity
  8
1
 62
     2
100
AcDbTrace
 10
2848.238219156974
 20
-452.5696194561661
 30
0.0
 11
2847.086259803084
 21
-452.5696194561661
 31
0.0
 12
2847.662239480029
 22
-448.1946194561661
 32
0.0
 13
2847.662239480029
 23
-448.1946194561661
 33
0.0
  0
MTEXT
  5
515
330
511
100
AcDbEntity
  8
1
 62
     2
100
AcDbMText
 10
2845.162239480029
 20
-503.0438867037878
 30
0.0
 40
6.25
 41
0.0
 71
     7
 72
     1
  1
\C2;\U+00f8\C2; D
  7
CONVERTER_11
 11
0.0
 21
1.0
 31
0.0
 73
     1
 44
0.60024009603842
  0
ENDBLK
  5
517
330
511
100
AcDbEntity
  8
0
100
AcDbBlockEnd
  0
BLOCK
  5
51E
330
519
100
AcDbEntity
  8
0
100
AcDbBlockBegin
  2
*D58
 70
     1
 10
0.0
 20
0.0
 30
0.0
  3
*D58
  1

  0
LINE
  5
51A
330
519
100
AcDbEntity
  8
1
  6
Continuous
 62
     2
100
AcDbLine
 10
2617.067283129571
 20
-571.0191726499614
 30
0.0
 11
2712.25463668897
 21
-540.3700662623706
 31
0.0
  0
SOLID
  5
51B
330
519
100
AcDbEntity
  8
1
 62
     2
100
AcDbTrace
 10
2708.266722594704
 20
-542.2592244783514
 30
0.0
 11
2707.913657346789
 21
-541.1627048553038
 31
0.0
 12
2712.25463668897
 22
-540.3700662623706
 32
0.0
 13
2712.25463668897
 23
-540.3700662623706
 33
0.0
  0
SOLID
  5
51C
330
519
100
AcDbEntity
  8
1
 62
     2
100
AcDbTrace
 10
2621.055197223837
 20
-569.1300144339807
 30
0.0
 11
2621.408262471752
 21
-570.2265340570283
 31
0.0
 12
2617.067283129571
 22
-571.0191726499614
 32
0.0
 13
2617.067283129571
 23
-571.0191726499614
 33
0.0
  0
MTEXT
  5
51D
330
519
100
AcDbEntity
  8
1
 62
     2
100
AcDbMText
 10
2678.367413016271
 20
-548.6549181259381
 30
0.0
 40
6.25
 41
0.0
 71
     7
 72
     1
  1
\C2;\U+00f8\C2;100
  7
CONVERTER_11
 11
0.9518735355939958
 21
0.3064910638759081
 31
0.0
 73
     1
 44
0.60024009603842
  0
ENDBLK
  5
51F
330
519
100
AcDbEntity
  8
0
100
AcDbBlockEnd
  0
BLOCK
  5
526
330
521
100
AcDbEntity
  8
0
100
AcDbBlockBegin
  2
*D59
 70
     1
 10
0.0
 20
0.0
 30
0.0
  3
*D59
  1

  0
LINE
  5
522
330
521
100
AcDbEntity
  8
1
  6
Continuous
 62
     2
100
AcDbLine
 10
2709.648881784241
 20
-595.3835199319024
 30
0.0
 11
2678.298111493632
 21
-581.2792561943038
 31
0.0
  0
SOLID
  5
523
330
521
100
AcDbEntity
  8
1
 62
     2
100
AcDbTrace
 10
2692.142317961673
 20
-588.1391509487119
 30
0.0
 11
2692.614941545984
 21
-587.088609516608
 31
0.0
 12
2696.368456955574
 22
-589.4088464998118
 32
0.0
 13
2696.368456955574
 23
-589.4088464998118
 33
0.0
  0
SOLID
  5
524
330
521
100
AcDbEntity
  8
1
 62
     2
100
AcDbTrace
 10
2707.890279975523
 20
-593.9607660822749
 30
0.0
 11
2707.417656391212
 21
-595.0113075143787
 31
0.0
 12
2703.664140981622
 22
-592.6910705311749
 32
0.0
 13
2703.664140981622
 23
-592.6910705311749
 33
0.0
  0
MTEXT
  5
525
330
521
100
AcDbEntity
  8
1
 62
     2
100
AcDbMText
 10
2676.245939804944
 20
-577.6146666729322
 30
0.0
 40
6.25
 41
0.0
 71
     7
 72
     1
  1
\C2;\U+00f8\C2;7
  7
CONVERTER_11
 11
0.9119605032560965
 21
-0.4102780039203754
 31
0.0
 73
     1
 44
0.60024009603842
  0
ENDBLK
  5
527
330
521
100
AcDbEntity
  8
0
100
AcDbBlockEnd
  0
BLOCK
  5
52D
330
529
100
AcDbEntity
  8
0
100
AcDbBlockBegin
  2
*D60
 70
     1
 10
0.0
 20
0.0
 30
0.0
  3
*D60
  1

  0
LINE
  5
52A
330
529
100
AcDbEntity
  8
1
  6
Continuous
 62
     2
100
AcDbLine
 10
2664.66095990927
 20
-810.694619456166
 30
0.0
 11
2621.643742053555
 21
-790.5509115563307
 31
0.0
  0
SOLID
  5
52B
330
529
100
AcDbEntity
  8
1
 62
     2
100
AcDbTrace
 10
2625.850114569078
 20
-791.8846311103975
 30
0.0
 11
2625.361593879873
 21
-792.927875036444
 31
0.0
 12
2621.643742053555
 22
-790.5509115563307
 32
0.0
 13
2621.643742053555
 23
-790.5509115563307
 33
0.0
  0
MTEXT
  5
52C
330
529
100
AcDbEntity
  8
1
 62
     2
100
AcDbMText
 10
2626.019339262635
 20
-789.8393534998422
 30
0.0
 40
6.25
 41
0.0
 71
     7
 72
     1
  1
\C2;\U+00f8\C2;95
  7
CONVERTER_11
 11
0.905625639067699
 21
-0.4240780610491681
 31
0.0
 73
     1
 44
0.60024009603842
  0
ENDBLK
  5
52E
330
529
100
AcDbEntity
  8
0
100
AcDbBlockEnd
  0
ENDSEC
  0
SECTION
  2
ENTITIES
  0
INSERT
  5
6C
330
1F
100
AcDbEntity
  8
0
100
AcDbBlockReference
  2
Top__2
 10
1153.934206448917
 20
-292.0780292524818
 30
0.0
 41
0.4
 42
0.4
 43
0.4
  0
ENDSEC
  0
SECTION
  2
OBJECTS
  0
DICTIONARY
  5
C
330
0
100
AcDbDictionary
281
     1
  3
ACAD_GROUP
350
D
  3
ACAD_LAYOUT
350
1A
  3
ACAD_MLEADERSTYLE
350
532
  3
ACAD_MLINESTYLE
350
17
  3
ACAD_PLOTSETTINGS
350
19
  3
ACAD_PLOTSTYLENAME
350
E
  3
ACAD_SCALELIST
350
47
  3
ACAD_VISUALSTYLE
350
2A
  3
AcDbVariableDictionary
350
530
  0
DICTIONARY
  5
D
102
{ACAD_REACTORS
330
C
102
}
330
C
100
AcDbDictionary
281
     1
  0
DICTIONARY
  5
1A
102
{ACAD_REACTORS
330
C
102
}
330
C
100
AcDbDictionary
281
     1
  3
Layout1
350
1E
  3
Layout2
350
26
  3
Model
350
22
  0
DICTIONARY
  5
532
102
{ACAD_REACTORS
330
C
102
}
330
C
100
AcDbDictionary
281
     1
  0
DICTIONARY
  5
17
102
{ACAD_REACTORS
330
C
102
}
330
C
100
AcDbDictionary
281
     1
  3
Standard
350
18
  0
DICTIONARY
  5
19
102
{ACAD_REACTORS
330
C
102
}
330
C
100
AcDbDictionary
281
     1
  0
ACDBDICTIONARYWDFLT
  5
E
102
{ACAD_REACTORS
330
C
102
}
330
C
100
AcDbDictionary
281
     1
  3
Normal
350
F
100
AcDbDictionaryWithDefault
340
F
  0
DICTIONARY
  5
47
102
{ACAD_REACTORS
330
C
102
}
330
C
100
AcDbDictionary
281
     1
  3
A0
350
48
  3
A1
350
49
  3
A2
350
4A
  3
A3
350
4B
  3
A4
350
4C
  3
A5
350
4D
  3
A6
350
4E
  3
A7
350
4F
  3
A8
350
50
  3
A9
350
51
  3
B0
350
52
  3
B1
350
53
  3
B2
350
54
  3
B3
350
55
  3
B4
350
56
  3
B5
350
57
  3
B6
350
58
  3
B7
350
59
  3
B8
350
5A
  3
B9
350
5B
  3
C0
350
5C
  3
C1
350
5D
  3
C2
350
5E
  3
C3
350
5F
  3
C4
350
60
  3
C5
350
61
  3
C6
350
62
  3
C7
350
63
  3
C8
350
64
  3
C9
350
65
  3
D0
350
66
  3
D1
350
67
  3
D2
350
68
  0
DICTIONARY
  5
2A
102
{ACAD_REACTORS
330
C
102
}
330
C
100
AcDbDictionary
281
     1
  3
2dWireframe
350
2F
  3
3D Hidden
350
31
  3
3dWireframe
350
30
  3
Basic
350
32
  3
Brighten
350
36
  3
ColorChange
350
3A
  3
Conceptual
350
34
  3
Dim
350
35
  3
Facepattern
350
39
  3
Flat
350
2B
  3
FlatWithEdges
350
2C
  3
Gouraud
350
2D
  3
GouraudWithEdges
350
2E
  3
Linepattern
350
38
  3
Realistic
350
33
  3
Thicken
350
37
  0
DICTIONARY
  5
530
102
{ACAD_REACTORS
330
C
102
}
330
C
100
AcDbDictionary
281
     1
  3
CANNOSCALE
350
533
  0
LAYOUT
  5
1E
102
{ACAD_REACTORS
330
1A
102
}
330
1A
100
AcDbPlotSettings
  1

  2
none_device
  4

  6

 40
0.0
 41
0.0
 42
0.0
 43
0.0
 44
0.0
 45
0.0
 46
0.0
 47
0.0
 48
0.0
 49
0.0
140
0.0
141
0.0
142
1.0
143
1.0
 70
   688
 72
     0
 73
     0
 74
     5
  7

 75
    16
147
1.0
148
0.0
149
0.0
100
AcDbLayout
  1
Layout1
 70
     1
 71
     1
 10
0.0
 20
0.0
 11
12.0
 21
9.0
 12
0.0
 22
0.0
 32
0.0
 14
1.00000000000000E+20
 24
1.00000000000000E+20
 34
1.00000000000000E+20
 15
-1.00000000000000E+20
 25
-1.00000000000000E+20
 35
-1.00000000000000E+20
146
0.0
 13
0.0
 23
0.0
 33
0.0
 16
1.0
 26
0.0
 36
0.0
 17
0.0
 27
1.0
 37
0.0
 76
     0
330
1B
  0
LAYOUT
  5
26
102
{ACAD_REACTORS
330
1A
102
}
330
1A
100
AcDbPlotSettings
  1

  2
none_device
  4

  6

 40
0.0
 41
0.0
 42
0.0
 43
0.0
 44
0.0
 45
0.0
 46
0.0
 47
0.0
 48
0.0
 49
0.0
140
0.0
141
0.0
142
1.0
143
1.0
 70
   688
 72
     0
 73
     0
 74
     5
  7

 75
    16
147
1.0
148
0.0
149
0.0
100
AcDbLayout
  1
Layout2
 70
     1
 71
     2
 10
0.0
 20
0.0
 11
0.0
 21
0.0
 12
0.0
 22
0.0
 32
0.0
 14
0.0
 24
0.0
 34
0.0
 15
0.0
 25
0.0
 35
0.0
146
0.0
 13
0.0
 23
0.0
 33
0.0
 16
1.0
 26
0.0
 36
0.0
 17
0.0
 27
1.0
 37
0.0
 76
     0
330
23
  0
LAYOUT
  5
22
102
{ACAD_REACTORS
330
1A
102
}
330
1A
100
AcDbPlotSettings
  1

  2
none_device
  4

  6

 40
0.0
 41
0.0
 42
0.0
 43
0.0
 44
0.0
 45
0.0
 46
0.0
 47
0.0
 48
0.0
 49
0.0
140
0.0
141
0.0
142
1.0
143
1.0
 70
  1712
 72
     0
 73
     0
 74
     0
  7

 75
     0
147
1.0
148
0.0
149
0.0
100
AcDbLayout
  1
Model
 70
     1
 71
     0
 10
0.0
 20
0.0
 11
12.0
 21
9.0
 12
0.0
 22
0.0
 32
0.0
 14
943.9342064489174
 24
-440.5780292524814
 34
0.0
 15
1363.934206448917
 25
-143.5780292524814
 35
0.0
146
0.0
 13
0.0
 23
0.0
 33
0.0
 16
1.0
 26
0.0
 36
0.0
 17
0.0
 27
1.0
 37
0.0
 76
     0
330
1F
331
29
  0
MLINESTYLE
  5
18
102
{ACAD_REACTORS
330
17
102
}
330
17
100
AcDbMlineStyle
  2
Standard
 70
     0
  3

 62
   256
 51
90.0
 52
90.0
 71
     2
 49
0.5
 62
   256
  6
BYLAYER
 49
-0.5
 62
   256
  6
BYLAYER
  0
ACDBPLACEHOLDER
  5
F
102
{ACAD_REACTORS
330
E
102
}
330
E
  0
SCALE
  5
48
102
{ACAD_REACTORS
330
47
102
}
330
47
100
AcDbScale
 70
     0
300
1:1
140
1.0
141
1.0
290
     1
  0
SCALE
  5
49
102
{ACAD_REACTORS
330
47
102
}
330
47
100
AcDbScale
 70
     0
300
1:2
140
1.0
141
2.0
290
     0
  0
SCALE
  5
4A
102
{ACAD_REACTORS
330
47
102
}
330
47
100
AcDbScale
 70
     0
300
1:4
140
1.0
141
4.0
290
     0
  0
SCALE
  5
4B
102
{ACAD_REACTORS
330
47
102
}
330
47
100
AcDbScale
 70
     0
300
1:5
140
1.0
141
5.0
290
     0
  0
SCALE
  5
4C
102
{ACAD_REACTORS
330
47
102
}
330
47
100
AcDbScale
 70
     0
300
1:8
140
1.0
141
8.0
290
     0
  0
SCALE
  5
4D
102
{ACAD_REACTORS
330
47
102
}
330
47
100
AcDbScale
 70
     0
300
1:10
140
1.0
141
10.0
290
     0
  0
SCALE
  5
4E
102
{ACAD_REACTORS
330
47
102
}
330
47
100
AcDbScale
 70
     0
300
1:16
140
1.0
141
16.0
290
     0
  0
SCALE
  5
4F
102
{ACAD_REACTORS
330
47
102
}
330
47
100
AcDbScale
 70
     0
300
1:20
140
1.0
141
20.0
290
     0
  0
SCALE
  5
50
102
{ACAD_REACTORS
330
47
102
}
330
47
100
AcDbScale
 70
     0
300
1:30
140
1.0
141
30.0
290
     0
  0
SCALE
  5
51
102
{ACAD_REACTORS
330
47
102
}
330
47
100
AcDbScale
 70
     0
300
1:40
140
1.0
141
40.0
290
     0
  0
SCALE
  5
52
102
{ACAD_REACTORS
330
47
102
}
330
47
100
AcDbScale
 70
     0
300
1:50
140
1.0
141
50.0
290
     0
  0
SCALE
  5
53
102
{ACAD_REACTORS
330
47
102
}
330
47
100
AcDbScale
 70
     0
300
1:100
140
1.0
141
100.0
290
     0
  0
SCALE
  5
54
102
{ACAD_REACTORS
330
47
102
}
330
47
100
AcDbScale
 70
     0
300
2:1
140
2.0
141
1.0
290
     0
  0
SCALE
  5
55
102
{ACAD_REACTORS
330
47
102
}
330
47
100
AcDbScale
 70
     0
300
4:1
140
4.0
141
1.0
290
     0
  0
SCALE
  5
56
102
{ACAD_REACTORS
330
47
102
}
330
47
100
AcDbScale
 70
     0
300
8:1
140
8.0
141
1.0
290
     0
  0
SCALE
  5
57
102
{ACAD_REACTORS
330
47
102
}
330
47
100
AcDbScale
 70
     0
300
10:1
140
10.0
141
1.0
290
     0
  0
SCALE
  5
58
102
{ACAD_REACTORS
330
47
102
}
330
47
100
AcDbScale
 70
     0
300
100:1
140
100.0
141
1.0
290
     0
  0
SCALE
  5
59
102
{ACAD_REACTORS
330
47
102
}
330
47
100
AcDbScale
 70
     0
300
1/128" = 1'-0"
140
0.0078125
141
12.0
290
     0
  0
SCALE
  5
5A
102
{ACAD_REACTORS
330
47
102
}
330
47
100
AcDbScale
 70
     0
300
1/64" = 1'-0"
140
0.015625
141
12.0
290
     0
  0
SCALE
  5
5B
102
{ACAD_REACTORS
330
47
102
}
330
47
100
AcDbScale
 70
     0
300
1/32" = 1'-0"
140
0.03125
141
12.0
290
     0
  0
SCALE
  5
5C
102
{ACAD_REACTORS
330
47
102
}
330
47
100
AcDbScale
 70
     0
300
1/16" = 1'-0"
140
0.0625
141
12.0
290
     0
  0
SCALE
  5
5D
102
{ACAD_REACTORS
330
47
102
}
330
47
100
AcDbScale
 70
     0
300
3/32" = 1'-0"
140
0.09375
141
12.0
290
     0
  0
SCALE
  5
5E
102
{ACAD_REACTORS
330
47
102
}
330
47
100
AcDbScale
 70
     0
300
1/8" = 1'-0"
140
0.125
141
12.0
290
     0
  0
SCALE
  5
5F
102
{ACAD_REACTORS
330
47
102
}
330
47
100
AcDbScale
 70
     0
300
3/16" = 1'-0"
140
0.1875
141
12.0
290
     0
  0
SCALE
  5
60
102
{ACAD_REACTORS
330
47
102
}
330
47
100
AcDbScale
 70
     0
300
1/4" = 1'-0"
140
0.25
141
12.0
290
     0
  0
SCALE
  5
61
102
{ACAD_REACTORS
330
47
102
}
330
47
100
AcDbScale
 70
     0
300
3/8" = 1'-0"
140
0.375
141
12.0
290
     0
  0
SCALE
  5
62
102
{ACAD_REACTORS
330
47
102
}
330
47
100
AcDbScale
 70
     0
300
1/2" = 1'-0"
140
0.5
141
12.0
290
     0
  0
SCALE
  5
63
102
{ACAD_REACTORS
330
47
102
}
330
47
100
AcDbScale
 70
     0
300
3/4" = 1'-0"
140
0.75
141
12.0
290
     0
  0
SCALE
  5
64
102
{ACAD_REACTORS
330
47
102
}
330
47
100
AcDbScale
 70
     0
300
1" = 1'-0"
140
1.0
141
12.0
290
     0
  0
SCALE
  5
65
102
{ACAD_REACTORS
330
47
102
}
330
47
100
AcDbScale
 70
     0
300
1-1/2" = 1'-0"
140
1.5
141
12.0
290
     0
  0
SCALE
  5
66
102
{ACAD_REACTORS
330
47
102
}
330
47
100
AcDbScale
 70
     0
300
3" = 1'-0"
140
3.0
141
12.0
290
     0
  0
SCALE
  5
67
102
{ACAD_REACTORS
330
47
102
}
330
47
100
AcDbScale
 70
     0
300
6" = 1'-0"
140
6.0
141
12.0
290
     0
  0
SCALE
  5
68
102
{ACAD_REACTORS
330
47
102
}
330
47
100
AcDbScale
 70
     0
300
1'-0" = 1'-0"
140
12.0
141
12.0
290
     0
  0
VISUALSTYLE
  5
2F
102
{ACAD_REACTORS
330
2A
102
}
330
2A
100
AcDbVisualStyle
  2
2dWireframe
 70
     4
 71
     0
 72
     2
 73
     0
 90
        0
 40
-0.6
 41
-30.0
 62
     5
 63
     7
 74
     1
 91
        4
 64
     7
 65
   257
 75
     1
175
     1
 42
1.0
 92
        0
 66
   257
 43
1.0
 76
     1
 77
     6
 78
     2
 67
     7
 79
     5
170
     0
171
     0
290
     0
174
     0
 93
        1
 44
0.0
173
     0
291
     0
 45
0.0
1001
ACAD
1000
AcDbSavedByObjectVersion
1070
     0
  0
VISUALSTYLE
  5
31
102
{ACAD_REACTORS
330
2A
102
}
330
2A
100
AcDbVisualStyle
  2
3D Hidden
 70
     6
 71
     1
 72
     2
 73
     2
 90
        0
 40
-0.6
 41
-30.0
 62
     5
 63
     7
 74
     2
 91
        2
 64
     7
 65
   257
 75
     2
175
     1
 42
40.0
 92
        0
 66
   257
 43
1.0
 76
     1
 77
     6
 78
     2
 67
     7
 79
     3
170
     0
171
     0
290
     0
174
     0
 93
        1
 44
0.0
173
     0
291
     0
 45
0.0
1001
ACAD
1000
AcDbSavedByObjectVersion
1070
     0
  0
VISUALSTYLE
  5
30
102
{ACAD_REACTORS
330
2A
102
}
330
2A
100
AcDbVisualStyle
  2
3dWireframe
 70
     5
 71
     0
 72
     2
 73
     0
 90
        0
 40
-0.6
 41
-30.0
 62
     5
 63
     7
 74
     1
 91
        4
 64
     7
 65
   257
 75
     1
175
     1
 42
1.0
 92
        0
 66
   257
 43
1.0
 76
     1
 77
     6
 78
     2
 67
     7
 79
     5
170
     0
171
     0
290
     0
174
     0
 93
        1
 44
0.0
173
     0
291
     0
 45
0.0
1001
ACAD
1000
AcDbSavedByObjectVersion
1070
     0
  0
VISUALSTYLE
  5
32
102
{ACAD_REACTORS
330
2A
102
}
330
2A
100
AcDbVisualStyle
  2
Basic
 70
     7
 71
     1
 72
     0
 73
     1
 90
        0
 40
-0.6
 41
-30.0
 62
     5
 63
     7
 74
     0
 91
        4
 64
     7
 65
   257
 75
     1
175
     1
 42
1.0
 92
        8
 66
     7
 43
1.0
 76
     1
 77
     6
 78
     2
 67
     7
 79
     5
170
     0
171
     0
290
     0
174
     0
 93
        1
 44
0.0
173
     0
291
     1
 45
0.0
1001
ACAD
1000
AcDbSavedByObjectVersion
1070
     0
  0
VISUALSTYLE
  5
36
102
{ACAD_REACTORS
330
2A
102
}
330
2A
100
AcDbVisualStyle
  2
Brighten
 70
    12
 71
     2
 72
     2
 73
     0
 90
        0
 40
-0.6
 41
-30.0
 62
     5
 63
     7
 74
     1
 91
        4
 64
     7
 65
   257
 75
     1
175
     1
 42
1.0
 92
        8
 66
     7
 43
1.0
 76
     1
 77
     6
 78
     2
 67
     7
 79
     5
170
     0
171
     0
290
     0
174
     0
 93
        1
 44
50.0
173
     0
291
     1
 45
0.0
1001
ACAD
1000
AcDbSavedByObjectVersion
1070
     0
  0
VISUALSTYLE
  5
3A
102
{ACAD_REACTORS
330
2A
102
}
330
2A
100
AcDbVisualStyle
  2
ColorChange
 70
    16
 71
     2
 72
     2
 73
     3
 90
        0
 40
-0.6
 41
-30.0
 62
     5
 63
     8
 74
     1
 91
        4
 64
     7
 65
   257
 75
     1
175
     1
 42
1.0
 92
        8
 66
     8
 43
1.0
 76
     1
 77
     6
 78
     2
 67
     7
 79
     5
170
     0
171
     0
290
     0
174
     0
 93
        1
 44
0.0
173
     0
291
     1
 45
0.0
1001
ACAD
1000
AcDbSavedByObjectVersion
1070
     0
  0
VISUALSTYLE
  5
34
102
{ACAD_REACTORS
330
2A
102
}
330
2A
100
AcDbVisualStyle
  2
Conceptual
 70
     9
 71
     3
 72
     2
 73
     0
 90
        0
 40
-0.6
 41
-30.0
 62
     5
 63
     7
 74
     2
 91
        2
 64
     7
 65
   257
 75
     1
175
     1
 42
40.0
 92
        8
 66
     7
 43
1.0
 76
     1
 77
     6
 78
     2
 67
     7
 79
     3
170
     0
171
     0
290
     0
174
     0
 93
        1
 44
0.0
173
     0
291
     0
 45
0.0
1001
ACAD
1000
AcDbSavedByObjectVersion
1070
     0
  0
VISUALSTYLE
  5
35
102
{ACAD_REACTORS
330
2A
102
}
330
2A
100
AcDbVisualStyle
  2
Dim
 70
    11
 71
     2
 72
     2
 73
     0
 90
        0
 40
-0.6
 41
-30.0
 62
     5
 63
     7
 74
     1
 91
        4
 64
     7
 65
   257
 75
     1
175
     1
 42
1.0
 92
        8
 66
     7
 43
1.0
 76
     1
 77
     6
 78
     2
 67
     7
 79
     5
170
     0
171
     0
290
     0
174
     0
 93
        1
 44
-50.0
173
     0
291
     1
 45
0.0
1001
ACAD
1000
AcDbSavedByObjectVersion
1070
     0
  0
VISUALSTYLE
  5
39
102
{ACAD_REACTORS
330
2A
102
}
330
2A
100
AcDbVisualStyle
  2
Facepattern
 70
    15
 71
     2
 72
     2
 73
     0
 90
        0
 40
-0.6
 41
-30.0
 62
     5
 63
     7
 74
     1
 91
        4
 64
     7
 65
   257
 75
     1
175
     1
 42
1.0
 92
        8
 66
     7
 43
1.0
 76
     1
 77
     6
 78
     2
 67
     7
 79
     5
170
     0
171
     0
290
     0
174
     0
 93
        1
 44
0.0
173
     0
291
     1
 45
0.0
1001
ACAD
1000
AcDbSavedByObjectVersion
1070
     0
  0
VISUALSTYLE
  5
2B
102
{ACAD_REACTORS
330
2A
102
}
330
2A
100
AcDbVisualStyle
  2
Flat
 70
     0
 71
     2
 72
     1
 73
     1
 90
        2
 40
-0.6
 41
30.0
 62
     5
 63
     7
 74
     0
 91
        4
 64
     7
 65
   257
 75
     1
175
     1
 42
1.0
 92
        8
 66
     7
 43
1.0
 76
     1
 77
     6
 78
     2
 67
     7
 79
     5
170
     0
171
     0
290
     0
174
     0
 93
       13
 44
0.0
173
     0
291
     1
 45
0.0
1001
ACAD
1000
AcDbSavedByObjectVersion
1070
     0
  0
VISUALSTYLE
  5
2C
102
{ACAD_REACTORS
330
2A
102
}
330
2A
100
AcDbVisualStyle
  2
FlatWithEdges
 70
     1
 71
     2
 72
     1
 73
     1
 90
        2
 40
-0.6
 41
30.0
 62
     5
 63
     7
 74
     1
 91
        4
 64
     7
 65
   257
 75
     1
175
     1
 42
1.0
 92
        0
 66
   257
 43
1.0
 76
     1
 77
     6
 78
     2
 67
     7
 79
     5
170
     0
171
     0
290
     0
174
     0
 93
       13
 44
0.0
173
     0
291
     1
 45
0.0
1001
ACAD
1000
AcDbSavedByObjectVersion
1070
     0
  0
VISUALSTYLE
  5
2D
102
{ACAD_REACTORS
330
2A
102
}
330
2A
100
AcDbVisualStyle
  2
Gouraud
 70
     2
 71
     2
 72
     2
 73
     1
 90
        2
 40
-0.6
 41
30.0
 62
     5
 63
     7
 74
     0
 91
        4
 64
     7
 65
   257
 75
     1
175
     1
 42
1.0
 92
        0
 66
     7
 43
1.0
 76
     1
 77
     6
 78
     2
 67
     7
 79
     5
170
     0
171
     0
290
     0
174
     0
 93
       13
 44
0.0
173
     0
291
     1
 45
0.0
1001
ACAD
1000
AcDbSavedByObjectVersion
1070
     0
  0
VISUALSTYLE
  5
2E
102
{ACAD_REACTORS
330
2A
102
}
330
2A
100
AcDbVisualStyle
  2
GouraudWithEdges
 70
     3
 71
     2
 72
     2
 73
     1
 90
        2
 40
-0.6
 41
30.0
 62
     5
 63
     7
 74
     1
 91
        4
 64
     7
 65
   257
 75
     1
175
     1
 42
1.0
 92
        0
 66
   257
 43
1.0
 76
     1
 77
     6
 78
     2
 67
     7
 79
     5
170
     0
171
     0
290
     0
174
     0
 93
       13
 44
0.0
173
     0
291
     1
 45
0.0
1001
ACAD
1000
AcDbSavedByObjectVersion
1070
     0
  0
VISUALSTYLE
  5
38
102
{ACAD_REACTORS
330
2A
102
}
330
2A
100
AcDbVisualStyle
  2
Linepattern
 70
    14
 71
     2
 72
     2
 73
     0
 90
        0
 40
-0.6
 41
-30.0
 62
     5
 63
     7
 74
     1
 91
        4
 64
     7
 65
   257
 75
     7
175
     7
 42
1.0
 92
        8
 66
     7
 43
1.0
 76
     1
 77
     6
 78
     2
 67
     7
 79
     5
170
     0
171
     0
290
     0
174
     0
 93
        1
 44
0.0
173
     0
291
     1
 45
0.0
1001
ACAD
1000
AcDbSavedByObjectVersion
1070
     0
  0
VISUALSTYLE
  5
33
102
{ACAD_REACTORS
330
2A
102
}
330
2A
100
AcDbVisualStyle
  2
Realistic
 70
     8
 71
     2
 72
     2
 73
     0
 90
        0
 40
-0.6
 41
-30.0
 62
     5
 63
     7
 74
     1
 91
        0
 64
     7
 65
   257
 75
     1
175
     1
 42
1.0
 92
        8
 66
     8
 43
1.0
 76
     1
 77
     6
 78
     2
 67
     7
 79
     5
170
     0
171
     0
290
     0
174
     0
 93
       13
 44
0.0
173
     0
291
     0
 45
0.0
1001
ACAD
1000
AcDbSavedByObjectVersion
1070
     0
  0
VISUALSTYLE
  5
37
102
{ACAD_REACTORS
330
2A
102
}
330
2A
100
AcDbVisualStyle
  2
Thicken
 70
    13
 71
     2
 72
     2
 73
     0
 90
        0
 40
-0.6
 41
-30.0
 62
     5
 63
     7
 74
     1
 91
        4
 64
     7
 65
   257
 75
     1
175
     1
 42
1.0
 92
       12
 66
     7
 43
1.0
 76
     1
 77
     6
 78
     2
 67
     7
 79
     5
170
     0
171
     0
290
     0
174
     0
 93
        1
 44
0.0
173
     0
291
     1
 45
0.0
1001
ACAD
1000
AcDbSavedByObjectVersion
1070
     0
  0
DICTIONARYVAR
  5
533
102
{ACAD_REACTORS
330
530
102
}
330
530
100
DictionaryVariables
280
     0
  1
1:1
  0
ENDSEC
  0
EOF
